#TITLE:Shanghai Rave (Abime Mix);
#SUBTITLE:;
#ARTIST:Shanghai Sisters;
#TITLETRANSLIT:;
#SUBTITLETRANSLIT:;
#ARTISTTRANSLIT:;
#GENRE:;
#CREDIT:Chewphoria~;
#MENUCOLOR:;
#METERTYPE:DDR;
#BANNER:Shanghai Rave (Abime Mix).PNG;
#BACKGROUND:Shanghai Rave (Abime Mix)-bg.PNG;
#LYRICSPATH:;
#CDTITLE:;
#MUSIC:Shanghai Rave (Abime Mix).MP3;
#OFFSET:-7.932;
#SAMPLESTART:54.214;
#SAMPLELENGTH:15.000;
#SELECTABLE:YES;
#LISTSORT:;
#DISPLAYBPM:144.000;
#BPMS:0.000=145.210,144.000=144.210,176.000=145.210;
#STOPS:;
#BGCHANGES:;
#ATTACKS:;

//---------------dance-single - Chewphoria~----------------
#NOTES:
     dance-single:
     Chewphoria~:
     Hard:
     11:
     0.503,0.516,0.447,0.043,0.032: // measure 1
0100
1000
0100
0000
0001
0010
0001
0000
,  // measure 2
1000
0100
1000
0000
0101
0000
1001
0000
,  // measure 3
0100
0001
0100
0000
1000
0100
1000
0000
,  // measure 4
0010
1000
0010
0000
1010
0000
1001
0000
,  // measure 5
0010
0000
0000
0000
,  // measure 6
0000
0000
0000
0000
,  // measure 7
0001
0000
0100
0000
0001
1000
0100
0000
0100
0000
0100
0000
1001
0000
0000
0000
,  // measure 8
0010
0000
0001
0000
0010
0100
0001
0000
0001
0000
0001
0000
0110
0000
0000
0000
,  // measure 9
0100
0000
1000
0000
0100
0010
1000
0000
1000
0000
1000
0000
0110
0000
0000
0000
,  // measure 10
1000
0000
0010
0000
1000
0001
0010
0000
0010
0000
0010
0000
1001
0000
0000
0000
,  // measure 11
0001
0000
0100
0000
0001
1000
0100
0000
0100
0000
0100
0000
1001
0000
0000
0000
,  // measure 12
1000
0100
0010
0001
1000
0100
0010
0001
,  // measure 13
0001
0011
0001
0101
,  // measure 14
1000
0100
1000
0000
0001
0000
1001
0000
,  // measure 15
0010
0110
0100
0101
,  // measure 16
0100
0001
0100
0000
0100
1000
0100
0000
,  // measure 17
1000
1001
0001
1001
,  // measure 18
0010
0100
0010
0000
0100
0010
0100
0000
,  // measure 19
0001
1001
1000
1100
,  // measure 20
1000
0100
0010
0001
0100
0010
1000
0000
,  // measure 21
0001
0100
0010
0000
1000
1000
1000
0000
,  // measure 22
1000
0100
0010
0000
0001
0001
0001
0000
,  // measure 23
1000
0001
1000
0000
0010
0010
0010
0000
,  // measure 24
0001
1000
0001
0000
0100
0100
0100
0000
,  // measure 25
0010
1000
0100
0000
0100
0100
0100
0000
,  // measure 26
0010
0001
0100
0000
0100
0100
0100
0000
,  // measure 27
0010
1000
0010
1000
0010
0001
0010
0001
,  // measure 28
0010
1000
0100
0010
0001
0100
0000
0000
,  // measure 29
0001
1000
0100
0000
1000
0001
0100
0000
,  // measure 30
1001
0110
1001
0110
,  // measure 31
1000
0001
0010
0000
0001
1000
0010
0000
,  // measure 32
1001
0110
1001
0110
,  // measure 33
1000
0100
0001
0010
0100
1000
0010
0000
,  // measure 34
1000
0100
0001
0010
1000
0100
0010
0000
,  // measure 35
0001
0010
0100
1000
0010
0100
0001
0000
,  // measure 36
1001
1100
1001
0101
,  // measure 37
0010
0100
0001
1000
0010
0100
0010
0000
,  // measure 38
0010
0100
0001
1000
0010
0100
0010
0000
,  // measure 39
0100
0010
1000
0001
0100
0010
0100
0000
,  // measure 40
0100
0010
1000
0001
0100
0010
0100
0000
,  // measure 41
1000
0100
0010
0001
0100
0010
1000
0000
,  // measure 42
1000
0100
0010
0001
0100
0010
1000
0000
,  // measure 43
0001
0010
0100
1000
0010
0100
0001
0000
,  // measure 44
0001
0010
0100
1000
0010
0100
0001
0000
,  // measure 45
1100
0000
1001
0000
,  // measure 46
0101
0000
1001
0000
,  // measure 47
0011
1001
1010
1001
,  // measure 48
0100
0000
0000
0010
0000
0000
0100
0000
0000
0010
0000
0000
0100
0000
0000
0000
0100
0000
0000
0000
0000
0000
0000
0000
,  // measure 49
0101
0000
1001
0000
,  // measure 50
0011
0000
1001
0000
,  // measure 51
2000
3200
0320
0032
,  // measure 52
0103
0000
0000
0000
;

//---------------dance-single - Chewphoria~----------------
#NOTES:
     dance-single:
     Chewphoria~:
     Medium:
     7:
     0.376,0.380,0.287,0.106,0.000: // measure 1
0102
1000
0100
1000
,  // measure 2
0100
1000
0103
1001
,  // measure 3
2100
0001
0100
0001
,  // measure 4
0100
0001
0100
3001
,  // measure 5
1001
0000
0000
0000
,  // measure 6
0000
0000
0000
0000
,  // measure 7
0200
0010
0000
0010
,  // measure 8
0320
0100
0000
0100
,  // measure 9
2030
0001
0000
0001
,  // measure 10
3002
1000
0000
1000
,  // measure 11
1003
0100
0010
0001
,  // measure 12
0010
1000
0100
0001
,  // measure 13
0001
1000
0100
0000
1000
0001
0100
0000
,  // measure 14
0001
0100
1000
0010
,  // measure 15
1000
0001
0100
0000
1000
0001
0100
0000
,  // measure 16
1000
0100
0001
0010
,  // measure 17
0010
1000
0100
0000
0010
0001
0100
0000
,  // measure 18
0001
0001
1000
1000
,  // measure 19
0100
1000
0010
0000
0100
0001
0010
0000
,  // measure 20
1000
1000
0001
0001
,  // measure 21
0012
1000
0010
1000
,  // measure 22
0010
1000
0013
1001
,  // measure 23
2010
0001
0010
0001
,  // measure 24
0010
0001
3010
1001
,  // measure 25
0102
1000
0100
1000
,  // measure 26
0100
1000
0103
1001
,  // measure 27
2100
0001
0100
0001
,  // measure 28
0100
0001
3100
1001
,  // measure 29
1000
0001
0010
0000
0001
1000
0010
0000
,  // measure 30
1000
0010
0001
0100
,  // measure 31
0001
1000
0010
0000
0001
1000
0010
0000
,  // measure 32
0001
0010
1000
0100
,  // measure 33
0100
0001
0010
0000
0100
1000
0010
0000
,  // measure 34
1000
1000
0001
0001
,  // measure 35
0100
1000
0010
0000
0100
0001
0010
0000
,  // measure 36
1000
1000
0001
0001
,  // measure 37
1000
1000
1000
0000
0001
0001
0001
0000
,  // measure 38
0010
0100
0010
0100
,  // measure 39
0010
0010
0010
0000
0100
0100
0100
0000
,  // measure 40
1000
0001
1000
0001
,  // measure 41
0001
0001
0001
0000
1000
1000
1000
0000
,  // measure 42
0100
0010
0100
0010
,  // measure 43
0100
0100
0100
0000
0010
0010
0010
0000
,  // measure 44
0001
1000
0001
1000
,  // measure 45
1100
0000
1001
0000
,  // measure 46
0101
0000
1001
0000
,  // measure 47
0011
0100
1001
0010
,  // measure 48
1010
0100
1001
0010
,  // measure 49
1100
0000
1001
0000
,  // measure 50
0101
0000
1001
0000
,  // measure 51
1010
0010
0101
0001
,  // measure 52
1001
0000
0000
0000
;

//---------------dance-single - Chewphoria~----------------
#NOTES:
     dance-single:
     Chewphoria~:
     Easy:
     4:
     0.198,0.244,0.075,0.170,0.000: // measure 1
0100
0000
1000
0000
,  // measure 2
0100
0000
1000
0000
,  // measure 3
0100
0000
0001
0000
,  // measure 4
0100
0000
0001
0000
,  // measure 5
1001
0000
0000
0000
,  // measure 6
0000
0000
0000
0000
,  // measure 7
1000
0000
0000
0000
,  // measure 8
0001
0000
0000
0000
,  // measure 9
0010
0010
0010
0000
,  // measure 10
1000
0000
0000
0000
,  // measure 11
1000
1000
1000
0000
,  // measure 12
0010
0000
0000
0000
,  // measure 13
0002
0000
0000
0003
,  // measure 14
2000
0000
0000
3000
,  // measure 15
0020
0000
0000
0030
,  // measure 16
2000
0000
0000
3000
,  // measure 17
0002
0000
0000
0003
,  // measure 18
2000
0000
0000
3000
,  // measure 19
0200
0000
0000
0300
,  // measure 20
0010
0010
0010
0010
,  // measure 21
2002
0000
0000
3003
,  // measure 22
0200
0000
0000
0300
,  // measure 23
0020
0000
0000
0030
,  // measure 24
2002
0000
0000
3003
,  // measure 25
1000
1000
1000
0000
,  // measure 26
0100
0100
0100
0000
,  // measure 27
0010
0010
0010
0000
,  // measure 28
0001
0001
0001
0000
,  // measure 29
0001
0100
0010
1000
,  // measure 30
1001
0000
1000
0000
,  // measure 31
1000
0100
0010
0001
,  // measure 32
1001
0000
0001
0000
,  // measure 33
0100
0100
0100
0000
,  // measure 34
0010
0010
0010
0000
,  // measure 35
1000
0001
1000
0000
,  // measure 36
0001
1000
0001
0000
,  // measure 37
1001
0000
0100
0000
,  // measure 38
0010
0000
0100
0000
,  // measure 39
1000
0000
0100
0000
,  // measure 40
0001
0000
0010
0000
,  // measure 41
1000
1000
1000
0000
,  // measure 42
0001
0001
0001
0000
,  // measure 43
1000
0001
1000
0000
,  // measure 44
0001
1000
0001
1000
,  // measure 45
1001
0000
0100
0000
,  // measure 46
0010
0000
0100
0000
,  // measure 47
1000
1000
1000
1000
,  // measure 48
2000
0000
0000
3000
,  // measure 49
0001
0000
0001
0000
,  // measure 50
0100
0000
0100
0000
,  // measure 51
0020
0000
2030
0000
,  // measure 52
3001
0000
0000
0000
;

//---------------dance-single - Chewphoria~----------------
#NOTES:
     dance-single:
     Chewphoria~:
     Beginner:
     1:
     0.123,0.190,0.117,0.000,0.000: // measure 1
1000
0000
0000
0000
,  // measure 2
0001
0000
0000
0000
,  // measure 3
1000
0000
0000
0000
,  // measure 4
0100
0000
0000
0000
,  // measure 5
1001
0000
0000
0000
,  // measure 6
0000
0000
0000
0000
,  // measure 7
1000
0000
0001
0000
,  // measure 8
1000
0000
0000
0000
,  // measure 9
0100
0000
0000
0000
,  // measure 10
1000
0000
0000
0000
,  // measure 11
0010
0000
0000
0000
,  // measure 12
0001
0000
0000
0000
,  // measure 13
1001
0000
1000
0000
,  // measure 14
1000
0000
1000
0000
,  // measure 15
1001
0000
0001
0000
,  // measure 16
0001
0000
0001
0000
,  // measure 17
0100
0000
0100
0000
,  // measure 18
0100
0000
0100
0000
,  // measure 19
0010
0000
0010
0000
,  // measure 20
0010
0000
0000
0000
,  // measure 21
1001
0000
0000
0000
,  // measure 22
1000
0000
0000
0000
,  // measure 23
0100
0000
0000
0000
,  // measure 24
0001
0000
0000
0000
,  // measure 25
1001
0000
0000
0000
,  // measure 26
0010
0000
0000
0000
,  // measure 27
1000
0000
0000
0000
,  // measure 28
0010
0000
0010
0000
,  // measure 29
0001
0001
0001
0000
,  // measure 30
0001
0000
0000
0000
,  // measure 31
1000
1000
1000
0000
,  // measure 32
1000
0000
0000
0000
,  // measure 33
0010
0010
0010
0000
,  // measure 34
0010
0000
0000
0000
,  // measure 35
0100
0100
0100
0000
,  // measure 36
0100
0000
0000
0000
,  // measure 37
1000
0000
0000
0000
,  // measure 38
0001
0000
0000
0000
,  // measure 39
1000
0000
0000
0000
,  // measure 40
0001
0000
0000
0000
,  // measure 41
0010
0000
0000
0000
,  // measure 42
0100
0000
0000
0000
,  // measure 43
0010
0000
0000
0000
,  // measure 44
0100
0000
0000
0000
,  // measure 45
1001
0000
0000
0000
,  // measure 46
1001
0000
0000
0000
,  // measure 47
1001
0000
0000
0000
,  // measure 48
0100
0100
0100
0000
,  // measure 49
0110
0000
0000
0000
,  // measure 50
0110
0000
0000
0000
,  // measure 51
0110
0000
0000
0000
,  // measure 52
1000
0000
0000
0000
;
