#TITLE:Shala La;
#SUBTITLE:;
#ARTIST:THE ORAL CIGARETTES;
#TITLETRANSLIT:;
#SUBTITLETRANSLIT:;
#ARTISTTRANSLIT:;
#GENRE:Rock;
#CREDIT:chewi;
#BANNER:Shala La.png;
#BACKGROUND:Shala La-bg.png;
#LYRICSPATH:;
#CDTITLE:cdtitle.png;
#MUSIC:Shala La.ogg;
#OFFSET:-0.119000;
#SAMPLESTART:49.487000;
#SAMPLELENGTH:15.000000;
#SELECTABLE:YES;
#DISPLAYBPM:192.000000;
#BPMS:0.000000=192.000000
;
#STOPS:
;
#BGCHANGES:;
#KEYSOUNDS:;
#ATTACKS:;

//---------------dance-single - ----------------
#NOTES:
     dance-single:
     :
     Beginner:
     3:
     0.153974,0.188109,0.010168,0.081345,0.000000,106.000000,105.000000,1.000000,8.000000,0.000000,0.000000,0.153974,0.188109,0.010168,0.081345,0.000000,106.000000,105.000000,1.000000,8.000000,0.000000,0.000000:
// measure 0
0000
0000
0000
0000
,  // measure 1
0000
0000
0000
0000
,  // measure 2
0000
0000
0000
0000
,  // measure 3
0000
0000
0000
0000
,  // measure 4
1000
0000
1000
0000
,  // measure 5
1000
0000
0000
0000
,  // measure 6
0001
0000
0001
0000
,  // measure 7
0001
0000
0000
0000
,  // measure 8
0100
0000
0100
0000
,  // measure 9
0100
0000
0000
0000
,  // measure 10
0010
0000
0010
0000
,  // measure 11
0010
0000
0000
0000
,  // measure 12
2000
0000
0000
3000
,  // measure 13
1000
0000
0000
0000
,  // measure 14
0002
0000
0000
0003
,  // measure 15
0001
0000
0000
0000
,  // measure 16
1000
0000
1000
0000
,  // measure 17
1000
0000
0000
0000
,  // measure 18
0001
0000
0001
0000
,  // measure 19
0001
0000
0000
0000
,  // measure 20
0200
0000
0000
0300
,  // measure 21
0100
0000
0000
0000
,  // measure 22
0020
0000
0000
0030
,  // measure 23
0010
0000
0000
0000
,  // measure 24
1000
0000
1000
0000
,  // measure 25
1000
0000
0010
0000
,  // measure 26
0001
0000
0001
0000
,  // measure 27
0001
0000
0010
0000
,  // measure 28
0100
0000
0100
0000
,  // measure 29
0100
0000
1000
0000
,  // measure 30
0010
0000
0010
0000
,  // measure 31
0010
0000
0100
0000
,  // measure 32
0001
0000
0001
0000
,  // measure 33
0001
0000
0000
0000
,  // measure 34
0010
0000
0010
0000
,  // measure 35
0010
0000
0000
0000
,  // measure 36
1000
0000
1000
0000
,  // measure 37
1000
0000
0000
0000
,  // measure 38
0001
0000
0001
0000
,  // measure 39
0001
0000
0000
0000
,  // measure 40
0001
0000
0001
0000
,  // measure 41
0100
0000
0100
0000
,  // measure 42
0001
0000
0100
0000
,  // measure 43
0001
0000
0100
0000
,  // measure 44
0001
0000
0001
0000
,  // measure 45
0010
0000
0010
0000
,  // measure 46
0001
0000
0010
0000
,  // measure 47
0001
0000
0010
0000
,  // measure 48
0001
0000
0001
0000
,  // measure 49
0010
0000
0010
0000
,  // measure 50
0001
0000
0010
0000
,  // measure 51
0001
0000
0010
0000
,  // measure 52
0001
0000
0001
0000
,  // measure 53
0100
0000
0100
0000
,  // measure 54
0001
0000
0100
0000
,  // measure 55
0001
0000
0100
0000
,  // measure 56
0002
0000
0000
0003
,  // measure 57
0001
0000
0000
0000
,  // measure 58
2000
0000
0000
3000
,  // measure 59
1000
0000
0000
0000
,  // measure 60
0020
0000
0000
0030
,  // measure 61
0010
0000
0000
0000
,  // measure 62
0200
0000
0000
0300
,  // measure 63
0100
0000
0000
0000
,  // measure 64
0001
0000
0000
0000
,  // measure 65
1000
0000
0000
0000
,  // measure 66
0001
0000
0000
0000
,  // measure 67
1000
0000
0000
0000
,  // measure 68
0100
0000
0000
0000
,  // measure 69
0010
0000
0000
0000
,  // measure 70
0100
0000
0000
0000
,  // measure 71
0010
0000
0000
0000
,  // measure 72
0001
0000
0000
0000
,  // measure 73
0001
0000
0000
0000
,  // measure 74
1001
0000
0000
0000
;

//---------------dance-single - ----------------
#NOTES:
     dance-single:
     :
     Easy:
     5:
     0.318116,0.343173,0.040672,0.183025,0.000000,219.000000,215.000000,4.000000,18.000000,0.000000,0.000000,0.318116,0.343173,0.040672,0.183025,0.000000,219.000000,215.000000,4.000000,18.000000,0.000000,0.000000:
// measure 0
0000
0000
0000
0000
,  // measure 1
0000
0000
0000
0000
,  // measure 2
0000
0000
0000
0000
,  // measure 3
0000
0000
0000
0000
,  // measure 4
1000
0000
1000
0000
,  // measure 5
1000
0100
1000
0000
,  // measure 6
0001
0000
0001
0000
,  // measure 7
0001
0100
0001
0000
,  // measure 8
0100
0000
0010
0000
,  // measure 9
1000
0000
0001
0000
,  // measure 10
0010
0000
0100
0000
,  // measure 11
1000
0000
0001
0000
,  // measure 12
1000
1000
1000
1000
,  // measure 13
0001
0001
0001
0001
,  // measure 14
1000
1000
1000
1000
,  // measure 15
0001
0001
0001
0001
,  // measure 16
1000
0000
0010
0000
,  // measure 17
1000
0010
1000
0000
,  // measure 18
0001
0000
0100
0000
,  // measure 19
0001
0100
0001
0000
,  // measure 20
0100
0100
0100
0100
,  // measure 21
0010
0010
0010
0010
,  // measure 22
0100
0100
0100
0100
,  // measure 23
0010
0010
0010
0010
,  // measure 24
1000
0000
1000
0000
,  // measure 25
1000
0100
0010
0001
,  // measure 26
0010
0000
0010
0000
,  // measure 27
0010
0000
0010
0000
,  // measure 28
0001
0000
0001
0000
,  // measure 29
0001
0010
0100
1000
,  // measure 30
0100
0000
0100
0000
,  // measure 31
0100
0000
0100
0000
,  // measure 32
1000
0000
0001
0000
,  // measure 33
0100
0010
1000
0001
,  // measure 34
0010
0000
0100
0000
,  // measure 35
1000
0001
0100
0010
,  // measure 36
1000
0000
0010
0000
,  // measure 37
0100
0001
0010
0100
,  // measure 38
1000
0000
0001
0000
,  // measure 39
1001
0000
1001
0000
,  // measure 40
0001
0010
0001
0010
,  // measure 41
0100
1000
0100
1000
,  // measure 42
0001
0010
0100
1000
,  // measure 43
0001
0010
0100
1000
,  // measure 44
0001
1000
0001
1000
,  // measure 45
0010
0100
0010
0100
,  // measure 46
0001
1000
0010
0100
,  // measure 47
0001
1000
0010
0100
,  // measure 48
0001
0100
0001
0100
,  // measure 49
0010
1000
0010
1000
,  // measure 50
0001
0100
0010
1000
,  // measure 51
0001
0100
0010
1000
,  // measure 52
0001
0010
0001
0010
,  // measure 53
0100
1000
0100
1000
,  // measure 54
0001
0010
0100
1000
,  // measure 55
0001
0010
0100
1000
,  // measure 56
0001
0001
0001
0001
,  // measure 57
1000
1000
1000
1000
,  // measure 58
0001
0001
0001
0001
,  // measure 59
1000
0000
0000
0000
,  // measure 60
0010
0010
0010
0010
,  // measure 61
0100
0100
0100
0100
,  // measure 62
0010
0010
0010
0010
,  // measure 63
0100
0100
0100
0100
,  // measure 64
0002
0000
0023
0000
,  // measure 65
0032
0000
0023
0000
,  // measure 66
0032
0000
0203
0000
,  // measure 67
0302
0000
0203
0000
,  // measure 68
0320
0000
2030
0000
,  // measure 69
3020
0000
2030
0000
,  // measure 70
3200
0000
2300
0000
,  // measure 71
3200
0000
2300
0000
,  // measure 72
3001
0000
0000
1000
,  // measure 73
0000
0000
1001
0000
,  // measure 74
0220
0000
0000
0000
,  // measure 75
0330
0000
0000
0000
;

//---------------dance-single - ----------------
#NOTES:
     dance-single:
     :
     Medium:
     8:
     0.490973,0.571954,0.518572,0.010168,0.086429,338.000000,287.000000,51.000000,1.000000,0.000000,0.000000,0.490973,0.571954,0.518572,0.010168,0.086429,338.000000,287.000000,51.000000,1.000000,0.000000,0.000000:
// measure 0
0000
0000
0000
0000
,  // measure 1
0000
0000
0000
0000
,  // measure 2
0000
0000
0000
0000
,  // measure 3
0000
0000
0000
0000
,  // measure 4
1000
0000
0001
1000
,  // measure 5
1001
0000
0110
0000
,  // measure 6
0100
0000
0010
0100
,  // measure 7
0110
0000
1001
0000
,  // measure 8
0001
0010
0100
1000
,  // measure 9
0001
0000
0001
1000
0000
0000
1000
0000
1000
0001
0000
0000
,  // measure 10
1000
0010
0100
0001
,  // measure 11
0100
0000
0100
0010
0000
0000
0010
0000
0010
0100
0000
0000
,  // measure 12
0001
1001
1000
1001
,  // measure 13
0001
1001
1000
1001
,  // measure 14
0010
0110
0100
0110
,  // measure 15
0010
0110
0100
0110
,  // measure 16
0010
0100
1000
0001
,  // measure 17
1000
0000
1000
0100
0000
0000
0100
0000
0100
1000
0000
0000
,  // measure 18
1000
0001
0100
0010
,  // measure 19
0100
0000
0100
0010
0000
0000
0010
0000
0010
0100
0000
0000
,  // measure 20
0001
0101
0100
0101
,  // measure 21
0001
0101
0100
0101
,  // measure 22
0001
1001
1000
1001
,  // measure 23
0001
0000
0001
1000
0000
0000
1000
0000
0000
1001
0000
0000
,  // measure 24
1000
0001
0010
0100
,  // measure 25
1000
1001
0001
1001
,  // measure 26
0001
0100
0010
1000
,  // measure 27
0001
1001
1000
1001
,  // measure 28
1000
0100
0010
0100
,  // measure 29
1000
1100
0100
1100
,  // measure 30
0001
0010
0100
0010
,  // measure 31
0001
0011
0010
0011
,  // measure 32
0001
0010
0100
1000
,  // measure 33
0001
0101
1000
1100
,  // measure 34
1000
0001
0100
0010
,  // measure 35
1000
1010
0001
0011
,  // measure 36
0010
0100
0010
0100
,  // measure 37
1000
0001
1000
0001
,  // measure 38
1000
0010
0100
0001
,  // measure 39
1000
0000
0001
0000
,  // measure 40
1000
0000
0000
0001
0000
0000
1000
0001
0000
1000
0000
0000
,  // measure 41
0001
0000
0000
1000
0000
0000
0001
0000
1000
0001
0000
0000
,  // measure 42
1000
0100
0010
0001
,  // measure 43
1000
0100
0010
0001
,  // measure 44
0010
0000
0000
0100
0000
0000
0010
0000
0100
0010
0000
0000
,  // measure 45
0100
0000
0000
0010
0000
0000
0100
0000
0010
0100
0000
0000
,  // measure 46
0010
0100
1000
0001
,  // measure 47
0100
0010
0100
0001
,  // measure 48
0100
0000
0000
0001
0000
0000
0100
0000
0001
0100
0000
0000
,  // measure 49
0010
0000
0000
1000
0000
0000
0010
0000
1000
0010
0000
0000
,  // measure 50
1000
0010
0100
0001
,  // measure 51
1000
0100
0010
0001
,  // measure 52
0010
0000
0000
0001
0000
0000
0010
0000
0001
0010
0000
0000
,  // measure 53
0001
0000
0000
0010
0000
0000
0001
0000
0010
0001
0000
0000
,  // measure 54
0010
0100
1000
0001
,  // measure 55
1000
0000
0001
1000
,  // measure 56
1001
0001
1001
1000
,  // measure 57
1001
1001
1001
0001
,  // measure 58
1001
1000
1001
0001
,  // measure 59
1001
1001
1001
0010
,  // measure 60
0110
0100
0110
0010
,  // measure 61
0110
0110
0110
0100
,  // measure 62
0110
0010
0110
0100
,  // measure 63
0110
0110
0110
0100
,  // measure 64
1000
0001
0000
0010
0000
0100
0000
1000
,  // measure 65
0000
0001
0000
0010
0000
0100
0000
1000
,  // measure 66
0000
0001
0000
0100
0000
0010
0000
1000
,  // measure 67
0000
0001
0000
0100
0000
0010
0000
1000
,  // measure 68
0000
0010
0000
0100
0000
0001
0000
1000
,  // measure 69
0000
0100
0000
0010
0000
0001
0000
1000
,  // measure 70
0000
0010
0000
0100
0000
0001
0000
1000
,  // measure 71
0000
0100
0000
0010
0100
0000
0000
0000
,  // measure 72
0010
0000
0000
0001
0000
0000
0100
0000
,  // measure 73
0000
1000
0000
0000
0010
0000
0001
0000
,  // measure 74
0200
0000
0000
0000
,  // measure 75
0300
0000
0000
0000
;

//---------------dance-single - ----------------
#NOTES:
     dance-single:
     :
     Hard:
     12:
     0.679809,0.724476,0.599917,0.020336,0.671093,468.000000,409.000000,59.000000,2.000000,0.000000,0.000000,0.679809,0.724476,0.599917,0.020336,0.671093,468.000000,409.000000,59.000000,2.000000,0.000000,0.000000:
// measure 0
0000
0000
0000
0000
,  // measure 1
0000
0000
0000
0000
,  // measure 2
0000
0000
0000
0000
,  // measure 3
0000
0000
0000
0000
,  // measure 4
1100
0000
0000
0000
0000
1000
0100
0000
0000
0010
0000
0000
,  // measure 5
0001
0000
0000
0000
0000
0001
0010
0000
0000
0011
0000
0000
,  // measure 6
0101
0000
0000
0000
0000
0001
0100
0000
0000
0010
0000
0000
,  // measure 7
1000
0010
1000
0010
0000
0000
1000
0000
0000
1001
0000
0000
,  // measure 8
1000
0000
0001
0100
0000
0000
0001
0000
1000
0100
0000
0000
,  // measure 9
1000
0000
0001
1000
0000
1000
0001
0000
0001
0100
0000
0000
,  // measure 10
0100
0000
0001
0010
0000
0000
0100
0000
1000
0010
0000
0000
,  // measure 11
0100
0000
0001
0010
0000
0010
0100
0000
0100
1000
0000
1000
,  // measure 12
0001
0000
0000
1000
0000
1000
0001
0000
0000
1000
0000
1000
,  // measure 13
0001
0000
0010
0000
0000
0100
0000
0000
1000
0001
0000
0001
,  // measure 14
0010
0000
0000
0001
0000
0001
0010
0000
0000
0100
0000
0100
,  // measure 15
1000
0000
0000
0100
0000
0000
1000
0001
1000
0001
0000
0000
,  // measure 16
0001
0000
1000
0010
0000
0000
1000
0000
0001
0010
0000
0000
,  // measure 17
0001
0000
1000
0001
0000
0001
1000
0000
1000
0010
0000
0000
,  // measure 18
0010
0000
1000
0100
0000
0000
0010
0000
0001
0100
0000
0000
,  // measure 19
0010
0000
1000
0100
0000
0100
0010
0000
0010
0001
0000
0001
,  // measure 20
1000
0000
0000
0001
0000
0001
1000
0000
0000
0001
0000
0001
,  // measure 21
1000
0000
0100
0000
0000
0010
0000
0000
0001
1000
0000
1000
,  // measure 22
0100
0000
0000
1000
0000
1000
0100
0000
0000
0010
0000
0000
,  // measure 23
0001
0010
0001
0010
0000
0000
0010
0001
0010
0001
0000
0000
,  // measure 24
0010
0000
0100
1000
0000
0000
0010
0000
0100
0001
0000
0000
,  // measure 25
0010
0000
0100
0010
0000
0010
0100
0000
0100
1000
0000
0000
,  // measure 26
0001
1001
1000
1001
,  // measure 27
1000
0000
0010
0100
0000
0001
1000
0000
0100
0010
0000
0000
,  // measure 28
0100
0000
0010
0001
0000
0000
0100
0000
0010
1000
0000
0000
,  // measure 29
0100
0000
0010
0100
0000
0100
0010
0000
0010
0001
0000
0000
,  // measure 30
1000
1001
0001
1001
,  // measure 31
0001
0000
0100
0010
0000
1000
0001
0000
0010
0100
0000
0000
,  // measure 32
1000
0000
0001
0010
0000
0000
0001
0000
1000
0100
0000
0000
,  // measure 33
1000
0000
0001
1000
0000
1000
0001
0000
0001
0010
0000
0000
,  // measure 34
0100
0110
0010
0110
,  // measure 35
0010
0000
0001
1000
0000
0010
0100
0000
0001
1000
0000
0000
,  // measure 36
0001
0000
1000
0100
0000
0000
1000
0000
0001
0010
0000
0000
,  // measure 37
0001
0000
1000
0001
0000
0001
1000
0000
1000
0100
0000
0000
,  // measure 38
0010
0110
0100
0110
,  // measure 39
0100
0010
0100
0010
0000
0100
0010
0000
0000
0000
0000
0000
,  // measure 40
0001
0011
1000
1100
,  // measure 41
0001
0101
1000
1010
,  // measure 42
0010
0000
0010
0100
0000
0100
0001
0000
0001
1000
0000
0000
,  // measure 43
1000
0000
1000
0001
0000
0000
0001
0010
0100
1000
0001
0010
,  // measure 44
0001
0011
1000
1100
,  // measure 45
0001
0101
1000
1010
,  // measure 46
0100
0000
0100
0010
0000
0010
1000
0000
1000
0001
0000
0000
,  // measure 47
0001
0000
0001
1000
0000
0000
1000
0100
0010
0001
1000
0100
,  // measure 48
1000
1010
0001
0101
,  // measure 49
0001
0011
1000
1100
,  // measure 50
1000
0000
1000
0001
0000
0001
0010
0000
0010
0100
0000
0000
,  // measure 51
0100
0000
0100
0010
0000
0000
0010
0001
0100
0010
1000
0001
,  // measure 52
1000
1100
0001
0011
,  // measure 53
0001
0101
1000
1010
,  // measure 54
0001
0000
0001
1000
0000
1000
0100
0000
0100
0010
0000
0000
,  // measure 55
0100
0000
0100
1000
0000
1000
0010
0000
0010
1000
0000
1000
,  // measure 56
0001
0000
0000
1000
0000
1000
0001
0000
0000
1000
0000
1000
,  // measure 57
0001
0000
0010
0000
0000
0100
0000
0000
1000
0001
0000
0001
,  // measure 58
0010
0000
0000
0001
0000
0001
0010
0000
0000
0100
0000
0100
,  // measure 59
1000
0000
0000
0100
0000
0000
0010
0000
0000
0001
0000
0001
,  // measure 60
1000
0000
0000
0001
0000
0001
1000
0000
0000
0001
0000
0001
,  // measure 61
1000
0000
0100
0000
0000
0010
0000
0000
0001
1000
0000
1000
,  // measure 62
0100
0000
0000
1000
0000
1000
0100
0000
0000
0010
0000
0010
,  // measure 63
0001
0000
0000
0010
0000
0000
0001
1000
0001
1000
0000
0000
,  // measure 64
0001
0101
0000
0011
0000
0101
0000
0011
,  // measure 65
0000
1100
0000
1010
0000
1100
0000
1010
,  // measure 66
0000
1001
0000
1001
0000
0110
0000
0110
,  // measure 67
0000
1010
0000
1010
0000
0101
0000
0101
,  // measure 68
0000
1010
0000
1100
0000
1010
0000
1100
,  // measure 69
0000
0011
0000
0101
0000
0011
0000
0101
,  // measure 70
0000
1001
0000
1001
0000
0110
0000
0110
,  // measure 71
0000
0000
1010
0000
0000
0000
0101
0000
0001
0100
0001
0100
0000
0000
0000
0000
,  // measure 72
0001
0001
0010
0100
0100
0010
0001
0001
,  // measure 73
0100
0010
0010
1000
0100
0010
0001
0000
,  // measure 74
2002
0000
0000
0000
,  // measure 75
3003
0000
0000
0000
;
