#TITLE:黄昏界;
#SUBTITLE:;
#ARTIST:歌者森;
#TITLETRANSLIT:Shadows;
#SUBTITLETRANSLIT:;
#ARTISTTRANSLIT:SingerSen;
#GENRE:;
#CREDIT:chewi;
#BANNER:Shadows.png;
#BACKGROUND:Shadows-bg.png;
#LYRICSPATH:;
#CDTITLE:cdtitle.png;
#MUSIC:Shadows.mp3;
#OFFSET:-0.599000;
#SAMPLESTART:45.583000;
#SAMPLELENGTH:15.000000;
#SELECTABLE:YES;
#DISPLAYBPM:128.000000;
#BPMS:0.000000=128.000000
;
#STOPS:
;
#BGCHANGES:;
#KEYSOUNDS:;
#ATTACKS:;

//---------------dance-single - ----------------
#NOTES:
     dance-single:
     :
     Beginner:
     2:
     0.145105,0.181577,0.010922,0.043688,0.000000,88.000000,1.000000,4.000000,0.000000,0.000000,0.000000,0.145105,0.181577,0.010922,0.043688,0.000000,88.000000,1.000000,4.000000,0.000000,0.000000,0.000000:
0000
0000
0000
0000
,
0000
0000
0000
0000
,
0000
0000
0000
0000
,
0000
0000
0000
0000
,
1000
0000
0000
0000
,
0100
0000
0000
0000
,
0010
0000
0000
0000
,
0001
0000
0000
0000
,
0001
0000
0001
0000
,
0001
0001
0001
0000
,
1000
0000
1000
0000
,
1000
1000
1000
0000
,
0010
0000
0010
0000
,
0010
0010
0010
0000
,
0100
0000
0100
0000
,
0100
0100
0100
0000
,
0000
0000
0010
0000
,
0000
0000
0000
0000
,
0100
0000
0000
0000
,
0100
0100
0100
0000
,
0000
0000
0010
0000
,
0000
0000
0000
0000
,
0100
0000
0000
0000
,
1001
0000
0000
0000
,
2000
0000
0000
3000
,
1000
0000
1000
0000
,
0002
0000
0000
0003
,
0001
0000
0001
0000
,
0200
0000
0000
0300
,
0100
0000
0100
0000
,
0020
0000
0000
0030
,
0010
0000
0010
0000
,
0010
0010
0010
0010
,
0010
0010
0010
0000
,
0100
0100
0100
0100
,
0100
0100
0100
0000
,
0001
0001
0001
0001
,
0001
0001
0001
0000
,
1000
1000
1000
1000
,
1000
1000
1000
0000
,
0001
0000
0001
0000
,
1000
0000
1000
0000
,
0001
0000
1000
0000
,
0001
0000
1000
0000
,
0010
0000
0010
0000
,
0100
0000
0100
0000
,
0010
0000
0100
0000
,
0010
0000
0100
0000
;

//---------------dance-single - ----------------
#NOTES:
     dance-single:
     :
     Easy:
     5:
     0.226240,0.205332,0.076453,0.000000,0.000000,138.000000,7.000000,0.000000,0.000000,0.000000,0.000000,0.226240,0.205332,0.076453,0.000000,0.000000,138.000000,7.000000,0.000000,0.000000,0.000000,0.000000:
0000
0000
0000
0000
,
0000
0000
0000
0000
,
0000
0000
0000
0000
,
0000
0000
0000
0000
,
1001
0000
0000
0000
,
1000
0001
1000
0000
,
0110
0000
0000
0000
,
0010
0100
0010
0000
,
1000
1000
0100
0100
,
1000
0100
1000
0000
,
0001
0001
0100
0100
,
0001
0100
0001
0000
,
0100
0100
0010
0010
,
0100
0010
0100
0000
,
0010
0010
0100
0100
,
0010
0100
0010
0000
,
0000
1000
1001
0000
,
0000
0000
0000
0001
,
1001
0000
0000
0000
,
0001
0010
0100
1000
,
0000
0100
0110
0000
,
0000
0000
0000
0010
,
0110
0000
0000
0000
,
1001
0000
0000
0000
,
0001
0100
0001
0100
,
1000
0100
1000
0100
,
0001
0100
1000
0100
,
0001
0100
1000
0100
,
0001
0010
0001
0010
,
1000
0010
1000
0010
,
0001
0010
1000
0010
,
0001
0010
1000
0010
,
0010
0010
0010
0000
,
0100
0100
0100
0000
,
0010
0001
1000
0100
,
0010
0001
1000
0100
,
1000
1000
1000
0000
,
0001
0001
0001
0000
,
0001
0100
0010
1000
,
0001
0100
0010
1000
,
0001
0001
0001
0001
,
1000
1000
1000
1000
,
0100
0100
0100
0100
,
0010
0010
0010
0010
,
0001
0010
0001
0010
,
0100
1000
0100
1000
,
0001
0100
0001
0100
,
0010
0000
0000
0000
;

//---------------dance-single - ----------------
#NOTES:
     dance-single:
     :
     Medium:
     8:
     0.351062,0.410664,0.557018,0.000000,0.000000,174.000000,51.000000,0.000000,0.000000,0.000000,0.000000,0.351062,0.410664,0.557018,0.000000,0.000000,174.000000,51.000000,0.000000,0.000000,0.000000,0.000000:
0000
0000
0000
0000
,
0000
0000
0000
0000
,
0000
0000
0000
0000
,
0000
0000
0000
0000
,
1000
0100
0011
0000
,
0001
0100
1010
0000
,
1000
0001
0110
0000
,
0001
1000
0110
0000
,
0010
0100
0000
0010
0000
0100
0000
0000
,
0100
0010
1001
0000
,
1000
0001
0000
1000
0000
0001
0000
0000
,
1000
0001
1001
0000
,
0001
0010
0100
0000
1000
0000
0100
0000
,
1001
0100
1001
0000
,
1000
0010
0100
0000
0001
0000
0100
0000
,
0110
1001
0110
0000
,
0000
0000
0001
1000
0001
1000
0000
0000
,
0000
0000
0000
0000
0000
1000
0001
1000
,
0001
1000
0000
0000
0000
0000
0000
0000
,
0000
0000
0001
0100
0000
0001
0100
0000
,
0000
0000
0010
0100
0010
0100
0000
0000
,
0000
0000
0000
0000
0000
0100
0010
0100
,
0010
0100
0000
0000
0000
0000
0000
0000
,
0110
0000
0000
0000
,
1100
1100
1100
1100
,
0011
0011
0011
0011
,
1001
1001
1001
1001
,
0110
0110
0110
0110
,
0101
0101
0101
0101
,
1010
1010
1010
1010
,
1001
1001
1001
1001
,
0110
0110
0110
0110
,
0010
0001
0100
1000
,
0010
0000
0001
0000
0100
0010
1000
0000
,
0010
1000
0100
0001
,
0010
0000
1000
0000
0100
0010
0001
0000
,
1000
0100
0001
1000
,
0100
0000
0001
0000
0010
0100
1000
0000
,
0001
0010
1000
0100
,
0001
0000
0010
0000
0100
0010
0001
0000
,
1000
0100
1000
0100
1000
0100
1000
0000
,
0001
0110
0001
0110
,
0001
0010
0001
0010
0001
0010
0001
0000
,
1000
0110
1000
0110
,
0100
0010
0100
0010
0100
0010
0100
0000
,
0010
1001
0010
1001
,
1000
0100
1000
0100
1000
0100
1000
0000
,
1001
0000
0000
0000
;

//---------------dance-single - ----------------
#NOTES:
     dance-single:
     :
     Hard:
     10:
     0.413473,0.410664,0.283970,0.000000,0.000000,239.000000,26.000000,0.000000,0.000000,0.000000,0.000000,0.413473,0.410664,0.283970,0.000000,0.000000,239.000000,26.000000,0.000000,0.000000,0.000000,0.000000:
// measure 0
0000
0000
0000
0000
,  // measure 1
0000
0000
0000
0000
,  // measure 2
0000
0000
0000
0000
,  // measure 3
0000
0000
0000
0000
,  // measure 4
1000
0100
0000
0100
1000
0000
1001
0000
,  // measure 5
0001
0100
0000
0100
0001
0000
1001
0000
,  // measure 6
1000
0010
0000
0010
1000
0000
1001
0000
,  // measure 7
0001
0010
0000
0010
0001
0000
1001
0000
,  // measure 8
1000
0100
0000
1000
0100
0010
0001
0000
,  // measure 9
0010
0001
0000
0011
0000
0000
0000
0000
,  // measure 10
0001
0010
0000
0001
0010
0100
1000
0000
,  // measure 11
0100
1000
0000
1001
0000
0000
0000
0000
,  // measure 12
0100
0010
0000
0100
0010
1000
0001
0000
,  // measure 13
0010
0100
0000
0110
0000
0000
0000
0000
,  // measure 14
0100
0010
0000
0100
0010
0001
1000
0000
,  // measure 15
0100
1000
0000
1100
0000
0000
0000
0000
,  // measure 16
0000
0000
0001
1000
0100
1000
0000
0000
,  // measure 17
0000
0000
0000
0000
0000
1000
0001
0100
,  // measure 18
0010
0100
0000
0000
0000
0000
0000
0000
,  // measure 19
0000
0000
1000
0010
0000
0010
0100
0001
,  // measure 20
0000
0000
0010
0100
1000
0001
0000
0000
,  // measure 21
0000
0000
0000
0000
0000
1000
0010
0100
,  // measure 22
0001
1000
0000
0000
0000
0000
0000
0000
,  // measure 23
1001
0000
0000
0000
,  // measure 24
0011
1100
0011
1100
,  // measure 25
0001
0010
0001
0010
0100
1000
0100
1000
,  // measure 26
1100
0011
1100
0011
,  // measure 27
0010
0100
0010
0100
1000
0001
1000
0001
,  // measure 28
1001
1001
0110
0110
,  // measure 29
0100
0010
1000
0001
0100
0010
1000
0001
,  // measure 30
1001
1001
1100
1100
,  // measure 31
1000
0100
0001
0010
1000
0100
0001
0010
,  // measure 32
0100
0001
0010
0000
0100
1000
0010
0000
,  // measure 33
1000
0100
0010
0001
1000
0100
1100
0000
,  // measure 34
0001
0010
0100
0000
0100
0010
0001
0000
,  // measure 35
0001
1000
0100
1000
0001
0100
1000
0100
,  // measure 36
0001
1000
0010
0000
1000
0001
0010
0000
,  // measure 37
0100
0010
0001
1000
0100
0010
0001
1000
,  // measure 38
0100
0001
0010
0000
0100
0001
1000
0000
,  // measure 39
0100
1000
0001
0010
0100
1000
0001
0000
,  // measure 40
1000
0001
1000
0001
1000
0001
1000
0001
,  // measure 41
1000
0100
1000
0100
1000
0100
1000
0100
,  // measure 42
1000
0001
1000
0001
1000
0001
1000
0001
,  // measure 43
0010
0001
0010
0001
0010
0001
0010
0001
,  // measure 44
0010
0100
0010
0100
0010
0100
0010
0100
,  // measure 45
0010
1000
0010
1000
0010
1000
0010
1000
,  // measure 46
0010
0001
0010
0001
0010
0001
0010
0001
,  // measure 47
0010
0000
0000
0000
;
