#VERSION:0.83;
#TITLE:セクシーな女神;
#SUBTITLE:;
#ARTIST:スーパーセックス永遠にSUPERSEX420;
#TITLETRANSLIT:Sekushii na Megami;
#SUBTITLETRANSLIT:;
#ARTISTTRANSLIT:SUPERSEX420;
#GENRE:Future Funk;
#ORIGIN:;
#CREDIT:chewi;
#BANNER:Sekushii na Megami.png;
#BACKGROUND:Sekushii na Megami-bg.png;
#PREVIEWVID:;
#JACKET:Sekushii na Megami-jacket.png;
#CDIMAGE:;
#DISCIMAGE:;
#LYRICSPATH:;
#CDTITLE:cdtitle.png;
#MUSIC:Sekushii na Megami.ogg;
#OFFSET:-0.034000;
#SAMPLESTART:74.516769;
#SAMPLELENGTH:15.000000;
#SELECTABLE:YES;
#BPMS:0.000=116.000,
48.000=58.000,
64.000=116.000;
#STOPS:;
#DELAYS:;
#WARPS:;
#TIMESIGNATURES:0.000=4=4;
#TICKCOUNTS:0.000=4;
#COMBOS:0.000=1;
#SPEEDS:0.000=1.000=0.000=0;
#SCROLLS:0.000=1.000;
#FAKES:;
#LABELS:0.000=Song Start;
#BGCHANGES:;
#KEYSOUNDS:;
#ATTACKS:
;

//---------------dance-single - ----------------
#NOTEDATA:;
#CHARTNAME:;
#STEPSTYPE:dance-single;
#DESCRIPTION:;
#CHARTSTYLE:;
#DIFFICULTY:Beginner;
#METER:1;
#RADARVALUES:0.056655,0.063840,0.000000,0.038691,0.000000,41.000000,41.000000,0.000000,4.000000,0.000000,0.000000,0.000000,0.000000,0.000000,0.056655,0.063840,0.000000,0.038691,0.000000,41.000000,41.000000,0.000000,4.000000,0.000000,0.000000,0.000000,0.000000,0.000000;
#CREDIT:;
#NOTES:
0000
0000
0000
0000
,
0000
0000
0000
0000
,
0000
0000
0000
0000
,
0000
0000
0000
0000
,
1000
0000
0000
0000
,
1000
0000
0000
0000
,
0001
0000
0000
0000
,
0001
0000
0000
0000
,
0100
0000
0000
0000
,
0100
0000
0000
0000
,
0010
0000
0000
0000
,
0010
0000
0000
0000
,
0010
0000
0000
0000
,
0010
0000
0000
0000
,
0100
0000
0000
0000
,
0100
0000
0000
0000
,
1000
0000
0000
0000
,
0100
0000
0000
0000
,
0010
0000
0000
0000
,
0001
0000
0000
0000
,
1000
0000
0000
0000
,
0010
0000
0000
0000
,
0100
0000
0000
0000
,
0001
0000
0000
0000
,
1000
0000
0000
0000
,
0100
0000
0000
0000
,
0001
0000
0000
0000
,
0010
0000
0000
0000
,
1000
0000
0000
0000
,
0100
0000
0000
0000
,
0001
0000
0000
0000
,
0100
0000
0000
0000
,
0200
0000
0000
0300
,
0100
0000
0000
0000
,
0020
0000
0000
0030
,
0010
0000
0000
0000
,
2000
0000
0000
3000
,
1000
0000
0000
0000
,
0002
0000
0000
0003
,
0001
0000
0000
0000
,
0010
0000
0000
0000
,
0010
0000
0000
0000
,
0100
0000
0000
0000
,
0100
0000
0000
0000
,
1000
0000
0000
0000
;

//---------------dance-single - ----------------
#NOTEDATA:;
#CHARTNAME:;
#STEPSTYPE:dance-single;
#DESCRIPTION:;
#CHARTSTYLE:;
#DIFFICULTY:Easy;
#METER:4;
#RADARVALUES:0.147855,0.170241,0.019346,0.000000,0.000000,107.000000,105.000000,2.000000,0.000000,0.000000,0.000000,0.000000,0.000000,0.000000,0.147855,0.170241,0.019346,0.000000,0.000000,107.000000,105.000000,2.000000,0.000000,0.000000,0.000000,0.000000,0.000000,0.000000;
#CREDIT:;
#NOTES:
// measure 0
0000
0000
0000
0000
,  // measure 1
0000
0000
0000
0000
,  // measure 2
0000
0000
0000
0000
,  // measure 3
0000
0000
0000
0000
,  // measure 4
1000
1000
0100
0000
,  // measure 5
0001
0001
0100
0000
,  // measure 6
1000
1000
0010
0000
,  // measure 7
0001
0001
0010
0000
,  // measure 8
1000
1000
0001
0000
,  // measure 9
0001
0001
1000
0000
,  // measure 10
0010
0010
0100
0000
,  // measure 11
0100
0100
0010
0000
,  // measure 12
0100
0100
0100
0000
,  // measure 13
0010
0000
0000
0000
,  // measure 14
0010
0010
0010
0000
,  // measure 15
1000
0000
0000
0000
,  // measure 16
1000
0000
0001
0000
,  // measure 17
1000
0000
0100
0000
,  // measure 18
1000
0000
0001
0000
,  // measure 19
1000
0000
0010
0000
,  // measure 20
1000
0001
1000
0000
,  // measure 21
0001
1000
0001
0000
,  // measure 22
1001
0000
0000
0000
,  // measure 23
0110
0000
0000
0000
,  // measure 24
0010
1000
0100
1000
,  // measure 25
0010
0100
0010
0000
,  // measure 26
0100
0001
0010
0001
,  // measure 27
0100
0010
1000
0000
,  // measure 28
0001
0100
1000
0000
,  // measure 29
0001
1000
0001
0000
,  // measure 30
1000
0100
0001
0000
,  // measure 31
1000
0001
1000
0000
,  // measure 32
1000
0000
1000
0000
,  // measure 33
1000
1000
1000
0000
,  // measure 34
0001
0000
0001
0000
,  // measure 35
0001
0001
0001
0000
,  // measure 36
0100
0000
0100
0000
,  // measure 37
0100
0010
0100
0000
,  // measure 38
0010
0000
0010
0000
,  // measure 39
0100
0010
0100
0000
,  // measure 40
0010
0010
0010
0000
,  // measure 41
1000
0000
0001
0000
,  // measure 42
0010
0010
0010
0000
,  // measure 43
0100
0000
1000
0000
,  // measure 44
0001
0000
0000
0000
;

//---------------dance-single - ----------------
#NOTEDATA:;
#CHARTNAME:;
#STEPSTYPE:dance-single;
#DESCRIPTION:;
#CHARTSTYLE:;
#DIFFICULTY:Medium;
#METER:6;
#RADARVALUES:0.237674,0.297921,0.106400,0.000000,0.000000,172.000000,161.000000,11.000000,0.000000,0.000000,0.000000,0.000000,0.000000,0.000000,0.237674,0.297921,0.106400,0.000000,0.000000,172.000000,161.000000,11.000000,0.000000,0.000000,0.000000,0.000000,0.000000,0.000000;
#CREDIT:;
#NOTES:
// measure 0
0000
0000
0000
0000
,  // measure 1
0000
0000
0000
0000
,  // measure 2
0000
0000
0000
0000
,  // measure 3
0000
0000
0000
0000
,  // measure 4
1000
1000
1100
0000
,  // measure 5
0001
0001
0101
0000
,  // measure 6
1000
1000
1010
0000
,  // measure 7
0001
0001
0011
0000
,  // measure 8
0010
0100
1000
0001
,  // measure 9
1000
0100
0010
0001
,  // measure 10
0100
0010
0100
0001
,  // measure 11
1000
0010
0100
0010
,  // measure 12
0010
0000
0000
0000
0010
0010
0010
0000
,  // measure 13
0100
0000
0000
0000
0100
0100
0100
0000
,  // measure 14
0001
0000
0000
0000
0001
0001
0001
0000
,  // measure 15
1000
0000
0000
0000
1000
1000
1000
0000
,  // measure 16
0001
0010
0100
0010
,  // measure 17
0001
0101
1000
1100
,  // measure 18
0001
0011
1000
1010
,  // measure 19
0001
1001
1000
1001
,  // measure 20
1000
0100
0010
0100
,  // measure 21
1000
0001
0010
0100
,  // measure 22
0010
0001
0100
0010
,  // measure 23
0100
0010
0110
0000
,  // measure 24
0010
0010
0100
0100
,  // measure 25
0010
0100
0001
0000
0010
0000
0100
0000
,  // measure 26
0010
0010
0100
0100
,  // measure 27
0010
0100
1000
0000
0010
0000
1000
0000
,  // measure 28
0001
0100
1000
0000
,  // measure 29
0001
0010
1000
0000
,  // measure 30
1000
0100
0001
0000
,  // measure 31
1000
0010
0001
0000
,  // measure 32
1000
0000
0001
0000
1000
0001
1000
0000
,  // measure 33
0001
0000
1000
0000
0001
1000
0001
0000
,  // measure 34
0010
0000
0100
0000
0010
0100
0010
0000
,  // measure 35
0100
0000
0010
0000
0100
0010
0100
0000
,  // measure 36
0010
0100
1000
0001
,  // measure 37
1000
0001
0100
0010
,  // measure 38
0100
0001
1000
0010
,  // measure 39
0100
0010
1000
0001
,  // measure 40
1000
0000
0001
0000
1000
0001
1000
0000
,  // measure 41
0001
0000
1000
0000
0001
1000
0001
0000
,  // measure 42
1000
0000
0001
0000
1000
0001
1000
0000
,  // measure 43
0001
0010
0100
1000
,  // measure 44
0001
0000
0000
0000
;

//---------------dance-single - ----------------
#NOTEDATA:;
#CHARTNAME:;
#STEPSTYPE:dance-single;
#DESCRIPTION:;
#CHARTSTYLE:;
#DIFFICULTY:Hard;
#METER:9;
#RADARVALUES:0.294329,0.361762,0.193455,0.087055,0.087055,213.000000,193.000000,20.000000,9.000000,0.000000,0.000000,0.000000,0.000000,0.000000,0.294329,0.361762,0.193455,0.087055,0.087055,213.000000,193.000000,20.000000,9.000000,0.000000,0.000000,0.000000,0.000000,0.000000;
#CREDIT:;
#NOTES:
// measure 0
0000
0000
0000
0000
,  // measure 1
0000
0000
0000
0000
,  // measure 2
0000
0000
0000
0000
,  // measure 3
0000
0000
0000
0000
,  // measure 4
1000
0100
1000
0000
0100
0000
1100
0000
,  // measure 5
0001
0100
0001
0000
0100
0000
0101
0000
,  // measure 6
0100
0010
0100
0000
0010
0000
0110
0000
,  // measure 7
0010
0100
0010
0000
0100
0000
0110
0000
,  // measure 8
0010
1000
0001
0000
1000
0000
1100
0000
,  // measure 9
0010
0001
1000
0000
0001
0000
0101
0000
,  // measure 10
0100
0010
1000
0000
0001
0000
0101
0000
,  // measure 11
0010
0100
1000
0000
0001
0000
1001
0000
,  // measure 12
0202
0000
0000
0003
,  // measure 13
0020
0000
0000
0300
,  // measure 14
2000
0000
0000
0030
,  // measure 15
0002
0000
0000
0000
0000
0000
0000
3003
,  // measure 16
1000
0100
0010
0000
0010
0100
1000
0000
,  // measure 17
1000
0000
0000
1000
0001
0000
0000
0001
0100
0000
0000
0100
0010
0000
0000
0010
,  // measure 18
1000
0000
0000
1000
0010
0000
0000
0010
0100
0000
0000
0100
0001
0000
0000
0001
,  // measure 19
1000
0001
0100
0000
0001
1000
0100
0100
,  // measure 20
0010
0000
0000
0010
0000
0000
0010
0000
0000
0000
0100
0000
1000
0000
0000
0000
,  // measure 21
0010
0000
0000
0010
0000
0000
0010
0000
0000
0000
0100
0000
0001
0000
0000
0000
,  // measure 22
0001
0100
0000
0000
0000
0000
0000
0000
,  // measure 23
1001
0110
2002
3003
,  // measure 24
0001
0000
0000
0001
0010
0000
0000
0010
0001
0000
0000
0001
0100
0000
0010
0000
,  // measure 25
1000
0000
0000
1000
0010
0000
0000
0010
1000
0000
0000
1000
0100
0000
0010
0000
,  // measure 26
0100
1000
0001
0000
1000
0001
0000
1001
,  // measure 27
0000
0000
0000
0000
1000
0001
0100
0010
,  // measure 28
0100
0000
0000
0100
0000
0000
0100
0000
0000
0000
0000
0000
0000
0000
0000
0000
,  // measure 29
0010
0000
0000
0010
0000
0000
0010
0000
0000
0000
0000
0000
1000
0000
0000
0000
,  // measure 30
0001
1000
0000
0000
0000
0000
0000
0000
,  // measure 31
1100
0101
2200
3300
,  // measure 32
0001
1000
0100
1000
0001
0000
1000
0000
,  // measure 33
0001
0010
0100
1000
0001
0000
1000
0000
,  // measure 34
0001
1000
0010
1000
0001
0000
1000
0000
,  // measure 35
0001
0100
0010
1000
0001
0000
1000
0000
,  // measure 36
0010
0100
0010
1000
0010
0000
0100
0000
,  // measure 37
0010
0100
0010
0001
0010
0000
0100
0000
,  // measure 38
0010
1000
0100
0010
0001
0000
1000
0000
,  // measure 39
0001
0010
0100
1000
0001
0000
1000
0000
,  // measure 40
1001
0000
1000
0100
0010
0000
0000
0000
,  // measure 41
1001
0000
0001
0100
0010
0000
0000
0000
,  // measure 42
0110
0000
0100
0010
1000
0000
0010
0000
,  // measure 43
0110
0000
0100
0001
0010
0000
0001
0000
,  // measure 44
0010
0000
0000
0000
;
