#VERSION:0.83;
#TITLE:Say Something (Zac Samuel Remix);
#SUBTITLE:;
#ARTIST:Karen Harding;
#TITLETRANSLIT:;
#SUBTITLETRANSLIT:;
#ARTISTTRANSLIT:;
#GENRE:House;
#ORIGIN:;
#CREDIT:chewi;
#BANNER:Say Something (Zac Samuel Remix).png;
#BACKGROUND:Say Something (Zac Samuel Remix)-bg.png;
#PREVIEWVID:;
#JACKET:Say Something (Zac Samuel Remix)-jacket.png;
#CDIMAGE:;
#DISCIMAGE:;
#LYRICSPATH:;
#CDTITLE:cdtitle.png;
#MUSIC:Say Something (Zac Samuel Remix).ogg;
#OFFSET:-1.079063;
#SAMPLESTART:17.575001;
#SAMPLELENGTH:15.000000;
#SELECTABLE:YES;
#DISPLAYBPM:120.000000;
#BPMS:0.000=120.000;
#STOPS:;
#DELAYS:;
#WARPS:;
#TIMESIGNATURES:0.000=4=4;
#TICKCOUNTS:0.000=4;
#COMBOS:0.000=1;
#SPEEDS:0.000=1.000=0.000=0;
#SCROLLS:0.000=1.000;
#FAKES:;
#LABELS:0.000=Song Start;
#BGCHANGES:0.000=Say Something (Zac Samuel Remix).avi=1.000=1=0=0=StretchNoLoop==CrossFade==,
99999=-nosongbg-=1.000=0=0=0 // don't automatically add -songbackground-
;
#KEYSOUNDS:;
#ATTACKS:
;

//---------------dance-single - ----------------
#NOTEDATA:;
#CHARTNAME:;
#STEPSTYPE:dance-single;
#DESCRIPTION:;
#CHARTSTYLE:;
#DIFFICULTY:Beginner;
#METER:2;
#RADARVALUES:0.079936,0.119053,0.071432,0.095243,0.000000,47.000000,41.000000,6.000000,8.000000,0.000000,0.000000,0.000000,0.000000,0.000000,0.079936,0.119053,0.071432,0.095243,0.000000,47.000000,41.000000,6.000000,8.000000,0.000000,0.000000,0.000000,0.000000,0.000000;
#CREDIT:;
#DISPLAYBPM:120.000000;
#NOTES:
0000
0000
0000
0000
,
0000
0000
0000
0000
,
0000
0000
0000
0000
,
0000
0000
0000
0000
,
1000
0000
0000
0000
,
0001
0000
0000
0000
,
1000
0000
0000
0000
,
0001
0000
0000
0000
,
0000
1001
0000
0000
,
1000
0000
0000
0000
,
1001
0000
0000
0000
,
0001
0000
0000
0000
,
0000
0110
0000
0000
,
0010
0000
0000
0000
,
0100
0000
0000
0000
,
0010
0000
0000
0000
,
2000
0000
0000
3000
,
1000
0000
0000
0000
,
0200
0000
0000
0300
,
0100
0000
0000
0000
,
0020
0000
0000
0030
,
0010
0000
0000
0000
,
0002
0000
0000
0003
,
0001
0000
0000
0000
,
2000
0000
0000
3000
,
1000
1000
0000
0000
,
0002
0000
0000
0003
,
0001
0001
0000
0000
,
0200
0000
0000
0300
,
0100
0100
0000
0000
,
0020
0000
0000
0030
,
0010
0010
0000
0000
,
0000
0110
0000
0000
,
0010
0000
0000
0000
,
0100
0000
0000
0000
,
0010
0000
0000
0000
,
0000
1001
0000
0000
,
0001
0000
0000
0000
,
1000
0000
0000
0000
,
0001
0000
0000
0000
,
1001
0000
0000
0000
;

//---------------dance-single - ----------------
#NOTEDATA:;
#CHARTNAME:;
#STEPSTYPE:dance-single;
#DESCRIPTION:;
#CHARTSTYLE:;
#DIFFICULTY:Hard;
#METER:11;
#RADARVALUES:0.362262,0.404781,0.404781,0.309539,0.142864,213.000000,179.000000,34.000000,26.000000,2.000000,0.000000,0.000000,0.000000,0.000000,0.362262,0.404781,0.404781,0.309539,0.142864,213.000000,179.000000,34.000000,26.000000,2.000000,0.000000,0.000000,0.000000,0.000000;
#CREDIT:;
#DISPLAYBPM:120.000000;
#NOTES:
// measure 0
0000
0000
0000
0000
,  // measure 1
0000
0000
0000
0000
,  // measure 2
0000
0000
0000
0000
,  // measure 3
0000
0000
0000
0000
,  // measure 4
1002
0000
0103
0000
0010
1000
0001
0000
,  // measure 5
2001
0000
3100
0000
0010
0001
1000
0000
,  // measure 6
1002
0013
2001
3100
,  // measure 7
1002
0203
0320
2030
,  // measure 8
3000
0000
0000
0000
0001
0000
0000
0100
0000
0000
0010
0000
0000
1000
0000
0000
,  // measure 9
0001
0000
0000
0000
1000
0000
0000
0100
0000
0000
0010
0000
0000
0100
0000
0000
,  // measure 10
1000
0000
0000
0000
1000
0000
0000
0100
0000
0000
0010
0000
0000
0001
0000
0000
,  // measure 11
1000
0000
0000
0000
0001
0000
0000
0100
0000
0000
0010
0000
0000
0100
0000
0000
,  // measure 12
0001
0000
0000
0000
0001
0000
0000
0011
0000
0000
1000
0000
0000
1100
0000
0000
,  // measure 13
1000
0000
0000
0000
1000
0000
0000
1010
0000
0000
0001
0000
0000
0011
0000
0000
,  // measure 14
0012
0000
0103
0100
2010
0000
3100
0100
,  // measure 15
0210
0320
0032
0203
,  // measure 16
0301
0101
1000
1100
,  // measure 17
0001
0000
0101
0000
1000
0010
0100
0001
,  // measure 18
1000
1010
0001
0011
,  // measure 19
1000
0000
1010
0000
0010
0100
0001
1000
,  // measure 20
0001
1001
1000
1001
,  // measure 21
0001
0000
1001
0000
0001
0010
0100
1000
,  // measure 22
0100
0110
0010
0110
,  // measure 23
0100
0000
0110
0000
0100
0010
0001
1000
,  // measure 24
0001
0100
0001
0000
1000
0100
1000
0000
,  // measure 25
0001
0100
0010
0000
1000
0100
0010
0000
,  // measure 26
0001
0010
0001
0000
1000
0010
1000
0000
,  // measure 27
0001
0100
0010
0000
1000
0100
0010
0000
,  // measure 28
0M00
00M0
0100
0000
0010
0100
0010
0000
,  // measure 29
0001
1000
0100
0000
1000
0001
0100
0000
,  // measure 30
0102
0103
2010
3010
,  // measure 31
1002
0023
0230
2300
,  // measure 32
3000
0000
0000
0000
0010
0000
0000
1000
0000
0000
0001
0000
0000
0100
0000
0000
,  // measure 33
0010
0000
0000
0000
0100
0000
0000
0001
0000
0000
1000
0000
0000
0001
0000
0000
,  // measure 34
0100
0000
0000
0000
0100
0000
0000
0001
0000
0000
1000
0000
0000
0010
0000
0000
,  // measure 35
0100
0000
0000
0000
0010
0000
0000
1000
0000
0000
0001
0000
0000
1000
0000
0000
,  // measure 36
0010
0000
0000
0000
1000
0000
0000
1010
0000
0000
0001
0000
0000
0101
0000
0000
,  // measure 37
0010
0000
0000
0000
1000
0000
0000
1100
0000
0000
0001
0000
0000
0011
0000
0000
,  // measure 38
0021
0000
0031
0001
0201
0000
0310
0010
,  // measure 39
0120
2030
3020
2030
,  // measure 40
3001
0000
0000
0000
;

//---------------dance-single - ----------------
#NOTEDATA:;
#CHARTNAME:;
#STEPSTYPE:dance-single;
#DESCRIPTION:;
#CHARTSTYLE:;
#DIFFICULTY:Easy;
#METER:4;
#RADARVALUES:0.124156,0.166675,0.011905,0.095243,0.000000,73.000000,72.000000,1.000000,8.000000,0.000000,0.000000,0.000000,0.000000,0.000000,0.124156,0.166675,0.011905,0.095243,0.000000,73.000000,72.000000,1.000000,8.000000,0.000000,0.000000,0.000000,0.000000,0.000000;
#CREDIT:;
#DISPLAYBPM:120.000000;
#NOTES:
0000
0000
0000
0000
,
0000
0000
0000
0000
,
0000
0000
0000
0000
,
0000
0000
0000
0000
,
1000
0000
0000
0000
,
0100
0000
0000
0000
,
1000
0000
0100
0000
,
0001
0000
0100
0000
,
0000
0100
0010
0100
,
0200
0000
0000
0300
,
0010
0100
0010
0100
,
0020
0000
0000
0030
,
1000
0001
1000
0001
,
0002
0000
0000
0003
,
0001
1000
0001
1000
,
2000
0000
0000
3000
,
1001
0000
0000
0000
,
1000
0000
0000
0000
,
0100
0000
0000
0000
,
1000
0000
0000
0000
,
0001
0000
0000
0000
,
0100
0000
0000
0000
,
0001
0000
0000
0000
,
0100
0000
0000
0000
,
0010
0000
0010
0000
,
0010
1000
0100
0000
,
0010
0000
0010
0000
,
0010
0001
0100
0000
,
0100
0000
0100
0000
,
0100
0010
1000
0000
,
0100
0000
0100
0000
,
0100
0010
0001
0000
,
0000
1000
0100
1000
,
2000
0000
0000
3000
,
0001
0100
0001
0100
,
0002
0000
0000
0003
,
0000
0010
0100
0010
,
0020
0000
0000
0030
,
0100
1000
0100
1000
,
0200
0000
0000
0300
,
0100
0000
0000
0000
;

//---------------dance-single - ----------------
#NOTEDATA:;
#CHARTNAME:;
#STEPSTYPE:dance-single;
#DESCRIPTION:;
#CHARTSTYLE:;
#DIFFICULTY:Medium;
#METER:7;
#RADARVALUES:0.246610,0.261917,0.119053,0.226201,0.071432,145.000000,135.000000,10.000000,19.000000,0.000000,0.000000,0.000000,0.000000,0.000000,0.246610,0.261917,0.119053,0.226201,0.071432,145.000000,135.000000,10.000000,19.000000,0.000000,0.000000,0.000000,0.000000,0.000000;
#CREDIT:;
#DISPLAYBPM:120.000000;
#NOTES:
0000
0000
0000
0000
,
0000
0000
0000
0000
,
0000
0000
0000
0000
,
0000
0000
0000
0000
,
2000
0000
3100
0000
,
0020
0000
0031
0000
,
2000
0100
0010
3001
,
0002
0100
0010
1003
,
0000
0000
0000
0000
0100
0000
0000
0100
0000
0000
0100
0000
0000
0100
0000
0000
,
0100
0010
0100
1000
,
1100
0000
0000
0000
1000
0000
0000
1000
0000
0000
1000
0000
0000
1000
0000
0000
,
1000
0001
0100
0002
,
0003
0000
0000
0000
0010
0000
0000
0010
0000
0000
0010
0000
0000
0010
0000
0000
,
0010
0100
1000
0001
,
2100
0000
3010
0000
,
0102
0010
1000
0103
,
2000
0100
0010
0100
,
0001
0000
3002
0010
,
0100
1000
0010
0100
,
0203
0302
0023
0230
,
2300
0001
0010
0001
,
0100
0000
3020
0100
,
1000
0100
0001
0100
,
0200
0330
0100
0100
,
0010
1000
0001
0100
,
1000
0001
1000
1001
,
0001
1000
0001
0100
,
0001
1000
0001
1001
,
0000
0010
1000
0100
,
0001
0010
1000
0100
,
2100
0000
3001
0000
,
0102
0010
1000
0103
,
0000
0000
0000
0000
0010
0000
0000
0010
0000
0000
0010
0000
0000
0010
0000
0000
,
0010
0100
0010
0001
,
0011
0000
0000
0000
0001
0000
0000
0001
0000
0000
0001
0000
0000
0001
0000
0000
,
0001
1000
0010
2000
,
3000
0000
0000
0000
0100
0000
0000
0100
0000
0000
0100
0000
0000
0100
0000
0000
,
0100
0010
0001
1000
,
1001
0100
0001
0010
,
1001
0010
0001
0100
,
1000
0000
0000
0000
;
