#TITLE:Say So;
#SUBTITLE:;
#ARTIST:DOJA CAT;
#TITLETRANSLIT:;
#SUBTITLETRANSLIT:;
#ARTISTTRANSLIT:;
#GENRE:;
#CREDIT:;
#BANNER:Say So.png;
#BACKGROUND:Say So-bg.png;
#LYRICSPATH:;
#CDTITLE:cdtitle.png;
#MUSIC:Say So.ogg;
#OFFSET:-0.003500;
#SAMPLESTART:60.543999;
#SAMPLELENGTH:12.000000;
#SELECTABLE:YES;
#BPMS:0.000000=111.000000
;
#STOPS:
;
#BGCHANGES:0.000=Say So.avi=1.000=1=0=1===CrossFade==,
176.000=Say So-bg.png=1.000=1=0=1===CrossFade==,
99999=-nosongbg-=1.000=0=0=0 // don't automatically add -songbackground-
;
#KEYSOUNDS:;
#ATTACKS:;

//---------------dance-single - ----------------
#NOTES:
     dance-single:
     :
     Hard:
     9:
     0.332195,0.403880,0.091791,0.193781,0.117288,228.000000,219.000000,9.000000,19.000000,0.000000,0.000000,0.332195,0.403880,0.091791,0.193781,0.117288,228.000000,219.000000,9.000000,19.000000,0.000000,0.000000:
// measure 0
0000
0000
0000
0000
,  // measure 1
0000
0000
0000
0000
,  // measure 2
0000
0000
0000
0000
,  // measure 3
0000
0000
0000
0000
,  // measure 4
0010
0000
0010
0000
0100
0000
0100
0000
0001
0000
0000
1000
0000
0000
0100
0000
,  // measure 5
0010
0000
0001
0000
1000
0000
0010
0000
0100
0000
0000
0100
0000
0000
0010
0000
,  // measure 6
1000
0000
0001
0000
0010
0000
0100
0000
1000
0000
0000
1000
0000
0000
0001
0000
,  // measure 7
0010
0100
1000
0000
2002
0000
3003
0000
,  // measure 8
0100
0000
0010
0000
0100
0000
0001
0000
0010
0000
0000
0010
0000
0000
0100
0000
,  // measure 9
1000
0000
0010
0000
1000
0000
0100
0000
0010
0000
0000
0010
0000
0000
0001
0000
,  // measure 10
0010
0000
0100
0000
0001
0000
0100
0000
1000
0000
0000
1000
0000
0000
1000
0000
,  // measure 11
0010
1000
0100
0000
2200
0000
3300
1000
,  // measure 12
0010
1000
0010
0000
1000
0000
0001
0000
2000
0000
0000
0000
3000
0000
0000
0000
,  // measure 13
2001
0100
0020
3030
,  // measure 14
0010
1000
0010
1000
0010
0000
1000
0000
0200
0000
0000
0000
0310
0000
0000
0000
,  // measure 15
0001
0010
0001
0010
0001
0000
0100
0000
0020
0000
0000
0000
0130
0000
0000
0000
,  // measure 16
0100
0010
0100
0010
0100
0000
0001
0000
2000
0000
0000
0000
3100
0000
0000
0000
,  // measure 17
1002
0010
0200
0303
,  // measure 18
0001
0000
0100
0000
1000
0000
0001
0000
0010
0000
0000
0010
0000
0000
1000
0000
,  // measure 19
0100
0000
0001
0000
0100
0000
1000
0000
0100
0000
0000
0100
0000
0000
1000
0000
,  // measure 20
0001
0001
0100
0100
,  // measure 21
0010
1000
0010
0000
1000
0000
0001
0000
,  // measure 22
1000
1000
0100
0100
,  // measure 23
0010
0001
0010
0000
0001
0000
1000
0000
,  // measure 24
1000
1000
0001
0001
,  // measure 25
1000
0100
0010
0000
0001
0000
1000
0000
,  // measure 26
1000
0001
1001
0001
,  // measure 27
0001
1000
0010
0100
0002
0000
0013
0000
,  // measure 28
0100
0000
0100
0000
0010
0000
0010
0000
0001
0000
0000
0001
0000
0000
0010
0000
,  // measure 29
0100
0000
1000
0000
0001
0000
0100
0000
0010
0000
0000
0010
0000
0000
0100
0000
,  // measure 30
0001
0000
1000
0000
0100
0000
0010
0000
0001
0000
0000
0001
0000
0000
1000
0000
,  // measure 31
0100
0010
0001
0000
2002
0000
3003
0000
,  // measure 32
0010
0000
0100
0000
0010
0000
1000
0000
0100
0000
0000
0100
0000
0000
0010
0000
,  // measure 33
0001
0000
0100
0000
0001
0000
0010
0000
0100
0000
0000
0100
0000
0000
1000
0000
,  // measure 34
0100
0000
0010
0000
0100
0000
1000
0000
0001
0000
0000
0001
0000
0000
1000
0000
,  // measure 35
0001
0100
0010
0000
0220
0000
0330
0000
,  // measure 36
0001
1000
1001
0000
,  // measure 37
0000
0000
0001
0000
0000
0001
0000
0000
0001
0000
0000
0000
0000
0000
0100
0000
,  // measure 38
0100
0000
0000
0100
0000
0000
0000
0010
,  // measure 39
1000
0001
0100
0001
0010
0000
0100
0000
,  // measure 40
1000
0001
1001
0000
,  // measure 41
0000
0000
1000
0000
0000
1000
0000
0000
1000
0000
0000
0000
0000
0000
0010
0000
,  // measure 42
0010
0000
0000
0010
0000
0000
0000
0100
,  // measure 43
0001
1000
0100
0020
0002
0000
0000
0000
,  // measure 44
0033
0000
0000
0000
;

//---------------dance-single - ----------------
#NOTES:
     dance-single:
     :
     Medium:
     7:
     0.231663,0.246815,0.081592,0.061194,0.086691,159.000000,151.000000,8.000000,6.000000,0.000000,0.000000,0.231663,0.246815,0.081592,0.061194,0.086691,159.000000,151.000000,8.000000,6.000000,0.000000,0.000000:
0000
0000
0000
0000
,
0000
0000
0000
0000
,
0000
0000
0000
0000
,
0000
0000
0000
0000
,
1000
0000
0000
0000
0100
0000
0000
0000
0010
0000
0000
0010
0000
0000
0000
0000
,
0001
0000
0000
0000
0100
0000
0000
0000
0010
0000
0000
0010
0000
0000
0000
0000
,
0100
0000
0000
0000
0001
0000
0000
0000
1000
0000
0000
1000
0000
0000
0000
0000
,
0001
1000
0001
0000
1001
0000
0000
0000
,
0001
0000
0000
0000
0010
0000
0000
0000
0100
0000
0000
0100
0000
0000
0000
0000
,
1000
0000
0000
0000
0010
0000
0000
0000
0100
0000
0000
0100
0000
0000
0000
0000
,
0010
0000
0000
0000
1000
0000
0000
0000
0001
0000
0000
0001
0000
0000
0000
0000
,
1000
0001
1000
0000
1001
0000
0000
0000
,
1000
1000
0010
0000
0100
0000
0000
0000
,
0102
0010
0200
0303
,
0100
0000
0010
0010
0010
0000
0000
0000
,
1000
0000
0001
0001
0001
0000
0000
0000
,
0001
0001
0100
0000
0010
0000
0000
0000
,
2010
0100
0020
3030
,
0010
0000
0000
0000
0100
0000
0100
0000
0100
0000
0000
0100
0000
0000
0000
0000
,
0001
0000
0000
0000
1000
0000
1000
0000
1000
0000
0000
1000
0000
0000
0000
0000
,
1000
0100
0010
1000
,
0100
0010
1000
0100
,
0001
0010
0100
0001
,
0010
0100
0001
0010
,
1000
0100
0001
0010
,
1000
0100
0001
0010
,
0001
0010
0100
0000
,
0000
0000
1000
0000
0000
1000
0000
0000
1000
0000
0000
0000
0000
0000
0000
0000
,
0010
0000
0000
0000
1000
0000
0000
0000
0001
0000
0000
0001
0000
0000
0000
0000
,
0100
0000
0000
0000
0001
0000
0000
0000
1000
0000
0000
1000
0000
0000
0000
0000
,
1000
0000
0000
0000
0100
0000
0000
0000
0010
0000
0000
0010
0000
0000
0000
0000
,
0100
0010
0100
0000
0110
0000
0000
0000
,
0100
0000
0000
0000
1000
0000
0000
0000
1000
0000
0000
1000
0000
0000
0000
0000
,
0010
0000
0000
0000
0100
0000
0000
0000
0001
0000
0000
0001
0000
0000
0000
0000
,
1000
0000
0000
0000
0100
0000
0000
0000
0010
0000
0000
0010
0000
0000
0000
0000
,
0100
0010
0100
0000
0110
0000
0000
0000
,
0001
1000
1001
0000
,
0000
0000
0001
0000
0000
0001
0000
0000
0001
0000
0000
0000
0000
0000
0100
0000
,
0100
0000
0000
0010
0000
0000
0000
1000
,
1000
0001
1000
0000
,
0001
1000
1001
0000
,
0000
0000
1000
0000
0000
1000
0000
0000
1000
0000
0000
0000
0000
0000
0010
0000
,
0010
0000
0000
0100
0000
0000
0000
0000
,
0001
2000
0002
0000
,
3003
0000
0000
0000
;

//---------------dance-single - ----------------
#NOTES:
     dance-single:
     :
     Easy:
     4:
     0.147157,0.179502,0.000000,0.061194,0.000000,101.000000,101.000000,0.000000,6.000000,0.000000,0.000000,0.147157,0.179502,0.000000,0.061194,0.000000,101.000000,101.000000,0.000000,6.000000,0.000000,0.000000:
0000
0000
0000
0000
,
0000
0000
0000
0000
,
0000
0000
0000
0000
,
0000
0000
0000
0000
,
1000
0100
0100
0000
,
0010
0001
0001
0000
,
0100
0010
0010
0000
,
0010
0100
0100
0000
,
0001
0100
0100
0000
,
0100
0010
0010
0000
,
1000
0001
0001
0000
,
0001
1000
1000
0000
,
0100
0000
0100
0000
,
0200
0000
0000
0300
,
0010
0010
0010
0000
,
0001
0001
0001
0000
,
1000
0000
1000
0000
,
2000
0000
0000
3000
,
0001
0001
0001
0000
,
0100
0100
0100
0000
,
1000
0000
0100
0000
,
0001
0000
0010
0000
,
1000
0000
0100
0000
,
0001
0000
0010
0000
,
1000
0000
0100
0000
,
0001
0000
0100
0000
,
0100
0100
0100
0000
,
0010
0010
0010
0000
,
1000
0100
0100
0000
,
0010
0001
0001
0000
,
0100
0010
0010
0000
,
0010
0100
0100
0000
,
0001
0100
0100
0000
,
0100
0010
0010
0000
,
1000
0001
0001
0000
,
0001
1000
1000
0000
,
1000
1000
1000
1000
,
1000
0000
0001
0000
,
0200
0000
0300
0000
,
0020
0000
0030
0000
,
0001
0001
0001
0001
,
0001
0000
1000
0000
,
0020
0000
0030
0000
,
0200
0000
0300
0000
,
0100
0000
0000
0000
;

//---------------dance-single - ----------------
#NOTES:
     dance-single:
     :
     Beginner:
     1:
     0.062651,0.089751,0.000000,0.061194,0.000000,43.000000,43.000000,0.000000,6.000000,0.000000,0.000000,0.062651,0.089751,0.000000,0.061194,0.000000,43.000000,43.000000,0.000000,6.000000,0.000000,0.000000:
0000
0000
0000
0000
,
0000
0000
0000
0000
,
0000
0000
0000
0000
,
0000
0000
0000
0000
,
1000
0000
0000
0000
,
0010
0000
0000
0000
,
0100
0000
0000
0000
,
0010
0000
0000
0000
,
0001
0000
0000
0000
,
0100
0000
0000
0000
,
1000
0000
0000
0000
,
0001
0000
0000
0000
,
0100
0000
0100
0000
,
0200
0000
0000
0300
,
0010
0000
0000
0000
,
0001
0000
0000
0000
,
1000
0000
1000
0000
,
2000
0000
0000
3000
,
1000
0000
0000
0000
,
0001
0000
0000
0000
,
1000
0000
0000
0000
,
0001
0000
0000
0000
,
0100
0000
0000
0000
,
0010
0000
0000
0000
,
0100
0000
0000
0000
,
0010
0000
0000
0000
,
0100
0000
0000
0000
,
0010
0000
0000
0000
,
1000
0000
0000
0000
,
0010
0000
0000
0000
,
0100
0000
0000
0000
,
0010
0000
0000
0000
,
0001
0000
0000
0000
,
0100
0000
0000
0000
,
1000
0000
0000
0000
,
0001
0000
0000
0000
,
2000
0000
0000
3000
,
1000
0000
0000
0000
,
0200
0000
0000
0300
,
0100
0000
0000
0000
,
0002
0000
0000
0003
,
0001
0000
0000
0000
,
0020
0000
0000
0030
,
0010
0000
0000
0000
,
0010
0000
0000
0000
;
