#VERSION:0.83;
#TITLE:Sangria Wine;
#SUBTITLE:;
#ARTIST:Pharrell Williams x Camila Cabello;
#TITLETRANSLIT:;
#SUBTITLETRANSLIT:;
#ARTISTTRANSLIT:;
#GENRE:Pop;
#ORIGIN:;
#CREDIT:chewi;
#BANNER:Sangria Wine.png;
#BACKGROUND:Sangria Wine-bg.png;
#PREVIEWVID:;
#JACKET:Sangria Wine-jacket.png;
#CDIMAGE:;
#DISCIMAGE:;
#LYRICSPATH:;
#CDTITLE:cdtitle.png;
#MUSIC:Sangria Wine.ogg;
#OFFSET:-0.226000;
#SAMPLESTART:21.135000;
#SAMPLELENGTH:15.000000;
#SELECTABLE:YES;
#BPMS:0.000=66.000;
#STOPS:;
#DELAYS:;
#WARPS:;
#TIMESIGNATURES:0.000=4=4;
#TICKCOUNTS:0.000=4;
#COMBOS:0.000=1;
#SPEEDS:0.000=1.000=0.000=0;
#SCROLLS:0.000=1.000;
#FAKES:;
#LABELS:0.000=Song Start;
#BGCHANGES:-0.226=Sangria Wine.avi=1.000=1=0=1===CrossFade==,
128.000=Sangria Wine-bg.png=1.000=1=0=1===CrossFade==,
99999=-nosongbg-=1.000=0=0=0 // don't automatically add -songbackground-
;
#KEYSOUNDS:;
#ATTACKS:
;

//---------------dance-single - ----------------
#NOTEDATA:;
#CHARTNAME:;
#STEPSTYPE:dance-single;
#DESCRIPTION:;
#CHARTSTYLE:;
#DIFFICULTY:Challenge;
#METER:5;
#RADARVALUES:0.153184,0.232382,0.008510,0.051061,0.000000,126.000000,125.000000,1.000000,6.000000,128.000000,0.000000,0.000000,16.000000,0.000000,0.153184,0.232382,0.008510,0.051061,0.000000,126.000000,125.000000,1.000000,6.000000,128.000000,0.000000,0.000000,16.000000,0.000000;
#CREDIT:;
#NOTES:
// measure 0
0000
0000
0000
0000
,  // measure 1
0000
0000
0000
0000
,  // measure 2
0000
0000
0001
0000
1000
0000
MMMM
MMMM
,  // measure 3
MMMM
MMMM
0001
0000
1000
0000
MMMM
MMMM
,  // measure 4
MMMM
MMMM
0001
0000
1000
0000
MMMM
MMMM
,  // measure 5
MMMM
MMMM
0001
0000
1000
0000
MMMM
MMMM
,  // measure 6
MMMM
MMMM
0010
1000
0100
1000
0010
1000
,  // measure 7
0100
1000
0010
1000
0010
1000
0010
1000
,  // measure 8
0010
1000
0100
1000
0010
1000
0100
1000
,  // measure 9
0010
1000
0002
2000
,  // measure 10
0000
3003
0000
000L
0000
L000
0000
000L
,  // measure 11
0000
L000
0000
000L
0000
L000
0000
000L
,  // measure 12
0000
L000
0001
0000
0001
0000
1000
0000
,  // measure 13
1000
0001
0001
1000
,  // measure 14
1000
0000
0000
000L
0000
L000
0000
000L
,  // measure 15
0000
L000
0000
000L
0000
L000
0000
000L
,  // measure 16
0000
L000
0001
0000
0001
0000
1000
0000
,  // measure 17
1000
0001
0001
1000
,  // measure 18
1000
0000
0010
1000
0010
1000
0010
1000
,  // measure 19
0010
0000
0010
0001
0010
0001
0010
0001
,  // measure 20
0010
0000
0010
1000
0010
0000
0010
0001
,  // measure 21
0010
0010
0010
1001
,  // measure 22
0000
0002
0000
2000
,  // measure 23
0000
0000
0000
0000
,  // measure 24
3003
0000
0001
0000
1000
0000
MMMM
MMMM
,  // measure 25
MMMM
MMMM
0001
0000
1000
0000
MMMM
MMMM
,  // measure 26
MMMM
MMMM
0001
0000
1000
0000
MMMM
MMMM
,  // measure 27
MMMM
MMMM
0001
0000
1000
0000
MMMM
MMMM
,  // measure 28
MMMM
MMMM
0010
1000
0100
1000
0010
1000
,  // measure 29
0100
1000
0010
1000
0010
1000
0010
1000
,  // measure 30
0010
1000
0100
1000
0010
1000
0100
1000
,  // measure 31
0010
1000
0002
2000
,  // measure 32
0000
3003
0000
0000
0000
0000
0000
0000
;

//---------------dance-single - ----------------
#NOTEDATA:;
#CHARTNAME:;
#STEPSTYPE:dance-single;
#DESCRIPTION:;
#CHARTSTYLE:;
#DIFFICULTY:Beginner;
#METER:1;
#RADARVALUES:0.065650,0.079783,0.017020,0.034041,0.000000,54.000000,52.000000,2.000000,4.000000,0.000000,0.000000,0.000000,0.000000,0.000000,0.065650,0.079783,0.017020,0.034041,0.000000,54.000000,52.000000,2.000000,4.000000,0.000000,0.000000,0.000000,0.000000,0.000000;
#CREDIT:;
#NOTES:
0000
0000
0000
0000
,
0000
0000
0000
0000
,
0000
1000
0000
0010
,
0000
1000
0000
0010
,
0000
0001
0000
0010
,
0000
0001
0000
0010
,
0000
0100
0000
0100
,
0000
0100
0000
0100
,
0000
0010
0000
0010
,
0000
0010
0000
0010
,
0000
1000
0000
1000
,
0000
0100
0000
0100
,
0000
0001
0000
0001
,
0000
0010
0000
0010
,
0000
1000
0000
1000
,
0000
0010
0000
0010
,
0000
0001
0000
0001
,
0000
0100
0000
0100
,
0000
2000
0000
0000
,
3000
2000
0000
0000
,
3000
0002
0000
0000
,
0003
0002
0000
0000
,
0003
1001
0000
0000
,
0000
0000
0000
0000
,
0000
1000
0000
0010
,
0000
1000
0000
0010
,
0000
0001
0000
0010
,
0000
0001
0000
0010
,
0000
0100
0000
0100
,
0000
0100
0000
0100
,
0000
0010
0000
0010
,
0000
0110
0000
0000
;

//---------------dance-single - ----------------
#NOTEDATA:;
#CHARTNAME:;
#STEPSTYPE:dance-single;
#DESCRIPTION:;
#CHARTSTYLE:;
#DIFFICULTY:Easy;
#METER:4;
#RADARVALUES:0.130085,0.136163,0.000000,0.144673,0.000000,107.000000,107.000000,0.000000,17.000000,0.000000,0.000000,0.000000,0.000000,0.000000,0.130085,0.136163,0.000000,0.144673,0.000000,107.000000,107.000000,0.000000,17.000000,0.000000,0.000000,0.000000,0.000000,0.000000;
#CREDIT:;
#NOTES:
// measure 0
0000
0000
0000
0000
,  // measure 1
0000
0000
0000
0000
,  // measure 2
0000
1000
0010
0100
,  // measure 3
0000
0001
0010
0100
,  // measure 4
0000
1000
0001
0100
,  // measure 5
0000
0001
1000
0100
,  // measure 6
0000
1000
0100
1000
,  // measure 7
0100
0010
0001
0010
,  // measure 8
0010
0001
0100
0001
,  // measure 9
0100
0010
1000
0010
,  // measure 10
1000
1000
0100
0100
,  // measure 11
1000
2000
3020
0230
,  // measure 12
0302
0103
0001
0001
,  // measure 13
0100
0020
2030
3002
,  // measure 14
0023
0031
0010
0010
,  // measure 15
0001
0020
0230
2300
,  // measure 16
3002
1003
0100
0100
,  // measure 17
1000
0020
0230
0320
,  // measure 18
2030
0000
3001
0000
0001
0000
0001
0001
,  // measure 19
0000
0000
1000
0000
1000
0000
1000
1000
,  // measure 20
0000
0100
0100
0100
,  // measure 21
0100
0010
0010
0010
,  // measure 22
0010
0000
0001
0000
1000
0001
1000
0000
,  // measure 23
0000
0001
0000
1000
,  // measure 24
0000
0001
0100
0010
,  // measure 25
0000
1000
0100
0010
,  // measure 26
0000
0001
1000
0010
,  // measure 27
0000
1000
0001
0010
,  // measure 28
0000
0001
0010
0001
,  // measure 29
0010
0100
1000
0100
,  // measure 30
0100
1000
0010
1000
,  // measure 31
0010
0200
0000
0000
,  // measure 32
0300
0000
0000
0000
;

//---------------dance-single - ----------------
#NOTEDATA:;
#CHARTNAME:;
#STEPSTYPE:dance-single;
#DESCRIPTION:;
#CHARTSTYLE:;
#DIFFICULTY:Medium;
#METER:8;
#RADARVALUES:0.205461,0.217010,0.034041,0.136163,0.000000,169.000000,165.000000,4.000000,16.000000,0.000000,0.000000,0.000000,0.000000,0.000000,0.205461,0.217010,0.034041,0.136163,0.000000,169.000000,165.000000,4.000000,16.000000,0.000000,0.000000,0.000000,0.000000,0.000000;
#CREDIT:;
#NOTES:
// measure 0
0000
0000
0000
0000
,  // measure 1
0000
0000
0000
0000
,  // measure 2
0000
0000
1000
0000
0100
0000
0010
0010
,  // measure 3
0010
0000
0001
0000
0100
0000
0001
0001
,  // measure 4
0001
0000
0100
0000
0010
0000
1000
1000
,  // measure 5
1000
0000
0001
0010
0100
1000
1001
0000
,  // measure 6
0000
0000
1000
1000
1000
0000
1000
1000
,  // measure 7
1000
0000
1000
0100
0010
0001
1000
0001
,  // measure 8
1000
0000
0001
0001
0001
0000
0001
0001
,  // measure 9
0001
0000
0001
0010
0100
1000
0001
0010
,  // measure 10
0100
1000
2000
0000
3020
0000
0230
0000
,  // measure 11
0320
0000
1030
0010
0001
0000
0010
1000
,  // measure 12
0100
0010
0002
0000
0023
0000
0032
0000
,  // measure 13
0203
0000
0301
0100
0010
0000
0010
1000
,  // measure 14
0001
1000
2000
0000
3002
0000
0023
0000
,  // measure 15
0230
0000
0310
0001
0100
0000
0001
0100
,  // measure 16
0010
1000
2000
0000
3020
0000
2030
0000
,  // measure 17
3020
0000
1030
0010
0001
0010
1000
0100
,  // measure 18
0001
0100
0100
0000
0100
0000
0100
0100
,  // measure 19
0100
0000
0010
0000
0010
0000
0010
0010
,  // measure 20
0010
0000
0001
0000
1000
0000
0001
1000
,  // measure 21
0010
0100
0001
0000
1000
0000
0100
0010
,  // measure 22
0001
1000
0001
0000
1001
1000
0110
0000
,  // measure 23
0000
0100
0000
0010
,  // measure 24
0000
0000
0001
0000
0010
0000
0100
0100
,  // measure 25
0100
0000
1000
0000
0010
0000
1000
1000
,  // measure 26
1000
0000
0010
0000
0100
0000
0001
0001
,  // measure 27
0001
0000
1000
0100
0010
0001
1001
0000
,  // measure 28
0000
0000
0001
0001
0001
0000
0001
0001
,  // measure 29
0001
0000
0001
0010
0100
1000
0001
1000
,  // measure 30
0001
0000
1000
1000
1000
0000
1000
1000
,  // measure 31
1000
0000
1000
0100
0010
0001
1000
0100
;

//---------------dance-single - ----------------
#NOTEDATA:;
#CHARTNAME:;
#STEPSTYPE:dance-single;
#DESCRIPTION:;
#CHARTSTYLE:;
#DIFFICULTY:Hard;
#METER:13;
#RADARVALUES:0.471708,0.461147,0.672306,0.068082,0.425510,388.000000,309.000000,79.000000,8.000000,0.000000,0.000000,0.000000,0.000000,0.000000,0.471708,0.461147,0.672306,0.068082,0.425510,388.000000,309.000000,79.000000,8.000000,0.000000,0.000000,0.000000,0.000000,0.000000;
#CREDIT:;
#NOTES:
// measure 0
0000
0000
0000
0000
,  // measure 1
0000
0000
0000
0000
,  // measure 2
0010
1000
0100
1000
0010
0100
0001
1000
0100
0010
0001
0000
1100
0101
0000
0000
,  // measure 3
0001
1000
0010
0100
0001
1000
0100
0010
0001
1000
0100
0000
0011
1100
0000
0000
,  // measure 4
0100
1000
0010
0100
0001
0100
0010
1000
0001
0010
0100
1000
0101
1100
0000
0000
,  // measure 5
0001
0010
1000
0010
0001
0100
1000
0100
0001
0010
1000
0010
0100
0000
1000
0010
,  // measure 6
0101
1010
0101
1001
1100
0011
1100
1001
,  // measure 7
0110
1001
0110
1001
1001
0110
1001
0110
,  // measure 8
0101
1010
0101
1001
1100
0011
1100
1001
,  // measure 9
1010
0000
1100
0000
1010
0000
0110
0000
0101
0000
0110
0000
1010
1000
0001
0001
,  // measure 10
0010
0010
0100
0100
1000
0000
0000
0100
1000
0000
0001
0000
1000
0000
0000
1000
,  // measure 11
0001
0000
0010
0000
0100
0000
0000
0010
0001
0000
0100
0000
0010
0000
0000
1000
,  // measure 12
0010
0100
0001
1000
0001
1000
0001
1000
0001
0000
0010
0000
0100
1000
0100
1000
,  // measure 13
0100
1000
0100
0000
0010
0001
0010
0001
0010
0001
0100
0000
0001
1000
0100
1000
,  // measure 14
0001
0100
0001
1000
0010
0000
0000
0010
1000
0000
0001
0000
0001
0000
0000
0001
,  // measure 15
1000
0000
0100
0000
0010
0000
0000
0100
1000
0000
0010
0000
0100
0000
0000
0001
,  // measure 16
0100
0010
1000
0001
1000
0000
0000
0001
1000
0000
0100
0000
0010
0000
0000
0001
,  // measure 17
1000
0000
0010
0000
0100
0000
0000
0001
0100
0000
0010
0000
1000
0001
0010
0001
,  // measure 18
1000
0010
1000
0001
0001
0000
0000
0010
0001
0000
1000
0000
0001
0000
0000
0001
,  // measure 19
1000
0000
0100
0000
0010
0000
0000
0100
1000
0000
0010
0000
0100
0000
0000
0001
,  // measure 20
0100
0010
1000
0001
1000
0001
1000
0001
1000
0000
0100
0000
0010
0001
0010
0001
,  // measure 21
0010
0000
0100
0000
1000
0100
1000
0100
1000
0000
0001
0000
1001
0000
0000
1000
,  // measure 22
0001
0100
0220
0330
1010
0110
0202
0000
,  // measure 23
0000
0300
2000
0000
0000
0003
3002
0000
,  // measure 24
0103
0001
0010
0001
0100
0010
1000
0001
0010
0100
1000
0000
0011
1010
0000
0000
,  // measure 25
1000
0001
0100
0010
1000
0001
0010
0100
1000
0001
0010
0000
1100
0011
0000
0000
,  // measure 26
0010
0001
0100
0010
1000
0010
0100
0001
1000
0100
0010
0001
1010
0011
0000
0000
,  // measure 27
1000
0100
0001
0100
1000
0010
0001
0010
1000
0100
0001
0100
0010
0000
0001
0100
,  // measure 28
1010
0101
1010
1001
0011
1100
0011
1001
,  // measure 29
0110
1001
0110
1001
1001
0110
1001
0110
,  // measure 30
1010
0101
1010
1001
0011
1100
0011
1001
,  // measure 31
0101
0011
0101
0110
1010
0110
0202
0303
;
