#VERSION:0.83;
#TITLE:Samba de Janeiro;
#SUBTITLE:;
#ARTIST:Bellini;
#TITLETRANSLIT:;
#SUBTITLETRANSLIT:;
#ARTISTTRANSLIT:;
#GENRE:Pop;
#ORIGIN:;
#CREDIT:chewi;
#BANNER:Samba de Janeiro.png;
#BACKGROUND:Samba de Janeiro-bg.png;
#PREVIEWVID:;
#JACKET:Samba de Janeiro-jacket.png;
#CDIMAGE:;
#DISCIMAGE:;
#LYRICSPATH:;
#CDTITLE:cdtitle.png;
#MUSIC:Samba de Janeiro.ogg;
#OFFSET:-0.919000;
#SAMPLESTART:21.219999;
#SAMPLELENGTH:15.000000;
#SELECTABLE:YES;
#DISPLAYBPM:133.000000;
#BPMS:0.000=133.000;
#STOPS:;
#DELAYS:;
#WARPS:;
#TIMESIGNATURES:0.000=4=4;
#TICKCOUNTS:0.000=4;
#COMBOS:0.000=1;
#SPEEDS:0.000=1.000=0.000=0;
#SCROLLS:0.000=1.000;
#FAKES:;
#LABELS:0.000=Song Start;
#BGCHANGES:;
#KEYSOUNDS:;
#ATTACKS:
;

//---------------dance-single - ----------------
#NOTEDATA:;
#CHARTNAME:;
#STEPSTYPE:dance-single;
#DESCRIPTION:;
#CHARTSTYLE:;
#DIFFICULTY:Beginner;
#METER:1;
#RADARVALUES:0.073697,0.132917,0.000000,0.021056,0.000000,49.000000,49.000000,0.000000,2.000000,0.000000,0.000000,0.000000,0.000000,0.000000,0.073697,0.132917,0.000000,0.021056,0.000000,49.000000,49.000000,0.000000,2.000000,0.000000,0.000000,0.000000,0.000000,0.000000;
#CREDIT:;
#DISPLAYBPM:133.000000;
#NOTES:
// measure 0
0000
0000
0000
0000
,  // measure 1
0000
0000
0000
0000
,  // measure 2
0000
0000
0000
0000
,  // measure 3
0000
0000
0000
0000
,  // measure 4
1000
0000
0000
0000
,  // measure 5
0001
0000
0000
0000
,  // measure 6
1000
0000
0000
0000
,  // measure 7
0001
0000
0000
0000
,  // measure 8
1000
0000
0000
0000
,  // measure 9
0001
0000
0000
0000
,  // measure 10
1000
0000
0000
0000
,  // measure 11
0001
0000
0000
0000
,  // measure 12
0100
0000
0000
0000
,  // measure 13
0100
0000
0000
0000
,  // measure 14
0010
0000
0000
0000
,  // measure 15
0010
0000
0000
0000
,  // measure 16
0100
0000
0000
0000
,  // measure 17
0100
0000
0000
0000
,  // measure 18
0010
0000
0000
0000
,  // measure 19
0010
0000
0000
0000
,  // measure 20
2000
0000
0000
3000
,  // measure 21
1000
0000
0000
0000
,  // measure 22
2000
0000
0000
3000
,  // measure 23
1000
0000
0000
0000
,  // measure 24
0001
0000
0000
0000
,  // measure 25
0010
0000
0000
0000
,  // measure 26
1000
0000
0000
0000
,  // measure 27
0100
0000
0000
0000
,  // measure 28
0001
0000
0000
0000
,  // measure 29
0010
0000
0000
0000
,  // measure 30
1000
0000
0000
0000
,  // measure 31
0010
0000
0000
0000
,  // measure 32
0100
0000
0000
0000
,  // measure 33
0001
0000
0000
0000
,  // measure 34
0100
0000
0000
0000
,  // measure 35
0010
0000
0000
0000
,  // measure 36
1000
0000
0000
0000
,  // measure 37
0100
0000
0000
0000
,  // measure 38
0010
0000
0000
0000
,  // measure 39
0001
0000
0000
0000
,  // measure 40
1000
0000
0000
0000
,  // measure 41
0000
0000
0100
0000
,  // measure 42
0000
0000
0100
0000
,  // measure 43
0000
0000
0010
0000
,  // measure 44
0000
0000
0010
0000
,  // measure 45
0000
0000
0100
0000
,  // measure 46
0000
0000
0100
0000
,  // measure 47
0000
0000
0010
0000
,  // measure 48
0000
0000
0010
0000
,  // measure 49
0000
0000
1000
0000
,  // measure 50
1000
1000
1000
0000
;

//---------------dance-single - ----------------
#NOTEDATA:;
#CHARTNAME:;
#STEPSTYPE:dance-single;
#DESCRIPTION:;
#CHARTSTYLE:;
#DIFFICULTY:Hard;
#METER:9;
#RADARVALUES:0.406083,0.451918,0.326371,0.000000,0.042112,270.000000,239.000000,31.000000,0.000000,0.000000,0.000000,0.000000,0.000000,0.000000,0.406083,0.451918,0.326371,0.000000,0.042112,270.000000,239.000000,31.000000,0.000000,0.000000,0.000000,0.000000,0.000000,0.000000;
#CREDIT:;
#DISPLAYBPM:133.000000;
#NOTES:
// measure 0
0000
0000
0000
0000
,  // measure 1
0000
0000
0000
0000
,  // measure 2
0000
0000
0000
0000
,  // measure 3
0000
0000
0000
0000
,  // measure 4
1001
0000
0000
0000
0000
0000
0000
1000
,  // measure 5
0001
0000
0000
0000
0000
0000
0000
1000
,  // measure 6
0001
0000
0000
1000
0001
0000
0000
1000
,  // measure 7
0001
1000
0001
1000
0001
0010
0001
0010
,  // measure 8
0100
0010
0100
0010
0100
1000
0100
1000
,  // measure 9
0001
0010
0100
1000
0001
0010
0100
1000
,  // measure 10
0001
0100
0010
1000
0001
0001
0001
0001
,  // measure 11
0001
0000
1000
0000
0001
0000
0000
1000
,  // measure 12
0100
0000
0010
0100
1000
0000
0010
0100
,  // measure 13
0001
0101
1010
0101
,  // measure 14
1000
0000
0001
1000
0100
0000
1000
0001
,  // measure 15
0100
0110
1010
0110
,  // measure 16
0100
0000
0001
0010
0100
0000
1000
0010
,  // measure 17
0100
0101
1010
0101
,  // measure 18
1000
0000
0001
1000
0100
0000
1000
0001
,  // measure 19
0100
0000
0000
0000
,  // measure 20
0001
1000
0000
0000
0010
0100
0000
0000
,  // measure 21
0001
1000
0000
0000
0100
0010
0000
0000
,  // measure 22
0100
1000
0000
0000
1000
0001
0000
0000
,  // measure 23
0001
0100
0000
0000
0100
0010
0100
0001
,  // measure 24
0100
0100
0010
0010
,  // measure 25
1000
0010
0100
0000
0100
0010
1000
0000
,  // measure 26
0001
0001
1000
1000
,  // measure 27
0001
0010
0100
0000
0100
0010
0001
0000
,  // measure 28
0100
0010
1000
0001
,  // measure 29
1000
0001
0100
0000
0100
0001
1000
0000
,  // measure 30
0001
0001
0010
0010
,  // measure 31
0100
1000
0010
0000
0010
1000
0100
0000
,  // measure 32
0010
0001
0010
0000
0001
0010
0001
0000
,  // measure 33
0011
1100
0011
1100
,  // measure 34
1000
0100
1000
0000
0100
1000
0100
0000
,  // measure 35
1100
0101
1100
0101
,  // measure 36
0100
0001
0100
0000
0001
0100
0001
0000
,  // measure 37
0101
1010
0101
1010
,  // measure 38
1000
0010
1000
0000
0010
1000
0010
1000
,  // measure 39
0010
0000
0000
1000
0010
0000
0000
1000
,  // measure 40
0010
1000
0010
1000
0010
1000
0010
0000
0000
1000
0000
0000
,  // measure 41
0001
0000
0000
0001
0010
0000
0100
0010
,  // measure 42
0001
0000
0100
0010
1000
0000
1010
0000
,  // measure 43
0101
0000
1010
0000
0001
0000
1000
0001
,  // measure 44
0010
0000
0001
1000
0010
0000
0110
0000
,  // measure 45
0101
0000
0110
0000
0010
0000
1000
0100
,  // measure 46
0010
0000
0001
0100
0010
0000
1010
0000
,  // measure 47
0101
0000
1010
0000
0001
0000
1000
0001
,  // measure 48
0010
0000
0001
1000
0010
0010
0000
0000
,  // measure 49
0010
0010
0000
0000
0100
0000
0000
0001
,  // measure 50
1000
0100
0010
0001
1000
0100
0010
0000
0000
0000
0000
0000
;

//---------------dance-single - ----------------
#NOTEDATA:;
#CHARTNAME:;
#STEPSTYPE:dance-single;
#DESCRIPTION:;
#CHARTSTYLE:;
#DIFFICULTY:Easy;
#METER:4;
#RADARVALUES:0.174465,0.292418,0.042112,0.052640,0.000000,116.000000,112.000000,4.000000,5.000000,0.000000,0.000000,0.000000,0.000000,0.000000,0.174465,0.292418,0.042112,0.052640,0.000000,116.000000,112.000000,4.000000,5.000000,0.000000,0.000000,0.000000,0.000000,0.000000;
#CREDIT:;
#DISPLAYBPM:133.000000;
#NOTES:
// measure 0
0000
0000
0000
0000
,  // measure 1
0000
0000
0000
0000
,  // measure 2
0000
0000
0000
0000
,  // measure 3
0000
0000
0000
0000
,  // measure 4
1000
0000
0000
0000
,  // measure 5
0001
0000
0000
0000
,  // measure 6
1000
0000
0001
0000
,  // measure 7
1000
0001
1000
0001
,  // measure 8
0100
0100
0100
0100
,  // measure 9
0010
0010
0010
0010
,  // measure 10
0020
0000
0000
0000
,  // measure 11
0030
0000
0000
0000
,  // measure 12
1000
0000
0100
0000
,  // measure 13
1000
0100
1000
0000
,  // measure 14
0001
0000
0100
0000
,  // measure 15
0001
0100
0001
0000
,  // measure 16
0100
0000
0010
0000
,  // measure 17
1000
0001
1000
0000
,  // measure 18
0100
0000
0010
0000
,  // measure 19
0001
0000
0000
0000
,  // measure 20
0001
0001
0001
0001
,  // measure 21
1000
1000
1000
0000
,  // measure 22
1000
1000
1000
1000
,  // measure 23
0001
0001
0001
0000
,  // measure 24
2000
3000
1000
0000
,  // measure 25
1000
0001
1000
0000
,  // measure 26
0002
0003
0001
0000
,  // measure 27
1000
0001
1000
0000
,  // measure 28
0200
0300
0100
0000
,  // measure 29
0100
0010
0100
0000
,  // measure 30
0020
0030
0010
0000
,  // measure 31
0010
0100
0010
0000
,  // measure 32
0100
0000
1000
0000
,  // measure 33
0001
0000
0010
0000
,  // measure 34
0010
0000
0001
0000
,  // measure 35
1000
0000
0100
0000
,  // measure 36
1000
0000
0010
0000
,  // measure 37
0100
0000
0001
0000
,  // measure 38
0001
0000
0100
0000
,  // measure 39
0010
0000
1000
0000
,  // measure 40
1000
1000
1000
0000
,  // measure 41
0000
0000
0001
0000
,  // measure 42
0010
0000
0001
0010
,  // measure 43
0001
0000
1000
0000
,  // measure 44
0010
0000
1000
0010
,  // measure 45
1000
0000
0010
0000
,  // measure 46
0100
0000
0001
1000
,  // measure 47
0001
0000
0010
0000
,  // measure 48
0100
0000
1000
0001
,  // measure 49
1000
0000
1001
0000
,  // measure 50
1001
1001
1001
0000
;

//---------------dance-single - ----------------
#NOTEDATA:;
#CHARTNAME:;
#STEPSTYPE:dance-single;
#DESCRIPTION:;
#CHARTSTYLE:;
#DIFFICULTY:Medium;
#METER:7;
#RADARVALUES:0.273730,0.292418,0.042112,0.105281,0.000000,182.000000,178.000000,4.000000,10.000000,0.000000,0.000000,0.000000,0.000000,0.000000,0.273730,0.292418,0.042112,0.105281,0.000000,182.000000,178.000000,4.000000,10.000000,0.000000,0.000000,0.000000,0.000000,0.000000;
#CREDIT:;
#DISPLAYBPM:133.000000;
#NOTES:
// measure 0
0000
0000
0000
0000
,  // measure 1
0000
0000
0000
0000
,  // measure 2
0000
0000
0000
0000
,  // measure 3
0000
0000
0000
0000
,  // measure 4
1000
0000
0000
0000
0000
0000
0000
0001
,  // measure 5
1000
0000
0000
0000
0000
0000
0000
0001
,  // measure 6
1000
0000
1000
0000
,  // measure 7
0001
1000
0100
0010
,  // measure 8
0001
1000
0010
0100
,  // measure 9
0002
0203
0320
2030
,  // measure 10
3002
2003
3200
0320
,  // measure 11
0130
0000
0000
0000
,  // measure 12
0100
1000
0001
0100
,  // measure 13
0010
0000
1000
0000
0001
0010
0100
0000
,  // measure 14
1000
0001
0100
0010
,  // measure 15
1000
0000
0001
0000
1000
0100
0010
0000
,  // measure 16
0001
0010
0100
1000
,  // measure 17
0010
0000
0100
0000
0001
0100
0010
0000
,  // measure 18
1000
0001
0100
0010
,  // measure 19
2002
0000
0000
3003
,  // measure 20
1000
0100
0001
0010
,  // measure 21
1000
0000
1000
0000
,  // measure 22
1000
0010
0001
0100
,  // measure 23
1000
0000
1000
0000
,  // measure 24
1000
1000
0100
0100
,  // measure 25
1000
0100
0010
0100
,  // measure 26
1000
0001
0100
0001
,  // measure 27
1000
0001
0100
0001
,  // measure 28
0001
0100
0010
0100
,  // measure 29
0001
0010
0100
1000
,  // measure 30
0001
1000
0010
1000
,  // measure 31
0001
1000
0010
1000
,  // measure 32
0010
0000
0100
0000
0010
0100
0010
0000
,  // measure 33
0100
0000
0010
0000
0100
0010
0100
0000
,  // measure 34
0001
0000
1000
0000
0001
1000
0001
0000
,  // measure 35
1000
0000
0001
0000
1000
0001
1000
0000
,  // measure 36
0001
0000
0010
0000
0100
1000
0100
0000
,  // measure 37
1000
0000
0100
0000
0010
0001
0010
0000
,  // measure 38
0001
0000
1000
0000
0001
1000
0001
0000
,  // measure 39
0100
0000
0100
0000
,  // measure 40
0100
0100
0100
0000
,  // measure 41
0000
0000
0010
0001
,  // measure 42
1000
0010
0100
0001
,  // measure 43
1000
0100
0010
0000
0001
0000
1000
0000
,  // measure 44
0010
0100
0001
1000
,  // measure 45
0001
0010
0100
0000
1000
0000
0100
0000
,  // measure 46
0010
0001
0100
0010
,  // measure 47
1000
0010
0100
0000
0001
0000
1000
0000
,  // measure 48
0010
0100
1001
0000
,  // measure 49
0110
0000
1001
0000
,  // measure 50
1000
0001
1000
0001
1000
0000
0000
0000
;

//---------------dance-single - ----------------
#NOTEDATA:;
#CHARTNAME:;
#STEPSTYPE:dance-single;
#DESCRIPTION:;
#CHARTSTYLE:;
#DIFFICULTY:Challenge;
#METER:10;
#RADARVALUES:0.440676,0.451918,0.200034,0.000000,0.163185,293.000000,274.000000,19.000000,0.000000,0.000000,0.000000,0.000000,0.000000,0.000000,0.440676,0.451918,0.200034,0.000000,0.163185,293.000000,274.000000,19.000000,0.000000,0.000000,0.000000,0.000000,0.000000,0.000000;
#CREDIT:;
#DISPLAYBPM:133.000000;
#NOTES:
// measure 0
0000
0000
0000
0000
,  // measure 1
0000
0000
0000
0000
,  // measure 2
0000
0000
0000
0000
,  // measure 3
0000
0000
0000
0000
,  // measure 4
1001
0000
0000
0000
0000
0000
0000
1000
,  // measure 5
0001
0000
0000
0000
0000
0000
0000
1000
,  // measure 6
0001
0000
0000
1000
0001
0000
0000
1000
,  // measure 7
0001
1000
0001
1000
0001
0010
0001
0010
,  // measure 8
0100
0010
0100
0010
0100
1000
0100
1000
,  // measure 9
0001
0010
0100
1000
0001
0010
0100
1000
,  // measure 10
0001
0100
0010
1000
0001
0100
0010
1000
,  // measure 11
0001
0000
1000
0000
0001
0000
0000
1000
,  // measure 12
0100
0000
0010
0100
1000
0000
0010
0100
,  // measure 13
0001
0101
1010
0101
,  // measure 14
1000
0000
0001
1000
0100
0000
1000
0001
,  // measure 15
0100
0110
1010
0110
,  // measure 16
0100
0000
0001
0010
0100
0000
1000
0010
,  // measure 17
0100
0101
1010
0101
,  // measure 18
1000
0000
0001
1000
0100
0000
1000
0001
,  // measure 19
0100
0000
0000
0000
,  // measure 20
0001
0000
1000
0000
0000
1000
0000
0000
0010
0000
0100
0000
0000
0100
0000
0000
,  // measure 21
0001
0000
1000
0000
0000
1000
0000
0000
0100
0000
0010
0000
0000
0100
0000
0000
,  // measure 22
1000
0000
0001
0000
0000
1000
0000
0000
1000
0000
0001
0000
0000
1000
0000
0000
,  // measure 23
0001
0000
0100
0000
0000
0100
0000
0000
0100
0000
0010
0000
0100
0000
0001
0000
,  // measure 24
0100
0000
0000
0000
1000
0000
0000
0000
0010
0100
0000
0000
0001
0000
0000
1000
,  // measure 25
0001
0000
0000
0100
0010
0000
0000
1000
0001
0000
0000
0000
0010
0000
1000
0000
,  // measure 26
0100
0000
0000
0000
0001
0000
0000
0000
1000
0100
0000
0000
0001
0100
0000
0000
,  // measure 27
0010
0000
0000
1000
0100
0000
0000
1000
0001
0000
0000
0000
0010
0000
0001
0000
,  // measure 28
0100
0000
0000
0000
1000
0000
0000
0000
0010
1000
0000
0000
0100
0000
0000
0001
,  // measure 29
0100
0000
0000
0100
0010
0000
0000
0010
1000
0000
0000
0000
0001
0000
0100
0000
,  // measure 30
0001
0000
0000
0000
0100
0000
0000
0000
0001
1000
0000
0000
0100
0000
0000
0100
,  // measure 31
1000
0000
0000
1000
0100
0000
0000
0001
0100
0000
0000
0000
0010
0000
0010
0000
,  // measure 32
0010
1000
0010
1000
0010
1000
0001
1000
,  // measure 33
0001
1000
0001
0010
0100
1000
0001
0000
,  // measure 34
0010
0100
0010
0100
0010
0100
0010
0001
,  // measure 35
0010
0001
0010
0001
1000
0001
0100
0000
,  // measure 36
0010
1000
0010
1000
0010
1000
0001
1000
,  // measure 37
0001
1000
0001
0010
0100
1000
0001
0000
,  // measure 38
0010
0001
0010
0001
0010
0001
1000
0010
,  // measure 39
1000
0000
0000
0010
1000
0000
0000
0010
,  // measure 40
1000
0100
0010
0001
1000
0100
0010
0000
0000
0001
0000
0000
,  // measure 41
1000
0000
0000
0001
0010
0000
0100
0010
,  // measure 42
0001
0000
0100
0010
1000
0000
1010
0000
,  // measure 43
0101
0000
1010
0000
0001
0000
1000
0001
,  // measure 44
0010
0000
0001
1000
0010
0000
0110
0000
,  // measure 45
0101
0000
0110
0000
0010
0000
1000
0100
,  // measure 46
0010
0000
0001
0100
0010
0000
1010
0000
,  // measure 47
0101
0000
1010
0000
0001
0000
1000
0001
,  // measure 48
0010
0000
0001
1000
0010
0010
0000
0000
,  // measure 49
0010
0010
0000
0000
0100
0000
0000
0001
,  // measure 50
1000
0100
0010
0001
1000
0100
0010
0000
0000
0000
0000
0000
;
