#VERSION:0.83;
#TITLE:Sakura Fubuki;
#SUBTITLE:;
#ARTIST:Street;
#TITLETRANSLIT:;
#SUBTITLETRANSLIT:;
#ARTISTTRANSLIT:;
#GENRE:Electronic;
#ORIGIN:;
#CREDIT:steps by chewi;
#BANNER:Sakura Fubuki.png;
#BACKGROUND:Sakura Fubuki-bg.png;
#PREVIEWVID:;
#JACKET:Sakura Fubuki-jacket.png;
#CDIMAGE:;
#DISCIMAGE:;
#LYRICSPATH:;
#CDTITLE:cdtitle.png;
#MUSIC:Sakura Fubuki.ogg;
#OFFSET:-0.206000;
#SAMPLESTART:68.428001;
#SAMPLELENGTH:15.000000;
#SELECTABLE:YES;
#DISPLAYBPM:87.500000:175.000000;
#BPMS:0.000=87.500,
16.000=175.000,
120.000=87.500,
144.000=175.000,
224.000=87.500,
255.000=700.000,
263.000=175.000;
#STOPS:;
#DELAYS:;
#WARPS:;
#TIMESIGNATURES:0.000=4=4;
#TICKCOUNTS:0.000=4;
#COMBOS:0.000=1;
#SPEEDS:0.000=1.000=0.000=0;
#SCROLLS:0.000=1.000;
#FAKES:;
#LABELS:0.000=Song Start;
#BGCHANGES:;
#KEYSOUNDS:;
#ATTACKS:
;

//---------------dance-single - ----------------
#NOTEDATA:;
#CHARTNAME:;
#STEPSTYPE:dance-single;
#DESCRIPTION:;
#CHARTSTYLE:;
#DIFFICULTY:Medium;
#METER:9;
#RADARVALUES:0.291667,0.356146,0.308333,0.375000,0.079167,245.000000,208.000000,37.000000,45.000000,0.000000,0.000000,0.000000,0.000000,0.000000,0.291667,0.356146,0.308333,0.375000,0.079167,245.000000,208.000000,37.000000,45.000000,0.000000,0.000000,0.000000,0.000000,0.000000;
#CREDIT:;
#DISPLAYBPM:87.500000:175.000000;
#NOTES:
0000
0000
0000
0000
,
0000
0000
0000
0000
,
0000
0000
0000
0000
,
0000
0000
0000
0000
,
1000
0100
0010
0100
,
1000
0001
0100
0100
,
0010
0100
0001
0100
,
0010
1000
0001
0001
,
0010
0010
0010
0010
,
0100
0100
0100
0100
,
1000
0010
0100
0001
1000
0010
0100
0001
,
2000
0000
0000
0000
,
3001
0100
0000
0001
0100
0000
0010
1000
,
0000
0010
1000
0000
0001
1000
0001
1000
,
0001
0000
0011
0000
,
1000
0000
0000
0000
1010
1000
0000
0000
,
0010
0000
0000
0000
0110
0000
0010
0100
,
0020
0000
2030
0000
3100
0000
0010
0011
,
0000
0000
1100
0000
,
0001
0000
0000
0000
0101
0001
0000
0000
,
0100
0000
0000
0000
0110
0000
0100
0101
,
0000
0000
0000
1001
0000
1001
0000
0110
,
0000
0000
1001
0000
,
1000
0000
0000
0000
1010
1000
0000
0000
,
0010
0000
0000
0000
0101
0000
0010
0100
,
0020
0000
0230
0000
0301
0000
0001
1010
,
0000
0000
1001
0000
,
0001
0000
0000
0000
0101
0001
0000
0000
,
0100
0000
0000
0000
1010
0000
0100
0010
,
0200
0000
0320
0000
1030
0010
0100
0001
,
0002
0000
0000
0000
0000
0000
0000
0203
0000
0000
0000
0000
0000
0000
0000
0320
,
0000
0000
0000
0000
0000
0000
0000
2030
0000
0000
0000
0000
0000
0000
0000
3000
,
0020
0000
0000
0000
0000
0000
0000
0230
0000
0000
0000
0000
0000
0000
0000
0302
,
0000
0000
0000
0000
0000
0000
0000
2003
0000
0000
0000
0000
0000
0000
0000
0000
,
3001
0000
0101
0000
1000
0100
0100
0000
,
0001
0000
0011
0000
1000
0010
0010
0000
,
1000
0100
0010
0100
,
1000
0001
0100
0100
,
0010
1000
0001
0100
,
2002
0000
0000
3003
,
2000
0000
3001
0000
0000
1000
0001
0000
,
0020
0000
0130
0000
0000
0010
0100
0000
,
0020
0000
0031
0000
0000
0010
0001
0000
,
0011
0101
1010
1100
,
0200
0000
0310
0000
0000
0100
0010
0000
,
0002
0000
1003
0000
0000
0001
1000
0000
,
0002
0000
0103
0000
0000
0001
0100
0000
,
0101
0011
1100
1010
,
0002
0000
1003
0000
0000
0001
1000
0000
,
0200
0000
0310
0000
0000
0100
0010
0000
,
0200
0000
1300
0000
0000
0100
1000
0000
,
1100
1010
0101
0011
,
0020
0000
0130
0000
0000
0010
0100
0000
,
2000
0000
3001
0000
0000
1000
0001
0000
,
2000
0000
3010
0000
0000
1000
0010
0000
,
1010
1100
0011
0101
,
0002
0000
0000
0000
0000
0000
0000
2003
0000
0000
0000
0000
0000
0000
0000
3200
,
0000
0000
0000
0000
0000
0000
0000
0320
0000
0000
0000
0000
0000
0000
0000
0000
,
0230
0000
0000
0000
0000
0000
0000
2300
0000
0000
0000
0000
0000
0000
0000
3002
,
0000
0000
0000
0000
0000
0000
0000
0203
0000
0000
0000
0000
0000
0000
0000
0302
,
0000
0000
0000
0000
0000
0000
0000
0203
0000
0000
0000
0000
0000
0000
0000
0320
,
0000
0000
0000
0000
0000
0000
0000
2030
0000
0000
0000
0000
0000
0000
0000
0000
,
3002
0000
0000
0000
0000
0000
0000
0023
0000
0000
0000
0000
0000
0000
0000
0230
,
0000
0000
0000
0000
0000
0000
0000
2000
0000
0000
0000
0000
0000
0000
0000
0000
,
0000
0000
0000
0000
,
0000
0000
0000
3300
;

//---------------dance-single - ----------------
#NOTEDATA:;
#CHARTNAME:;
#STEPSTYPE:dance-single;
#DESCRIPTION:;
#CHARTSTYLE:;
#DIFFICULTY:Hard;
#METER:13;
#RADARVALUES:0.463095,0.657500,0.125000,0.200000,0.270833,389.000000,374.000000,15.000000,24.000000,0.000000,0.000000,0.000000,0.000000,0.000000,0.463095,0.657500,0.125000,0.200000,0.270833,389.000000,374.000000,15.000000,24.000000,0.000000,0.000000,0.000000,0.000000,0.000000;
#CREDIT:;
#DISPLAYBPM:87.500000:175.000000;
#NOTES:
// measure 0
0000
0000
0000
0000
,  // measure 1
0000
0000
0000
0000
,  // measure 2
0000
0000
0000
0000
,  // measure 3
0000
0000
0000
0000
,  // measure 4
1000
0100
0010
0001
1000
0010
0100
0001
,  // measure 5
0010
0100
1000
0001
0100
0010
1000
0001
,  // measure 6
0001
0010
0100
1000
0001
0100
0010
1000
,  // measure 7
0100
0010
0001
1000
0010
0100
0001
0100
,  // measure 8
0010
0010
0010
0000
1000
1000
1000
0000
,  // measure 9
0100
0100
0100
0000
0010
0010
0010
0000
,  // measure 10
0001
0010
0100
1000
0001
0010
0100
1000
,  // measure 11
0001
1000
0001
1000
0001
1000
0001
1000
0010
0100
0010
0100
0010
0100
0010
0000
,  // measure 12
0100
0100
0000
0001
0001
0000
1000
1000
,  // measure 13
0000
0000
0010
0000
0010
0000
0000
0000
1000
0001
1000
0001
1000
0001
1000
0000
,  // measure 14
0001
0000
0001
0010
0100
0010
0001
0000
,  // measure 15
0100
0010
0100
0010
0100
0000
0000
0000
0010
0000
1000
0000
0000
0000
0010
1000
,  // measure 16
0010
0000
1000
0000
0100
0000
0010
0000
0100
0000
1000
0000
0001
1000
0001
1000
,  // measure 17
0001
0000
0001
0000
1000
0001
1000
0001
1000
0000
0001
0000
0100
0000
0110
0000
,  // measure 18
0010
0000
0000
0000
0010
1000
0010
1000
0010
0000
1000
0000
0100
0000
0010
0000
,  // measure 19
0001
1000
0001
1000
0001
0000
1000
0000
0100
0000
1000
0000
0100
0000
1000
0100
,  // measure 20
0010
0000
0100
0000
0010
0000
0001
1000
0010
0000
0100
0000
0001
0000
0101
0000
,  // measure 21
0000
0000
0000
1010
0000
1001
0000
1100
,  // measure 22
1000
0000
1000
0100
0010
0100
1000
0000
,  // measure 23
0010
0100
0010
0100
0010
0000
0000
0000
0100
0000
0001
0000
0000
0000
0100
0001
,  // measure 24
0100
0000
0001
0000
0010
0000
0100
0000
0010
0000
0001
0000
1000
0001
1000
0001
,  // measure 25
1000
0000
1000
0000
0001
1000
0001
1000
0001
0000
1000
0000
0010
0000
0110
0000
,  // measure 26
0100
0000
0000
0000
0100
0001
0100
0001
0100
0000
0001
0000
0010
0000
0100
0000
,  // measure 27
1000
0001
1000
0001
1000
0000
0001
0000
0010
0000
0001
0000
0010
0000
0001
0010
,  // measure 28
0100
0000
0010
0000
0100
0000
1000
0001
0100
0000
0010
0000
1000
0000
0010
1000
,  // measure 29
0010
0000
0000
0000
0000
0000
0000
0000
0000
0000
0100
0001
0100
0001
0100
0001
,  // measure 30
0200
0000
0000
0000
0000
0000
0000
0320
0000
0000
0000
0000
0000
0000
0000
2030
,  // measure 31
0000
0000
0000
0000
0000
0000
0000
3002
0000
0000
0000
0000
0000
0000
0000
1000
,  // measure 32
2003
0000
0000
0000
0000
0000
0000
3200
0000
0000
0000
0000
0000
0000
0000
0320
,  // measure 33
0000
0000
0000
0000
0000
0000
0000
0032
0000
0000
0000
0000
0000
0000
0000
0000
,  // measure 34
1003
0010
0001
0000
1000
0100
0001
0000
,  // measure 35
0010
0100
1000
0000
0010
0100
0001
0000
,  // measure 36
0100
0100
0100
0000
0010
0010
0010
0000
,  // measure 37
1000
1000
1000
0000
0001
0001
0001
0000
,  // measure 38
1000
0000
0100
0000
0010
0000
0001
0000
1000
0000
0100
0000
0010
0001
0010
0001
,  // measure 39
0010
0000
0000
0000
0000
0000
0000
0000
0000
0000
0000
0000
0100
1000
0100
1000
,  // measure 40
0100
0000
0000
0000
0000
1000
0001
0010
,  // measure 41
0000
0100
1000
0010
1000
0100
0010
0100
,  // measure 42
0000
1000
0001
0010
0010
0001
1000
0010
,  // measure 43
0000
0100
0001
0100
0010
0100
0001
0010
,  // measure 44
0100
0000
0000
0000
0000
1000
0100
0010
,  // measure 45
0000
0000
0000
0011
0000
0101
0000
1010
,  // measure 46
0000
0000
0000
1100
0000
0110
0000
0011
,  // measure 47
0000
0001
0010
0100
1000
1000
0010
1000
,  // measure 48
0001
1000
0100
1000
0001
0100
0001
1000
,  // measure 49
0000
0100
0010
0100
0010
0100
0010
0100
,  // measure 50
0000
0000
0000
0000
0000
0100
1000
0001
,  // measure 51
0000
0100
0010
1000
0010
0100
0001
0100
,  // measure 52
0001
0000
0000
0000
0000
0100
0010
0100
,  // measure 53
0000
0000
0000
1010
0000
0101
0000
0011
,  // measure 54
0000
0000
0000
0001
0010
0100
1000
0001
,  // measure 55
0100
0010
0100
0010
0100
0010
0100
0010
,  // measure 56
0200
0000
0000
0000
0000
0000
0000
0320
0000
0000
0000
0000
0000
0000
0000
2030
,  // measure 57
0000
0000
0000
0000
0000
0000
0000
3002
0000
0000
0000
0000
0000
0000
0000
0010
,  // measure 58
0023
0000
0000
0000
0000
0000
0000
0230
0000
0000
0000
0000
0000
0000
0000
2300
,  // measure 59
0000
0000
0000
0000
0000
0000
0000
3002
0000
0000
0000
0000
0000
0000
0000
0000
,  // measure 60
2003
0000
0000
0000
0000
0000
0000
3020
0000
0000
0000
0000
0000
0000
0000
0230
,  // measure 61
0000
0000
0000
0000
0000
0000
0000
0302
0000
0000
0000
0000
0000
0000
0000
0013
,  // measure 62
0020
0000
0000
0000
0000
0000
0000
0230
0000
0000
0000
0000
0000
0000
0000
2300
,  // measure 63
0000
0000
0000
0000
0000
0000
0000
0002
0000
0000
0000
0000
0000
0000
0000
0000
,  // measure 64
0000
0000
0000
0000
,  // measure 65
0000
0000
0000
3003
;

//---------------dance-single - ----------------
#NOTEDATA:;
#CHARTNAME:;
#STEPSTYPE:dance-single;
#DESCRIPTION:;
#CHARTSTYLE:;
#DIFFICULTY:Easy;
#METER:6;
#RADARVALUES:0.154762,0.246562,0.041667,0.083333,0.000000,130.000000,125.000000,5.000000,10.000000,0.000000,0.000000,0.000000,0.000000,0.000000,0.154762,0.246562,0.041667,0.083333,0.000000,130.000000,125.000000,5.000000,10.000000,0.000000,0.000000,0.000000,0.000000,0.000000;
#CREDIT:;
#DISPLAYBPM:87.500000:175.000000;
#NOTES:
0000
0000
0000
0000
,
0000
0000
0000
0000
,
0000
0000
0000
0000
,
0000
0000
0000
0000
,
1000
0000
1000
0000
,
1000
0000
1000
0000
,
0010
0000
0010
0000
,
0010
0000
0010
0000
,
0100
0000
0100
0000
,
0100
0000
0100
0000
,
0001
0001
0001
0001
,
0001
0000
0000
0000
,
1001
0000
0000
0000
,
0000
0000
1000
0001
,
0100
0000
0100
0000
,
0100
0010
1000
0000
,
0010
0000
0010
0000
,
0100
0001
0010
0000
,
0001
0000
0001
0000
,
0010
0100
1000
0000
,
1000
0000
1000
0000
,
0100
0010
0001
0000
,
1000
0000
1000
0000
,
0001
0000
0001
0000
,
1000
0000
0001
0000
,
1000
0001
0100
0010
,
0100
0000
0100
0000
,
0010
0000
0010
0000
,
0100
0000
0100
0000
,
0010
1000
0001
0100
,
2002
0000
0000
0000
,
0000
0000
0000
3003
,
0220
0000
0000
0000
,
0000
0000
0000
0330
,
0100
0000
0100
0000
,
0010
0000
0010
0000
,
0010
0010
0010
0010
,
0001
0001
0001
0001
,
0010
0001
0010
0001
,
0010
0000
0000
0000
,
0001
0000
0001
0000
,
1000
0000
1000
0000
,
0001
1000
0010
0000
,
1000
0001
0010
0000
,
0100
0000
0100
0000
,
1000
0000
1000
0000
,
0100
0010
0001
0000
,
0100
0010
1000
0000
,
0001
0000
0001
0000
,
0100
0000
0100
0000
,
0001
0100
0010
0000
,
1000
0100
0010
0000
,
0001
0000
0001
0000
,
1000
0000
1000
0000
,
0001
1000
0001
0000
,
1000
0001
1000
0001
,
2002
0000
0000
0000
,
0000
0000
0000
3003
,
0200
0000
0000
0000
,
0000
0000
0000
0300
,
0220
0000
0000
0000
,
0000
0000
0000
0330
,
2000
0000
0000
0000
,
0000
0000
0000
3000
,
0000
0000
0000
0000
,
0000
0000
0000
1000
;

//---------------dance-single - ----------------
#NOTEDATA:;
#CHARTNAME:;
#STEPSTYPE:dance-single;
#DESCRIPTION:;
#CHARTSTYLE:;
#DIFFICULTY:Beginner;
#METER:3;
#RADARVALUES:0.064286,0.109583,0.000000,0.000000,0.000000,54.000000,54.000000,0.000000,0.000000,0.000000,0.000000,0.000000,0.000000,0.000000,0.064286,0.109583,0.000000,0.000000,0.000000,54.000000,54.000000,0.000000,0.000000,0.000000,0.000000,0.000000,0.000000,0.000000;
#CREDIT:;
#DISPLAYBPM:87.500000:175.000000;
#NOTES:
0000
0000
0000
0000
,
0000
0000
0000
0000
,
0000
0000
0000
0000
,
0000
0000
0000
0000
,
1000
0000
0000
0000
,
0000
0000
0000
0000
,
0001
0000
0000
0000
,
0000
0000
0000
0000
,
1000
0000
1000
0000
,
1000
0000
0000
0000
,
0001
0000
0001
0000
,
0001
0000
0000
0000
,
0100
0000
0000
0000
,
0000
0000
0100
0000
,
0100
0000
0000
0000
,
0010
0000
0000
0000
,
1000
0000
0000
0000
,
0001
0000
0000
0000
,
1000
0000
0000
0000
,
0100
0000
0000
0000
,
0010
0000
0000
0000
,
0100
0000
0000
0000
,
1000
0000
0000
0000
,
0010
0000
0000
0000
,
0100
0000
0000
0000
,
0001
0000
0000
0000
,
0001
0000
0000
0000
,
0010
0000
0000
0000
,
0100
0000
0000
0000
,
1000
0000
0000
0000
,
1000
0000
0000
0000
,
0000
0000
0000
0000
,
0001
0000
0000
0000
,
0000
0000
0000
0000
,
0001
0000
0000
0000
,
0000
0000
0000
0000
,
1000
0000
0000
0000
,
1000
0000
0000
0000
,
0100
0000
0000
0000
,
0100
0000
0000
0000
,
0100
0000
0000
0000
,
0100
0000
0000
0000
,
0010
0000
0000
0000
,
0010
0000
0000
0000
,
0001
0000
0000
0000
,
0001
0000
0000
0000
,
1000
0000
0000
0000
,
1000
0000
0000
0000
,
0001
0000
0000
0000
,
0100
0000
0000
0000
,
0010
0000
0000
0000
,
1000
0000
0000
0000
,
1000
0000
0000
0000
,
0100
0000
0000
0000
,
0010
0000
0000
0000
,
0001
0000
0000
0000
,
0001
0000
0000
0000
,
0000
0000
0000
0000
,
1000
0000
0000
0000
,
0000
0000
0000
0000
,
0100
0000
0000
0000
,
0000
0000
0000
0000
,
0010
0000
0000
0000
,
0000
0000
0000
0000
,
0000
0000
0000
0000
,
0000
0000
0000
0010
;

//---------------dance-single - ----------------
#NOTEDATA:;
#CHARTNAME:;
#STEPSTYPE:dance-single;
#DESCRIPTION:;
#CHARTSTYLE:;
#DIFFICULTY:Challenge;
#METER:16;
#RADARVALUES:0.619048,0.904062,0.266667,0.200000,0.687500,520.000000,488.000000,32.000000,24.000000,0.000000,0.000000,0.000000,0.000000,0.000000,0.619048,0.904062,0.266667,0.200000,0.687500,520.000000,488.000000,32.000000,24.000000,0.000000,0.000000,0.000000,0.000000,0.000000;
#CREDIT:;
#DISPLAYBPM:87.500000:175.000000;
#NOTES:
0000
0000
0000
0000
,
0000
0000
0000
0000
,
0000
0000
0000
0000
,
0000
0000
0000
0000
,
1000
0100
0010
0100
1000
0100
0010
0100
,
1000
0100
0010
0100
1000
0100
0010
0001
,
0100
0010
0100
0001
0100
0010
0100
0001
,
0010
0100
1000
0100
0010
0100
1000
0001
,
1000
1000
0001
0001
0100
0100
0010
0010
,
1000
0010
0100
0001
1000
0010
0100
0001
,
1000
0100
1000
0100
0010
0001
0010
0001
1000
0001
1000
0001
0100
0010
0100
0010
,
0100
0010
1000
0001
0100
0010
1000
0001
0010
0100
1000
0001
0010
0100
1000
0000
,
0101
0101
0000
1001
1001
0000
1010
1010
,
0000
0000
0110
0000
0110
0000
0000
0000
0100
0001
1000
0010
0100
0001
1000
0000
,
0001
0000
1000
0000
0001
0100
0001
0100
0001
0100
0001
0100
0001
0000
0100
0000
,
0010
1000
0001
0010
0100
1000
0001
1000
0100
0000
1000
0100
1000
0100
1000
0100
,
1000
0000
0100
0000
0010
0100
0010
0100
1000
0000
0001
0100
0010
1000
0001
0100
,
0010
0000
0000
0000
0100
0001
1000
0010
0100
0001
1000
0010
1000
0000
1100
0000
,
1000
0000
0000
0000
0001
0100
0001
0100
0001
0100
0001
0100
0010
0000
1000
0000
,
0001
0010
0100
1000
0001
0010
0100
0000
0100
0000
1000
0000
0001
1000
0001
1000
,
0001
0000
1000
0000
0010
1000
0010
1000
0010
1000
0010
1000
0010
0000
1010
0000
,
1000
0100
1000
0100
0000
0000
1001
0000
0000
0000
0110
0000
0000
0000
1001
0000
,
1000
0000
0001
0000
1000
0010
1000
0010
1000
0010
1000
0010
1000
0000
0010
0000
,
0100
0001
1000
0100
0010
0001
1000
0001
0010
0000
0001
0010
0001
0010
0001
0010
,
0001
0000
0010
0000
0100
0010
0100
0010
0001
0000
1000
0010
0100
0001
1000
0010
,
0100
0000
0000
0000
0010
1000
0001
0100
0010
1000
0001
0100
0001
0000
0011
0000
,
0001
0000
0000
0000
1000
0010
1000
0010
1000
0010
1000
0010
0100
0000
0001
0000
,
1000
0100
0010
0001
1000
0100
0010
0000
0010
0000
0001
0000
1000
0001
1000
0001
,
1000
0000
0001
0000
0100
0001
0100
0001
0100
0001
0100
0001
0100
0000
0010
0000
,
1000
0010
1000
0010
1000
0010
1000
0010
1000
0000
0100
0010
0100
0010
0100
0010
,
0200
0000
0000
0000
0000
0000
0000
0320
0000
0000
0000
0000
0000
0000
0000
0032
,
0000
0000
0000
0000
0000
0000
0000
0000
0000
0000
0000
0000
0000
0000
2003
0000
0000
0000
0000
0000
0000
0000
0000
0000
0000
0000
0000
0000
0000
0000
3010
0100
,
0002
0000
0000
0000
0000
0000
0000
0203
0000
0000
0000
0000
0000
0000
0000
0320
,
0000
0000
0000
0000
0000
0000
0000
2030
0000
0000
0000
0000
0000
0000
0000
0000
,
3001
0000
0000
0000
0011
0000
0000
0000
1000
0000
0000
0000
1000
1010
0000
0000
,
0001
0000
0000
0000
0101
0000
0000
0000
1000
0000
0000
0000
1000
1100
0000
0000
,
1010
1010
0101
0101
,
0010
0100
1000
0001
0100
0010
1000
0001
,
1000
0000
1000
0000
0001
0000
0001
0000
0100
0000
0100
0000
0010
0100
0010
0100
,
0010
0100
0001
1000
0010
0100
0001
1000
0010
0100
0001
1000
0010
0000
0000
0000
,
0110
0000
0000
0000
0000
0100
0001
0010
,
0001
0000
0010
0100
0010
0100
0010
0100
1000
0100
1000
0100
1000
0001
1000
0001
,
1000
0000
0001
0000
0100
0000
0001
0010
0001
0000
0010
0100
0010
0000
0100
0000
,
1000
0100
1000
0100
0010
0001
0010
0001
0010
0100
1000
0001
0010
0100
1000
0001
,
1000
0000
0000
0000
0000
0001
0100
0001
,
0000
0000
0000
0110
0000
0110
0000
1001
,
0000
0000
0000
1010
0000
1100
0000
1000
,
0100
0000
1000
0000
0100
0000
0010
0000
0001
0000
0010
0001
0010
0001
0010
0000
,
0001
0000
1000
0000
0001
0000
1000
0001
1000
0000
0001
1000
0100
0000
0010
0000
,
0000
0000
0001
0000
0010
0000
0100
1000
0100
0001
0100
1000
0100
0001
0100
1000
,
0100
0000
0000
0000
0000
0100
0010
0001
,
0000
0000
0100
0010
1000
0001
0100
0010
1000
0001
0010
0100
1000
0001
0010
0100
,
1000
0000
0000
0000
0000
0100
1000
0010
,
0000
0000
0000
0101
0000
0101
0000
1001
,
0000
0000
0000
0000
0000
0000
1000
0100
1000
0001
1000
0100
1000
0001
1000
0100
,
1000
0000
0000
0000
,
1002
0000
0000
0000
0000
0000
0000
0203
0000
0000
0000
0000
0000
0000
0000
0320
,
0000
0000
0000
0000
0000
0000
0000
0000
0000
0000
0000
0000
0000
0000
2030
0000
0000
0000
0000
0000
0000
0000
0000
0000
0000
0000
0000
0000
0000
0000
3001
1000
,
0200
0000
0000
0000
0000
0000
0000
0320
0000
0000
0000
0000
0000
0000
0000
0032
,
0000
0000
0000
0000
0000
0000
0000
2003
0000
0000
0000
0000
0000
0000
0000
0000
,
3002
0000
0000
0000
0000
0000
0000
0023
0000
0000
0000
0000
0000
0000
0000
0230
,
0000
0000
0000
0000
0000
0000
0000
0000
0000
0000
0000
0000
0000
0000
2300
0000
0000
0000
0000
0000
0000
0000
0000
0000
0000
0000
0000
0000
0000
0000
3001
1000
,
0020
0000
0000
0000
0000
0000
0000
0230
0000
0000
0000
0000
0000
0000
0000
0302
,
0000
0000
0000
0000
0000
0000
0000
2000
0000
0000
0000
0000
0000
0000
0000
0000
,
0000
0000
0000
0000
,
0000
0000
0000
3003
;
