#TITLE:SYNTHESIZED;
#SUBTITLE:;
#ARTIST:Sota F.;
#TITLETRANSLIT:;
#SUBTITLETRANSLIT:;
#ARTISTTRANSLIT:;
#CREDIT:Chewi☆;
#BANNER:SYNTHESIZED.png;
#BACKGROUND:SYNTHESIZED-bg.png;
#LYRICSPATH:;
#CDTITLE:;
#MUSIC:SYNTHESIZED.mp3;
#OFFSET:-0.525;
#SAMPLESTART:61.964;
#SAMPLELENGTH:15.000;
#SELECTABLE:YES;
#DISPLAYBPM:125.000;
#BPMS:0.000=125.000;
#STOPS:;
#BGCHANGES:;

//---------------dance-single - Chewi----------------
#NOTES:
     dance-single:
     Chewi:
     Hard:
     11:
     0.493,0.479,0.269,0.269,0.000: // measure 1
0000
0000
0000
0000
,  // measure 2
0000
0000
0000
0000
,  // measure 3
0000
0000
0000
0000
,  // measure 4
0000
0000
0000
0000
,  // measure 5
2001
0000
3001
1000
0010
0100
0001
0000
,  // measure 6
0102
0000
0103
0010
1000
0001
0010
0000
,  // measure 7
0021
0000
0031
0010
0100
1000
0010
0000
,  // measure 8
1020
0000
1030
0010
0100
0001
1000
0000
,  // measure 9
2100
0000
3001
0100
0010
1000
0001
0000
,  // measure 10
0102
0000
0013
0100
1000
0010
0100
0000
,  // measure 11
2010
0000
3100
1000
0010
0100
0001
0000
,  // measure 12
1000
0001
0010
0100
1000
0001
1001
0000
,  // measure 13
1000
0100
0010
0100
1000
0100
0010
0100
,  // measure 14
1000
0100
1000
0100
1000
0001
1000
0001
,  // measure 15
0001
0100
0010
0100
0001
0100
0010
0100
,  // measure 16
0001
0100
0001
0100
0001
0010
0001
0010
,  // measure 17
0001
0010
0100
1000
0010
0100
0001
0100
,  // measure 18
0010
0100
0010
0100
0001
1000
0001
1000
,  // measure 19
1000
0100
0010
0001
1000
0100
0010
0001
,  // measure 20
1000
0001
1000
0001
1000
0010
1000
0010
,  // measure 21
1020
0000
0032
0000
,  // measure 22
0203
0000
2300
0000
,  // measure 23
3010
0000
0100
0000
0001
1000
0100
0000
,  // measure 24
0010
0000
0100
0000
1000
0001
0100
0000
,  // measure 25
0001
0100
0010
0100
0102
0000
0013
0000
,  // measure 26
0100
1000
0010
1000
2100
0000
3010
0000
,  // measure 27
1000
0001
0010
0100
0120
0000
0130
0000
,  // measure 28
0100
0010
0001
1000
1002
0000
1003
0000
,  // measure 29
2010
0001
3100
0010
0001
0100
0010
0000
,  // measure 30
0102
0010
0103
0010
1000
0001
0010
0000
,  // measure 31
2001
0100
3010
0100
0010
1000
0100
0000
,  // measure 32
1200
0001
1300
0010
0100
0001
0101
0000
,  // measure 33
0001
0100
0010
1000
0001
0010
0100
1000
,  // measure 34
0001
1000
0001
1000
0010
0100
0010
0100
,  // measure 35
0010
1000
0001
0010
0100
1000
0001
0100
,  // measure 36
0010
0100
0010
0100
0001
1000
0001
1000
,  // measure 37
0001
0010
0100
1000
0001
0100
1000
0100
,  // measure 38
1000
0100
0010
0001
1000
0010
0001
0010
,  // measure 39
0100
1000
0001
0100
0010
0100
0001
1000
,  // measure 40
0100
1000
0100
1000
0001
1000
0001
1000
,  // measure 41
1002
0000
0100
0000
0013
0100
1000
0010
,  // measure 42
0102
0000
0010
0000
0103
0010
1000
0001
,  // measure 43
2100
0000
0010
0000
3001
0010
0100
1000
,  // measure 44
1002
0000
0100
0000
1003
0010
0100
0001
,  // measure 45
0021
0000
0001
0000
0031
0010
0100
1000
,  // measure 46
2010
0000
0100
0000
3010
0100
0001
1000
,  // measure 47
1200
0000
0001
0000
1300
0010
0100
0001
,  // measure 48
0102
0000
0010
0000
0103
0010
1000
0001
,  // measure 49
1001
0000
0000
0000
;

//---------------dance-single - Chewi----------------
#NOTES:
     dance-single:
     Chewi:
     Medium:
     7:
     0.298,0.335,0.140,0.199,0.000: // measure 1
0000
0000
0000
0000
,  // measure 2
0000
0000
0000
0000
,  // measure 3
0000
0000
0000
0000
,  // measure 4
0000
0000
0000
0000
,  // measure 5
2001
3001
1000
0100
,  // measure 6
2100
3100
1000
0010
,  // measure 7
2010
3010
0100
0001
,  // measure 8
0102
0103
0010
0100
,  // measure 9
0002
1003
0100
0010
,  // measure 10
0002
1003
0010
0100
,  // measure 11
0002
0103
0010
0001
,  // measure 12
0200
1300
0010
0100
,  // measure 13
0001
1000
0100
1000
,  // measure 14
0100
0001
0100
0010
,  // measure 15
1000
0010
0100
0001
,  // measure 16
1000
0100
0010
0001
,  // measure 17
0001
1000
0010
0100
,  // measure 18
0001
1000
0100
0010
,  // measure 19
0001
0010
0100
1000
,  // measure 20
0001
0100
0010
1000
,  // measure 21
1002
0000
0203
0000
,  // measure 22
0320
0000
2030
0000
,  // measure 23
3001
0001
1000
0001
,  // measure 24
1000
1000
0001
1000
,  // measure 25
0002
0103
0010
1000
,  // measure 26
0200
1300
0010
0100
,  // measure 27
0002
0013
0100
1000
,  // measure 28
0020
1000
0100
0031
,  // measure 29
0020
0031
0100
1000
,  // measure 30
0020
1030
0100
0001
,  // measure 31
0020
0130
1000
0001
,  // measure 32
2000
0010
0001
3100
,  // measure 33
0001
1000
0001
1000
0001
0000
1000
0000
,  // measure 34
0000
0010
0110
0000
,  // measure 35
0100
0010
1000
0001
,  // measure 36
0010
0100
1000
0001
,  // measure 37
1000
0001
1000
0001
1000
0000
0001
0000
,  // measure 38
0000
1000
1001
0000
,  // measure 39
0001
0100
0010
1000
,  // measure 40
0001
0010
0100
1000
,  // measure 41
1001
0000
1000
0000
0001
1000
0001
0000
,  // measure 42
0100
0010
0100
0010
,  // measure 43
0110
0100
0010
0100
,  // measure 44
1001
1000
0001
1000
,  // measure 45
0011
0000
1000
0000
0010
1000
0001
0000
,  // measure 46
1000
0100
0010
0001
,  // measure 47
1000
0010
0100
0101
,  // measure 48
0001
0010
0100
1100
,  // measure 49
1001
0000
0000
0000
;

//---------------dance-single - Chewi----------------
#NOTES:
     dance-single:
     Chewi:
     Easy:
     5:
     0.242,0.287,0.080,0.329,0.000: // measure 1
0000
0000
0000
0000
,  // measure 2
0000
0000
0000
0000
,  // measure 3
0000
0000
0000
0000
,  // measure 4
0000
0000
0000
0000
,  // measure 5
2000
0000
0000
3000
,  // measure 6
0001
1000
0001
0000
,  // measure 7
0002
0000
0000
0003
,  // measure 8
1000
0001
1000
0000
,  // measure 9
0020
0000
0000
0030
,  // measure 10
0010
0100
0010
0000
,  // measure 11
0200
0000
0000
0300
,  // measure 12
0010
0100
0010
0000
,  // measure 13
2000
3200
2300
0000
,  // measure 14
3001
0001
1000
1000
,  // measure 15
0002
0203
0302
0000
,  // measure 16
0103
0100
0010
0010
,  // measure 17
2000
3002
2003
0000
,  // measure 18
3001
0010
0100
1000
,  // measure 19
0020
2030
3020
0000
,  // measure 20
0130
0001
1000
0001
,  // measure 21
2002
0000
0000
3000
,  // measure 22
0200
0000
0000
0003
,  // measure 23
0020
0000
0000
0300
,  // measure 24
2000
0000
0000
3030
,  // measure 25
1000
0100
0001
0010
,  // measure 26
1000
0100
0001
0000
,  // measure 27
0001
0100
1000
0010
,  // measure 28
0001
0100
1000
0000
,  // measure 29
0001
0100
0010
0001
,  // measure 30
0100
1000
0010
0000
,  // measure 31
1000
0100
0010
1000
,  // measure 32
0100
0001
0010
0000
,  // measure 33
0200
0320
2030
0000
,  // measure 34
3001
1000
1001
0000
,  // measure 35
0002
0023
0230
0000
,  // measure 36
1300
0100
1100
0000
,  // measure 37
2000
3002
2003
0000
,  // measure 38
3010
0100
0110
0000
,  // measure 39
0200
0302
0203
0000
,  // measure 40
0301
0100
0101
0000
,  // measure 41
1001
1000
0001
1000
,  // measure 42
0010
0010
0010
0000
,  // measure 43
0110
0010
0100
0010
,  // measure 44
1000
1000
1000
0000
,  // measure 45
1000
0100
0010
0001
,  // measure 46
1000
0001
1000
0000
,  // measure 47
0001
0100
0010
1000
,  // measure 48
0001
1000
0001
0000
,  // measure 49
1001
0000
0000
0000
;

//---------------dance-single - Chewi----------------
#NOTES:
     dance-single:
     Chewi:
     Beginner:
     2:
     0.070,0.120,0.040,0.040,0.000: // measure 1
0000
0000
0000
0000
,  // measure 2
0000
0000
0000
0000
,  // measure 3
0000
0000
0000
0000
,  // measure 4
0000
0000
0000
0000
,  // measure 5
2000
0000
0000
0000
,  // measure 6
3000
0000
0000
0000
,  // measure 7
0002
0000
0000
0000
,  // measure 8
0003
0000
0000
0000
,  // measure 9
0020
0000
0000
0000
,  // measure 10
0030
0000
0000
0000
,  // measure 11
0200
0000
0000
0000
,  // measure 12
0300
0000
0000
0000
,  // measure 13
1000
0000
0000
0000
,  // measure 14
0001
0000
0000
0000
,  // measure 15
0001
0000
0000
0000
,  // measure 16
0100
0000
0000
0000
,  // measure 17
1000
0000
0000
0000
,  // measure 18
0001
0000
0000
0000
,  // measure 19
0010
0000
0000
0000
,  // measure 20
0100
0000
0000
0000
,  // measure 21
1001
0000
0000
0000
,  // measure 22
0100
0000
0000
0000
,  // measure 23
0010
0000
0000
0000
,  // measure 24
1000
0000
0000
0000
,  // measure 25
1000
0000
0000
0000
,  // measure 26
1000
0000
0000
0000
,  // measure 27
0001
0000
0000
0000
,  // measure 28
0001
0000
0000
0000
,  // measure 29
0001
0000
0000
0000
,  // measure 30
0100
0000
0000
0000
,  // measure 31
1000
0000
0000
0000
,  // measure 32
0100
0000
0000
0000
,  // measure 33
0100
0000
0000
0000
,  // measure 34
0001
0000
0000
0000
,  // measure 35
0001
0000
0000
0000
,  // measure 36
1000
0000
0000
0000
,  // measure 37
1000
0000
0000
0000
,  // measure 38
0010
0000
0000
0000
,  // measure 39
0100
0000
0000
0000
,  // measure 40
0001
0000
0000
0000
,  // measure 41
1001
0000
0000
0000
,  // measure 42
0010
0000
0000
0000
,  // measure 43
0110
0000
0000
0000
,  // measure 44
1000
0000
0000
0000
,  // measure 45
1000
0000
0000
0000
,  // measure 46
1000
0000
0000
0000
,  // measure 47
0001
0000
0000
0000
,  // measure 48
0001
0000
0000
0000
,  // measure 49
1001
0000
0000
0000
;

//---------------dance-single - TaroNuke----------------
#NOTES:
     dance-single:
     TaroNuke:
     Challenge:
     11:
     0.526,0.623,0.160,0.199,0.085: // measure 1
0000
0000
0000
0000
,  // measure 2
0000
0000
0000
0000
,  // measure 3
0000
0000
0000
0000
,  // measure 4
0000
0000
0000
0000
,  // measure 5
1100
0000
0011
0000
2100
3001
0100
0010
,  // measure 6
0100
0001
1000
0010
2000
3001
0100
0000
,  // measure 7
0101
0000
1010
0000
0102
1003
0010
0100
,  // measure 8
0010
1000
0001
0100
0002
1003
0010
0000
,  // measure 9
1001
0000
0110
0000
2001
3010
0100
0010
,  // measure 10
1000
0100
0010
0001
2000
3001
0100
0000
,  // measure 11
0110
0000
1001
0000
0200
0301
0010
0001
,  // measure 12
1000
0010
0100
0001
2000
3001
0010
0000
,  // measure 13
0001
0100
1000
0100
0010
1000
0001
0010
,  // measure 14
0100
0001
0100
0010
1000
0010
0100
0001
,  // measure 15
0100
1000
0001
0010
0100
1000
0100
0010
,  // measure 16
0001
0100
0010
0100
0001
1000
0100
0010
,  // measure 17
0001
0010
1000
0010
0100
1000
0001
0100
,  // measure 18
0010
0001
0010
0100
1000
0100
0010
0001
,  // measure 19
0010
1000
0001
0100
0010
1000
0010
0100
,  // measure 20
0001
0010
0100
0010
0001
0100
0010
1000
,  // measure 21
0020
0000
0032
0000
,  // measure 22
0203
0000
2300
0000
,  // measure 23
3010
1000
0000
0001
0100
0000
0010
1000
0000
0001
1000
0010
0000
0010
1000
0001
,  // measure 24
0010
0001
0000
1000
0100
0000
0010
0001
0000
0001
0010
0000
0100
1000
0010
0100
,  // measure 25
0001
0100
0101
0000
2000
3100
0010
0001
,  // measure 26
0100
0010
1000
0100
0020
0031
0100
0001
,  // measure 27
1000
0010
1010
0000
0002
0013
0100
1000
,  // measure 28
0010
0100
0001
0010
0200
1300
0010
0000
,  // measure 29
1000
0001
1001
0000
0002
1003
0010
0100
,  // measure 30
0001
0010
0100
1000
0002
0103
0010
0000
,  // measure 31
0100
0010
0110
0000
2000
3100
0010
0001
,  // measure 32
0100
0000
0010
0000
1000
0000
0010
0000
1000
0000
0001
0100
0000
0100
0001
0000
,  // measure 33
1000
0100
1000
0100
0001
0100
0001
0100
,  // measure 34
1000
0010
1000
0010
0001
0010
0001
0010
,  // measure 35
1000
0100
0010
0100
0010
0001
1000
0001
,  // measure 36
0100
0001
1000
0001
0010
0100
1000
0010
,  // measure 37
1000
0100
0001
0100
1000
0010
1000
0010
,  // measure 38
0001
0010
1000
0100
1000
0100
0001
0100
,  // measure 39
1000
0010
1000
0010
0001
0010
1000
0100
,  // measure 40
1000
0100
0001
0100
1000
0010
0100
0001
,  // measure 41
1000
0010
0100
0001
0100
1000
0100
0001
,  // measure 42
1000
0100
0010
0001
1000
0100
0001
0100
,  // measure 43
1000
0010
0100
0001
1000
0010
0001
0010
,  // measure 44
1000
0100
0010
0001
1000
0001
0010
0100
,  // measure 45
1000
0100
0001
1000
0001
0100
1000
0010
,  // measure 46
0001
1000
0001
0010
1000
0100
0001
1000
,  // measure 47
0001
0100
1000
0010
0001
1000
0001
0010
,  // measure 48
1000
0000
0000
0100
0000
0000
0001
0000
0000
0100
0000
0000
1000
0000
0000
0010
0000
0000
1000
0000
0100
0000
0010
0000
,  // measure 49
0012
0000
0000
0000
,  // measure 50
0000
0000
0000
0000
,  // measure 51
0003
0000
0000
0000
;
