#TITLE:SWEET ANGEL;
#SUBTITLE:;
#ARTIST:古川もとあき;
#TITLETRANSLIT:;
#SUBTITLETRANSLIT:;
#ARTISTTRANSLIT:Furukawa Motoaki;
#GENRE:;
#CREDIT:Chewi☆;
#MENUCOLOR:;
#METERTYPE:DDR X;
#BANNER:SWEET ANGEL.png;
#BACKGROUND:SWEET ANGEL-bg.png;
#LYRICSPATH:;
#CDTITLE:;
#MUSIC:SWEET ANGEL.mp3;
#OFFSET:-0.525;
#SAMPLESTART:32.525;
#SAMPLELENGTH:15.000;
#SELECTABLE:YES;
#LISTSORT:;
#DISPLAYBPM:150.000;
#BPMS:0.000=150.000;
#STOPS:;
#BGCHANGES:;
#ATTACKS:;

//---------------dance-single - Chewi----------------
#NOTES:
     dance-single:
     Chewi:
     Beginner:
     1:
     0.090,0.140,0.000,0.020,0.000: // measure 1
0000
0000
0000
0000
,  // measure 2
0000
0000
0000
0000
,  // measure 3
0000
0000
0000
0000
,  // measure 4
0000
0000
0000
0000
,  // measure 5
2000
0000
0000
3000
,  // measure 6
1000
0000
0000
0000
,  // measure 7
0002
0000
0000
0003
,  // measure 8
0001
0000
0000
0000
,  // measure 9
0010
0000
0000
0000
,  // measure 10
0100
0000
0000
0000
,  // measure 11
0010
0000
0000
0000
,  // measure 12
0100
0000
0000
0000
,  // measure 13
0010
0000
0000
0000
,  // measure 14
1000
0000
0000
0000
,  // measure 15
0100
0000
0000
0000
,  // measure 16
0001
0000
0000
0000
,  // measure 17
0010
0000
0000
0000
,  // measure 18
0001
0000
0000
0000
,  // measure 19
0100
0000
0000
0000
,  // measure 20
1000
0000
0000
0000
,  // measure 21
0010
0000
0000
0000
,  // measure 22
0100
0000
0000
0000
,  // measure 23
0001
0000
0000
0000
,  // measure 24
0010
0000
0000
0000
,  // measure 25
1000
0000
0000
0000
,  // measure 26
1000
0000
0000
0000
,  // measure 27
0010
0000
0000
0000
,  // measure 28
0001
0000
0000
0000
,  // measure 29
0010
0000
0000
0000
,  // measure 30
0100
0000
0000
0000
,  // measure 31
1000
0000
0000
0000
,  // measure 32
0100
0000
0000
0000
,  // measure 33
0001
0000
0000
0000
,  // measure 34
0100
0000
0000
0000
,  // measure 35
0010
0000
0000
0000
,  // measure 36
1000
0000
0000
0000
,  // measure 37
0001
0000
0010
0000
,  // measure 38
0100
0000
1000
0000
,  // measure 39
0001
0000
0010
0000
,  // measure 40
0100
0000
1000
0000
,  // measure 41
0001
0000
1000
0000
,  // measure 42
0010
0000
0100
0000
,  // measure 43
0001
0000
1000
0000
,  // measure 44
0010
0000
0100
0000
,  // measure 45
0001
0000
0000
0000
,  // measure 46
1000
0000
0000
0000
,  // measure 47
0001
0000
0000
0000
,  // measure 48
1000
0000
0000
0000
,  // measure 49
0100
0000
0000
0000
,  // measure 50
0010
0000
0000
0000
,  // measure 51
0100
0000
0000
0000
,  // measure 52
0010
0000
0000
0000
,  // measure 53
0001
0000
0000
0000
,  // measure 54
0001
0000
0000
0000
,  // measure 55
1000
0000
0000
0000
,  // measure 56
1000
0000
0000
0000
;

//---------------dance-single - Chewi----------------
#NOTES:
     dance-single:
     Chewi:
     Easy:
     4:
     0.207,0.266,0.000,0.225,0.000: // measure 1
0000
0000
0000
0000
,  // measure 2
0000
0000
0000
0000
,  // measure 3
0000
0000
0000
0000
,  // measure 4
0000
0000
0000
0000
,  // measure 5
2000
0000
0000
3000
,  // measure 6
1000
1000
0000
0001
,  // measure 7
0002
0000
0000
0003
,  // measure 8
0001
0001
0000
1000
,  // measure 9
0010
0100
0010
0000
,  // measure 10
0100
0010
0100
0000
,  // measure 11
0010
0100
0010
0000
,  // measure 12
0100
0010
0100
0000
,  // measure 13
0020
0000
0000
0030
,  // measure 14
2000
0000
0000
3000
,  // measure 15
0200
0000
0000
0300
,  // measure 16
0002
0000
0000
0003
,  // measure 17
0020
0000
0000
0030
,  // measure 18
0002
0000
0000
0003
,  // measure 19
0200
0000
0000
0300
,  // measure 20
2000
0000
0000
3000
,  // measure 21
0010
0100
0010
0000
,  // measure 22
0100
0001
0010
0000
,  // measure 23
0001
0010
0001
0000
,  // measure 24
0010
0100
1000
0000
,  // measure 25
1000
0100
1000
0000
,  // measure 26
1000
0010
0100
0000
,  // measure 27
0010
0100
0001
0000
,  // measure 28
0001
0100
0001
0000
,  // measure 29
0010
0010
0010
0000
,  // measure 30
0100
1000
0010
0000
,  // measure 31
1000
1000
1000
0000
,  // measure 32
0100
0010
0001
0000
,  // measure 33
0001
0001
0001
0000
,  // measure 34
0100
0010
1000
0000
,  // measure 35
0010
0010
0010
0000
,  // measure 36
1000
0001
1000
0000
,  // measure 37
0001
0001
0010
0010
,  // measure 38
0100
0100
1000
1000
,  // measure 39
0001
0001
0010
0010
,  // measure 40
0100
0100
1000
1000
,  // measure 41
0001
0001
1000
1000
,  // measure 42
0010
0010
0100
0100
,  // measure 43
0001
0001
1000
1000
,  // measure 44
0010
0010
0100
0100
,  // measure 45
0002
0000
0000
0003
,  // measure 46
2000
0000
0000
3000
,  // measure 47
0002
0000
0000
0003
,  // measure 48
2000
0000
0000
3000
,  // measure 49
0200
0000
0000
0300
,  // measure 50
0020
0000
0000
0030
,  // measure 51
0200
0000
0000
0300
,  // measure 52
0020
0000
0000
0030
,  // measure 53
0002
0000
0000
0003
,  // measure 54
0002
0000
0000
0003
,  // measure 55
2000
0000
0000
3000
,  // measure 56
2000
0000
0000
0000
,  // measure 57
0000
0000
0000
0000
,  // measure 58
0000
0000
0000
0000
0000
0000
0000
3000
;

//---------------dance-single - Chewi----------------
#NOTES:
     dance-single:
     Chewi:
     Medium:
     7:
     0.325,0.384,0.194,0.010,0.000: // measure 1
0000
0000
0000
0000
,  // measure 2
0000
0000
0000
0000
,  // measure 3
0000
0000
0000
0000
,  // measure 4
0000
0000
0000
0000
,  // measure 5
1000
0000
0000
0000
0000
0001
0000
1000
,  // measure 6
0001
0000
0100
0000
0000
0010
0000
0000
,  // measure 7
1000
0000
0000
1000
0000
0000
0100
0000
,  // measure 8
0010
0000
0000
0001
0000
0000
0000
0000
,  // measure 9
1000
0000
0000
0001
0000
0000
1000
0000
,  // measure 10
0100
0000
0000
0010
0000
0000
0001
0000
,  // measure 11
1000
0000
0000
0010
0000
0000
0100
0000
,  // measure 12
0001
0000
1001
0000
,  // measure 13
1000
0000
1000
0000
0001
1000
0001
0000
,  // measure 14
0001
0000
0001
0000
1000
0001
1000
0000
,  // measure 15
0010
0100
0001
1000
,  // measure 16
0100
0010
0001
0010
,  // measure 17
0100
1000
1010
0101
,  // measure 18
0001
0100
1010
0101
,  // measure 19
1000
0100
0010
0001
,  // measure 20
1000
0100
1000
0000
0001
0010
0001
0000
,  // measure 21
0010
0000
0010
0000
0100
0010
0100
0000
,  // measure 22
0010
0001
0100
1000
,  // measure 23
0010
0000
0010
0000
0100
0010
0100
0000
,  // measure 24
0010
1000
0100
0001
,  // measure 25
0010
0000
1000
0000
0100
0010
0001
0000
,  // measure 26
0100
0000
0010
0000
1000
0100
0010
0000
,  // measure 27
0100
0000
1000
0000
0001
1000
0010
0000
,  // measure 28
0100
0000
0001
0000
0100
0010
1000
0000
,  // measure 29
0001
0000
1100
0000
1000
0100
0010
0000
,  // measure 30
1000
1100
0001
0101
,  // measure 31
1000
0000
1010
0000
0010
0100
0001
0000
,  // measure 32
1000
1100
0001
0011
,  // measure 33
0010
0000
0100
0000
1000
0001
1000
0000
,  // measure 34
0001
0000
0100
0000
0010
0100
0001
0000
,  // measure 35
0100
0010
1000
0001
,  // measure 36
1000
0100
0010
0000
0001
0010
0100
0000
,  // measure 37
1000
0000
1000
0100
0000
0100
1000
0000
,  // measure 38
0001
1100
1000
0101
,  // measure 39
0100
0000
0001
0100
0000
0100
0001
0000
,  // measure 40
0010
0011
0100
1100
,  // measure 41
1000
0000
0100
1000
0000
1000
0100
0000
,  // measure 42
1000
1001
0001
1001
,  // measure 43
1000
0000
0010
1000
0000
1000
0010
0000
,  // measure 44
0100
0101
0001
0101
,  // measure 45
0100
0000
0000
0100
0000
0000
0100
0000
,  // measure 46
0010
0000
0000
0010
0000
0000
0010
0000
,  // measure 47
1000
0000
0000
1000
0000
0000
1000
0000
,  // measure 48
0001
0000
0000
0001
0000
0000
0001
0000
,  // measure 49
0010
0000
0000
0010
0000
0000
0010
0000
,  // measure 50
0100
0000
0000
0100
0000
0000
0100
0000
,  // measure 51
1000
0000
0000
1000
0000
0000
1000
0000
,  // measure 52
0001
0000
0000
0001
0000
0000
0001
0000
,  // measure 53
1000
0000
0000
0100
0000
0000
1000
0000
,  // measure 54
0010
0000
0000
0100
0000
0000
0001
0000
,  // measure 55
1000
0000
0000
0001
0000
0000
0000
0000
,  // measure 56
0200
0000
0000
0000
,  // measure 57
0000
0000
0000
0000
,  // measure 58
0000
0000
0000
0000
0000
0000
0000
0300
;

//---------------dance-single - Chewi----------------
#NOTES:
     dance-single:
     Chewi:
     Hard:
     10:
     0.343,0.414,0.082,0.133,0.000: // measure 1
0000
0000
0000
0000
,  // measure 2
0000
0000
0000
0000
,  // measure 3
0000
0000
0000
0000
,  // measure 4
0000
0000
0000
0000
,  // measure 5
1000
0000
0000
0000
0000
0100
0010
0001
,  // measure 6
0100
0000
0010
0000
0000
1000
0000
0000
,  // measure 7
0001
0000
0000
0010
0000
0000
0100
0000
,  // measure 8
1000
0000
0000
0010
0000
0000
0000
0000
,  // measure 9
0100
0000
0000
0010
0000
0000
1000
0000
,  // measure 10
0100
0000
0000
0010
0000
0000
0001
0000
,  // measure 11
1000
0000
0000
0010
0000
0000
0100
0000
,  // measure 12
0001
0000
1001
0000
,  // measure 13
1000
0100
0010
0000
0100
0000
0010
0000
,  // measure 14
0001
1000
0010
0000
0100
0000
0001
0000
,  // measure 15
0010
1000
0100
0000
0001
0000
0010
0000
,  // measure 16
1000
0100
0001
0000
0010
0000
1000
0000
,  // measure 17
0010
0000
0100
0000
0001
0100
0010
0000
,  // measure 18
1000
0000
0100
0000
0010
0001
0100
0000
,  // measure 19
1000
0010
1000
0000
0001
1000
0100
0000
,  // measure 20
0010
0001
0010
0000
0001
1000
0010
0000
,  // measure 21
1000
0001
1000
0001
0000
1000
0001
1000
,  // measure 22
0001
0000
0000
1000
0000
0010
0100
0000
,  // measure 23
0001
0100
0001
0100
0000
0100
0001
0100
,  // measure 24
0001
1000
0001
1001
,  // measure 25
1000
0100
1000
0100
0000
0100
1000
0100
,  // measure 26
1000
0000
0000
0010
0000
0100
0000
0000
,  // measure 27
0001
0010
1100
1100
,  // measure 28
0002
0003
2000
3000
,  // measure 29
0010
0000
0000
1000
0000
0100
0010
0000
,  // measure 30
0001
0000
0000
1000
0000
0000
0010
0000
,  // measure 31
1000
0100
0010
0001
0000
0001
0010
0100
,  // measure 32
1000
0001
1100
0101
,  // measure 33
1000
0001
1000
0100
0000
0010
0001
0010
,  // measure 34
0100
0000
0010
0001
0000
1000
0000
0000
,  // measure 35
1000
0010
0101
0101
,  // measure 36
2000
3000
0002
0003
,  // measure 37
0001
0010
0100
0000
0010
0000
0100
0000
,  // measure 38
1000
0001
0100
0000
0010
0000
1000
0000
,  // measure 39
0100
0001
0010
0000
1000
0000
0100
0000
,  // measure 40
0001
0010
1000
0000
0100
0000
0010
0000
,  // measure 41
0001
0000
0100
0000
0010
1000
0100
0000
,  // measure 42
0010
0000
0001
0000
0010
0100
1000
0000
,  // measure 43
0001
0100
0001
0000
1000
0001
0010
0000
,  // measure 44
0100
1000
0100
0000
1000
0001
0100
0000
,  // measure 45
0020
0000
0000
1000
0000
0000
1030
0000
,  // measure 46
2000
0000
0000
0100
0000
0000
3100
0000
,  // measure 47
0200
0000
0000
0001
0000
0000
0301
0000
,  // measure 48
0002
0000
0000
0010
0000
0000
0013
0000
,  // measure 49
0020
0000
0000
0001
0000
0000
0031
0000
,  // measure 50
0002
0000
0000
0100
0000
0000
0103
0000
,  // measure 51
0200
0000
0000
1000
0000
0000
1300
0000
,  // measure 52
2000
0000
0000
0010
0000
0000
3010
0000
,  // measure 53
0010
0000
0000
0100
0000
0000
0010
0000
,  // measure 54
1000
0000
0000
0001
0000
0000
1000
0000
,  // measure 55
1000
0000
0000
0100
0000
0000
0010
0000
,  // measure 56
0002
0000
0000
0000
,  // measure 57
0000
0000
0000
0000
,  // measure 58
0000
0000
0000
0000
0000
0000
0000
0003
;
