#TITLE:隅田川夏恋歌;
#SUBTITLE:;
#ARTIST:seiya-murai feat. ALT;
#TITLETRANSLIT:SUMIDAGAWA KARENKA;
#SUBTITLETRANSLIT:;
#ARTISTTRANSLIT:;
#GENRE:;
#CREDIT:TaroNuke & Chewi☆;
#BANNER:SUMIDAGAWA KARENKA.png;
#BACKGROUND:SUMIDAGAWA KARENKA-bg.png;
#LYRICSPATH:;
#CDTITLE:;
#MUSIC:SUMIDAGAWA KARENKA.ogg;
#OFFSET:-0.372;
#SAMPLESTART:45.369;
#SAMPLELENGTH:15.000;
#SELECTABLE:YES;
#DISPLAYBPM:180.000;
#BPMS:0.000=180.000,43.500=360.000,45.500=180.000,80.500=360.000,82.500=180.000,84.000=360.000,92.000=180.000,97.500=360.000,105.500=180.000,111.000=360.000,119.000=180.000,124.500=360.000,132.500=180.000,170.000=360.000,178.000=180.000,183.500=360.000,191.500=180.000,197.000=360.000,205.000=180.000,210.500=360.000,218.500=180.000,224.000=180.000,245.000=360.000,247.000=90.000,251.000=45.000;
#STOPS:8.000=0.333
,9.000=0.333
,11.500=0.167
,13.500=0.333
,14.500=0.333
,17.500=0.167
,19.000=0.333
,20.000=0.333
,22.500=0.168
,24.500=0.333
,25.500=0.333
,28.500=0.167
,30.000=1.333
,34.000=0.333
,35.000=1.167
,37.500=1.333
,41.500=0.167
,42.000=0.167
,42.500=0.167
,43.000=0.167
,43.500=0.083
,44.000=0.083
,44.500=0.083
,45.000=0.083
,45.500=0.500
,46.000=0.333
,47.000=0.333
,49.500=0.167
,51.500=0.333
,52.500=0.333
,53.500=0.333
,54.500=0.167
,56.000=0.333
,57.000=0.333
,59.500=0.168
,61.500=0.333
,62.500=0.333
,65.500=0.167
,67.000=1.333
,71.000=0.333
,72.000=1.167
,74.500=1.333
,78.500=0.167
,79.000=0.167
,79.500=0.167
,80.000=0.167
,80.500=0.083
,81.000=0.083
,81.500=0.084
,82.000=0.083
,82.500=0.167
,84.000=0.084
,84.500=0.083
,85.000=0.083
,85.500=0.084
,86.000=0.083
,86.500=0.083
,87.000=0.084
,87.500=0.083
,88.000=0.083
,88.500=0.084
,89.000=0.083
,89.500=0.083
,90.000=0.084
,90.500=0.083
,91.000=0.083
,91.500=0.084
,92.000=0.167
,93.500=0.167
,95.000=0.333
,96.000=0.167
,97.500=0.083
,98.000=0.083
,98.500=0.084
,99.000=0.083
,99.500=0.083
,100.000=0.084
,100.500=0.083
,101.000=0.083
,101.500=0.084
,102.000=0.083
,102.500=0.083
,103.000=0.084
,103.500=0.083
,104.000=0.041
,104.250=0.042
,104.500=0.084
,105.000=0.083
,105.500=0.167
,107.000=0.167
,108.500=0.333
,109.500=0.167
,111.000=0.083
,111.500=0.083
,112.000=0.084
,112.500=0.083
,113.000=0.083
,113.500=0.084
,114.000=0.083
,114.500=0.083
,115.000=0.084
,115.500=0.083
,116.000=0.083
,116.500=0.084
,117.000=0.083
,117.500=0.083
,118.000=0.084
,118.500=0.083
,119.000=0.167
,120.500=0.167
,122.000=0.333
,123.000=0.167
,124.500=0.083
,125.000=0.083
,125.500=0.084
,126.000=0.083
,126.500=0.083
,127.000=0.084
,127.500=0.083
,128.000=0.083
,128.500=0.084
,129.000=0.083
,129.500=0.083
,130.000=0.084
,130.500=0.083
,131.000=0.041
,131.250=0.042
,131.500=0.084
,132.000=0.083
,132.500=0.167
,134.000=0.167
,135.500=0.333
,168.500=0.167
,170.000=0.083
,170.500=0.083
,171.000=0.084
,171.500=0.083
,172.000=0.083
,172.500=0.084
,173.000=0.083
,173.500=0.083
,174.000=0.084
,174.500=0.083
,175.000=0.083
,175.500=0.084
,176.000=0.083
,176.500=0.083
,177.000=0.084
,177.500=0.083
,178.000=0.167
,179.500=0.167
,181.000=0.333
,182.000=0.167
,183.500=0.083
,184.000=0.083
,184.500=0.084
,185.000=0.083
,185.500=0.083
,186.000=0.084
,186.500=0.083
,187.000=0.083
,187.500=0.084
,188.000=0.083
,188.500=0.083
,189.000=0.084
,189.500=0.083
,190.000=0.041
,190.250=0.042
,190.500=0.084
,191.000=0.083
,191.500=0.167
,193.000=0.167
,194.500=0.333
,195.500=0.167
,197.000=0.083
,197.500=0.083
,198.000=0.084
,198.500=0.083
,199.000=0.083
,199.500=0.084
,200.000=0.083
,200.500=0.083
,201.000=0.084
,201.500=0.083
,202.000=0.083
,202.500=0.084
,203.000=0.083
,203.500=0.083
,204.000=0.084
,204.500=0.083
,205.000=0.167
,206.500=0.167
,208.000=0.333
,209.000=0.167
,210.500=0.083
,211.000=0.083
,211.500=0.084
,212.000=0.083
,212.500=0.083
,213.000=0.084
,213.500=0.083
,214.000=0.083
,214.500=0.084
,215.000=0.083
,215.500=0.083
,216.000=0.084
,216.500=0.083
,217.000=0.041
,217.250=0.042
,217.500=0.084
,218.000=0.083
,218.500=0.167
,220.000=0.167
,221.500=0.333
,222.500=0.167
,224.000=0.167
,225.500=0.167
,227.000=0.333
;
#BGCHANGES:;
#KEYSOUNDS:;

//---------------dance-single - TaroNuke----------------
#NOTES:
     dance-single:
     TaroNuke:
     Hard:
     16:
     0.728,0.658,0.219,0.174,0.151:
M000
0000
0000
0M00
0000
0000
00M0
0000
,
000M
0000
0000
00M0
0000
0000
M000
000M
,
1000
0000
0100
0010
0001
0000
0100
0010
1000
0000
0001
0000
0100
0000
0002
0000
,
0013
0000
0100
0000
1000
0000
0010
0000
0100
0001
1000
0000
0001
1000
0010
0000
,
0100
0000
0001
0000
0100
0000
0010
0000
1000
0000
0100
0000
0010
0000
0100
1000
,
0001
0000
1000
0001
0100
0000
0010
0000
0001
0000
0020
0000
1030
0000
0100
0000
,
0010
0000
0001
0000
0010
0100
1000
0000
0010
0100
0001
0000
1000
0000
0010
0000
,
0100
0010
1000
0100
2000
3001
1000
0100
,
0001
0000
0100
0000
1000
0000
0010
0000
0200
0000
0310
1000
0002
0000
1003
0000
,
0100
0010
0001
0200
0301
1000
0010
0001
,
0010
1000
0100
1100
0101
1010
1001
1000
,
0010
0000
0100
0000
0001
0000
1000
0000
0001
0000
1000
0100
0001
0000
0100
0010
,
0001
1000
0010
2000
3100
0010
0001
0100
,
0010
0001
0010
0000
1000
0001
0100
0000
1000
0100
0002
0000
0023
0000
0030
0000
,
0100
0000
0010
0001
1000
0000
0001
1000
0010
0000
0100
0000
1000
0000
0200
0000
,
0301
0000
0010
0000
0100
0000
0001
0000
0100
1000
0010
0000
0100
0010
1000
0000
,
0001
0100
0010
0100
0001
0010
0002
1003
,
0001
0000
0010
0000
1000
0000
0010
0000
0001
0000
0100
0000
0020
0000
0130
0001
,
2000
3001
0010
0100
1000
0020
1030
0001
,
0100
1000
0100
0001
0010
1100
1010
0101
,
0011
0001
0100
0010
1000
0001
1000
0100
,
0010
0100
0010
0001
0001
0100
0100
0010
,
0010
1000
1000
0100
0100
0010
0001
1000
,
0010
0000
0010
0000
0100
0000
0010
0000
1000
0000
0001
0000
0100
0000
0010
1000
,
0001
1000
0100
0010
0100
0010
0001
0001
,
1000
1000
0100
0100
0001
0001
0100
0100
,
1000
0001
1000
0000
0100
0000
0011
0000
1000
0000
0100
0000
0011
0000
1000
0000
,
0100
0000
0022
0000
1033
0100
1000
0000
0100
0000
0010
0000
0001
0000
1000
0000
,
0001
0010
0010
0100
0100
1000
1000
0010
,
0010
0100
0100
0001
0001
1000
0010
0100
,
1000
0000
0100
0000
0010
0000
1000
0000
0100
0000
0010
0001
1000
0000
0100
0000
,
0010
0001
1000
0010
0100
0100
1000
1000
,
0100
0000
0100
0000
0001
0000
0001
0000
0010
0000
0010
0000
0100
1000
0010
0000
,
0100
1010
0001
0100
1010
0001
0100
1010
,
0001
0100
0001
0000
1000
0000
0010
0000
1000
0000
0010
0000
0100
0000
0010
0000
,
1000
0010
0100
0010
1000
0001
0100
0001
,
1000
0001
0100
0001
1000
0010
0100
0001
,
0100
0010
0100
0001
0100
0010
1000
0100
,
0010
0001
1000
0010
1000
0100
0010
1000
,
0010
0100
0010
1000
0010
0001
0100
1000
,
0100
0001
0100
1000
0100
0010
0100
0010
,
0100
0001
1000
0001
1000
0100
0100
0010
,
0010
0001
1000
0100
0010
1000
0010
0001
,
0001
0010
0010
1000
1000
0010
0010
0100
,
0100
1000
0001
0100
0010
0010
0100
0010
,
0001
0000
0010
0000
1000
0000
0001
0010
0100
0000
1000
0000
0100
0000
0010
0000
,
1000
0010
0001
0001
0010
0010
0100
0100
,
0001
0000
0001
0000
0100
0000
0100
0000
1000
0001
1000
0000
0100
0000
0011
0000
,
1000
0000
0100
0000
0011
0000
1000
0000
0100
0000
0022
0000
1033
0100
1000
0000
,
0100
0010
0001
0100
0001
0010
0010
0100
,
0100
1000
1000
0010
0010
0001
0001
0010
,
0010
1000
0100
1000
0010
0100
0010
1000
,
0100
0000
0010
0001
0010
0000
1000
0000
0010
0000
0001
0000
0100
0000
0001
0000
,
1000
1000
0010
0010
0100
0100
1000
0100
,
0001
0000
0010
0000
0100
1000
0001
0000
0100
0000
1010
0000
0001
0000
0100
0000
,
1010
0000
0001
0000
0100
0000
1010
0000
0001
0100
0001
0000
1000
0000
0100
0000
,
0011
0000
1000
0000
0100
0000
0011
0000
1000
0000
0100
0000
0011
0000
1000
0100
,
1000
0000
0001
0100
0001
0000
1000
0000
0010
0000
0100
0000
0010
0000
1000
0000
,
0010
0100
0010
1000
0001
0010
1000
0010
,
0001
0010
1000
0010
0001
1000
0100
1000
,
0001
1000
0100
1000
0010
0100
0001
0100
,
0010
0000
2001
0000
0000
0000
3010
0100
,
0010
1000
0100
0001
0100
1000
0000
0000
;

//---------------dance-single - ROLLS----------------
#NOTES:
     dance-single:
     ROLLS:
     Edit:
     16:
     0.725,0.658,0.219,0.155,0.151:
M000
0000
0000
0M00
0000
0000
00M0
0000
,
000M
0000
0000
00M0
0000
0000
M000
000M
,
1000
0000
0100
0010
0001
0000
0100
0010
1000
0000
0001
0000
0100
0000
0002
0000
,
0013
0000
0100
0000
1000
0000
0010
0000
0100
0001
1000
0000
0001
1000
0010
0000
,
0100
0000
0001
0000
0100
0000
0010
0000
1000
0000
0100
0000
0010
0000
0100
1000
,
0001
0000
1000
0001
0100
0000
0010
0000
0001
0000
0020
0000
1030
0000
0100
0000
,
0010
0000
0001
0000
0010
0100
1000
0000
0010
0100
0001
0000
1000
0000
0010
0000
,
0100
0010
1000
0100
2000
3001
1000
0100
,
0001
0000
0100
0000
1000
0000
0010
0000
0200
0000
0310
1000
0002
0000
1003
0000
,
0100
0010
0001
0200
0301
1000
0010
0001
,
0010
1000
0100
1100
0101
1010
1001
1000
,
0010
0000
0100
0000
0001
0000
1000
0000
0001
0000
1000
0100
0001
0000
0100
0010
,
0001
1000
0010
2000
3100
0010
0001
0100
,
0010
0001
0010
0000
1000
0001
0100
0000
1000
0100
0002
0000
0023
0000
0030
0000
,
0100
0000
0010
0001
1000
0000
0001
1000
0010
0000
0100
0000
1000
0000
0200
0000
,
0301
0000
0010
0000
0100
0000
0001
0000
0100
1000
0010
0000
0100
0010
1000
0000
,
0001
0100
0010
0100
0001
0010
0004
1003
,
0001
0000
0010
0000
1000
0000
0010
0000
0001
0000
0100
0000
0020
0000
0130
0001
,
2000
3001
0010
0100
1000
0040
1030
0001
,
0100
1000
0100
0001
0010
1100
1010
0101
,
0011
0001
0100
0010
1000
0001
1000
0100
,
0010
0100
0010
0001
0001
0100
0100
0010
,
0010
1000
1000
0100
0100
0010
0001
1000
,
0010
0000
0010
0000
0100
0000
0010
0000
1000
0000
0001
0000
0100
0000
0010
1000
,
0001
1000
0100
0010
0100
0010
0001
0001
,
1000
1000
0100
0100
0001
0001
0100
0100
,
1000
0001
1000
0000
0100
0000
0011
0000
1000
0000
0100
0000
0011
0000
1000
0000
,
0100
0000
0022
0000
1033
0100
1000
0000
0100
0000
0010
0000
0001
0000
1000
0000
,
0001
0010
0010
0100
0100
1000
1000
0010
,
0010
0100
0100
0001
0001
1000
0010
0100
,
1000
0000
0100
0000
0010
0000
1000
0000
0100
0000
0010
0001
1000
0000
0100
0000
,
0010
0001
1000
0010
0100
0100
1000
1000
,
0100
0000
0100
0000
0001
0000
0001
0000
0010
0000
0010
0000
0100
1000
0010
0000
,
0100
1010
0001
0100
1010
0001
0100
1010
,
0001
0100
0001
0000
1000
0000
0010
0000
1000
0000
0010
0000
0100
0000
0010
0000
,
1000
0010
0100
0010
1000
0001
0100
0001
,
1000
0001
0100
0001
1000
0010
0100
0001
,
0100
0010
0100
0001
0100
0010
1000
0100
,
0010
0001
1000
0010
1000
0100
0010
1000
,
0010
0100
0010
1000
0010
0001
0100
1000
,
0100
0001
0100
1000
0100
0010
0100
0010
,
0100
0001
1000
0001
1000
0100
0100
0010
,
0010
0001
1000
0100
0010
1000
0010
0001
,
0001
0010
0010
1000
1000
0010
0010
0100
,
0100
1000
0001
0100
0010
0010
0100
0010
,
0001
0000
0010
0000
1000
0000
0001
0010
0100
0000
1000
0000
0100
0000
0010
0000
,
1000
0010
0001
0001
0010
0010
0100
0100
,
0001
0000
0001
0000
0100
0000
0100
0000
1000
0001
1000
0000
0100
0000
0011
0000
,
1000
0000
0100
0000
0011
0000
1000
0000
0100
0000
0022
0000
1033
0100
1000
0000
,
0100
0010
0001
0100
0001
0010
0010
0100
,
0100
1000
1000
0010
0010
0001
0001
0010
,
0010
1000
0100
1000
0010
0100
0010
1000
,
0100
0000
0010
0001
0010
0000
1000
0000
0010
0000
0001
0000
0100
0000
0001
0000
,
1000
1000
0010
0010
0100
0100
1000
0100
,
0001
0000
0010
0000
0100
1000
0001
0000
0100
0000
1010
0000
0001
0000
0100
0000
,
1010
0000
0001
0000
0100
0000
1010
0000
0001
0100
0001
0000
1000
0000
0100
0000
,
0011
0000
1000
0000
0100
0000
0011
0000
1000
0000
0100
0000
0011
0000
1000
0100
,
1000
0000
0001
0100
0001
0000
1000
0000
0010
0000
0100
0000
0010
0000
1000
0000
,
0010
0100
0010
1000
0001
0010
1000
0010
,
0001
0010
1000
0010
0001
1000
0100
1000
,
0001
1000
0100
1000
0010
0100
0001
0100
,
0010
0000
2001
0000
0000
0000
3010
0100
,
0010
1000
0100
0001
0100
1000
0000
0000
;

//---------------dance-single - TaroNuke----------------
#NOTES:
     dance-single:
     TaroNuke:
     Medium:
     11:
     0.426,0.458,0.046,0.174,0.114:
0000
0000
0000
0000
,
0000
0000
0000
0000
,
0000
0000
0000
0000
0000
0000
0000
0000
0000
0000
0000
0000
0000
0000
0000
0000
0000
0000
0000
0000
0000
0000
0000
0000
0001
0000
0000
0000
0000
0000
0000
0000
0000
0000
0000
0000
0000
0000
0000
0000
0000
0000
0000
0000
0000
0000
0000
0010
0000
0000
0000
0000
0000
0000
0000
0000
0000
0000
0000
0000
0000
0000
0000
0000
0000
0000
0000
0000
0000
0000
0000
0000
0001
0000
0000
0000
0000
0000
0000
0000
0000
0000
0000
0000
0000
0000
0000
0000
0000
0000
0000
0000
0000
0000
0000
0000
0100
0000
0000
0000
0000
0000
0000
0000
0000
0000
0000
0000
0000
0000
0000
0000
0000
0000
0000
0000
0000
0000
0000
0000
0000
0000
0000
0000
0000
0000
0000
0000
0000
0000
0000
0000
0000
0000
0000
0000
0000
0000
0000
0000
0000
0000
0000
0000
0000
0000
0000
0000
0000
0000
0000
0000
0000
0000
0000
0000
0000
0000
0000
0000
0000
0000
0000
0000
0000
0000
0000
0110
0000
0000
0000
0000
0000
0000
0000
0000
0000
0000
0000
0000
0000
0000
0000
0000
0000
0000
0000
0000
0000
0000
0000
0000
,
0000
0000
0000
0000
0000
0000
0000
0000
0000
0000
0000
0000
0000
0000
0000
0000
0000
0000
0000
0000
0000
0000
0000
0000
0000
0000
0000
0000
0000
0000
0000
0000
0000
0000
0000
0000
0000
0000
0000
0000
0000
0000
0000
0000
0000
0000
0000
0000
0000
0000
0000
0000
0000
0000
0000
0000
0000
0000
0000
0000
0000
0000
0000
0000
0000
0000
0000
0000
0000
0000
0000
0001
0000
0000
0000
0000
0000
0000
0000
0000
0000
0000
0000
0000
0000
0000
0000
0000
0000
0000
0000
0000
0000
0000
0000
0000
1000
0000
0000
0000
0000
0000
0000
0000
0000
0000
0000
0000
0000
0000
0000
0000
0000
0000
0000
0000
0000
0000
0000
0100
0000
0000
0000
0000
0000
0000
0000
0000
0000
0000
0000
0000
0000
0000
0000
0000
0000
0000
0000
0000
0000
0000
0000
0000
1000
0000
0000
0000
0000
0000
0000
0000
0000
0000
0000
0000
0000
0000
0000
0000
0000
0000
0000
0000
0000
0000
0000
0000
0010
0000
0000
0000
0000
0000
0000
0000
0000
0000
0000
0000
0000
0000
0000
0000
0000
0000
0000
0000
0000
0000
0000
0000
,
0100
0000
0000
0000
0000
0000
0000
0000
0000
0000
0000
0000
0000
0000
0000
0000
0000
0000
0000
0000
0000
0000
0000
0000
0010
0000
0000
0000
0000
0000
0000
0000
0000
0000
0000
0000
0000
0000
0000
0000
0000
0000
0000
0000
0000
0000
0000
0000
1000
0000
0000
0000
0000
0000
0000
0000
0000
0000
0000
0000
0000
0000
0000
0000
0000
0000
0000
0000
0000
0000
0000
0001
0000
0000
0000
0000
0000
0000
0000
0000
0000
0000
0000
0000
0000
0000
0000
0000
0000
0000
0000
0000
0000
0000
0000
0000
0000
0000
0000
0000
0000
0000
0000
0000
0000
0000
0000
0000
0000
0000
0000
0000
0000
0000
0000
0000
0000
0000
0000
0000
0000
0000
0000
0000
0000
0000
0000
0000
0000
0000
0000
0000
0000
0000
0000
0000
0000
0000
0000
0000
0000
0000
0000
1000
0000
0000
0000
0000
0000
0000
0000
0000
0000
0000
0000
0000
0000
0000
0000
0000
0000
0000
0000
0000
0000
0000
0000
0000
0100
0000
0000
0000
0000
0000
0000
0000
0000
0000
0000
0000
0000
0000
0000
0000
0000
0000
0000
0000
0000
0000
0000
0001
,
0000
0000
0000
0000
0000
0000
0000
0000
0000
0000
0000
0000
0000
0000
0000
0000
0000
0000
0000
0000
0000
0000
0000
0000
0100
0000
0000
0000
0000
0000
0000
0000
0000
0000
0000
0000
0000
0000
0000
0000
0000
0000
0000
0000
0000
0000
0000
0000
1000
0000
0000
0000
0000
0000
0000
0000
0000
0000
0000
0000
0000
0000
0000
0000
0000
0000
0000
0000
0000
0000
0000
0000
0000
0000
0000
0000
0000
0000
0000
0000
0000
0000
0000
0000
0000
0000
0000
0000
0000
0000
0000
0000
0000
0000
0000
0000
0000
0000
0000
0000
0000
0000
0000
0000
0000
0000
0000
0000
0000
0000
0000
0000
0000
0000
0000
0000
0000
0000
0000
1001
0000
0000
0000
0000
0000
0000
0000
0000
0000
0000
0000
0000
0000
0000
0000
0000
0000
0000
0000
0000
0000
0000
0000
0000
0000
0000
0000
0000
0000
0000
0000
0000
0000
0000
0000
0000
0000
0000
0000
0000
0000
0000
0000
0000
0000
0000
0000
0000
0000
0000
0000
0000
0000
0000
0000
0000
0000
0000
0000
0000
0000
0000
0000
0000
0000
0000
0000
0000
0000
0000
0000
0000
,
0000
0000
0000
0000
0000
0000
0000
0000
0000
0000
0000
0000
0000
0000
0000
0000
0000
0000
0000
0000
0000
0000
0000
0001
0000
0000
0000
0000
0000
0000
0000
0000
0000
0000
0000
0000
0000
0000
0000
0000
0000
0000
0000
0000
0000
0000
0000
0000
0100
0000
0000
0000
0000
0000
0000
0000
0000
0000
0000
0000
0000
0000
0000
0000
0000
0000
0000
0000
0000
0000
0000
1000
0000
0000
0000
0000
0000
0000
0000
0000
0000
0000
0000
0000
0000
0000
0000
0000
0000
0000
0000
0000
0000
0000
0000
0000
0100
0000
0000
0000
0000
0000
0000
0000
0000
0000
0000
0000
0000
0000
0000
0000
0000
0000
0000
0000
0000
0000
0000
0000
0001
0000
0000
0000
0000
0000
0000
0000
0000
0000
0000
0000
0000
0000
0000
0000
0000
0000
0000
0000
0000
0000
0000
0000
1000
0000
0000
0000
0000
0000
0000
0000
0000
0000
0000
0000
0000
0000
0000
0000
0000
0000
0000
0000
0000
0000
0000
0000
0010
0000
0000
0000
0000
0000
0000
0000
0000
0000
0000
0000
0000
0000
0000
0000
0000
0000
0000
0000
0000
0000
0000
0000
,
1000
0000
0000
0000
0000
0000
0000
0000
0000
0000
0000
0000
0000
0000
0000
0000
0000
0000
0000
0000
0000
0000
0000
0100
0000
0000
0000
0000
0000
0000
0000
0000
0000
0000
0000
0000
0000
0000
0000
0000
0000
0000
0000
0000
0000
0000
0000
0000
0000
0000
0000
0000
0000
0000
0000
0000
0000
0000
0000
0000
0000
0000
0000
0000
0000
0000
0000
0000
0000
0000
0000
0000
0000
0000
0000
0000
0000
0000
0000
0000
0000
0000
0000
0000
0000
0000
0000
0000
0000
0000
0000
0000
0000
0000
0000
0020
0000
0000
0000
0000
0000
0000
0000
0000
0000
0000
0000
0000
0000
0000
0000
0000
0000
0000
0000
0000
0000
0000
0000
0000
0000
0000
0000
0000
0000
0000
0000
0000
0000
0000
0000
0000
0000
0000
0000
0000
0000
0000
0000
0000
0000
0000
0000
0000
0031
0000
0000
0000
0000
0000
0000
0000
0000
0000
0000
0000
0000
0000
0000
0000
0000
0000
0000
0000
0000
0000
0000
0000
0100
0000
0000
0000
0000
0000
0000
0000
0000
0000
0000
0000
0000
0000
0000
0000
0000
0000
0000
0000
0000
0000
0000
0000
,
0010
0000
0000
0000
0000
0000
0000
0000
0000
0000
0000
0000
0000
0000
0000
0000
0000
0000
0000
0000
0000
0000
0000
0000
0100
0000
0000
0000
0000
0000
0000
0000
0000
0000
0000
0000
0000
0000
0000
0000
0000
0000
0000
0000
0000
0000
0000
0000
0001
0000
0000
0000
0000
0000
0000
0000
0000
0000
0000
0000
0000
0000
0000
0000
0000
0000
0000
0000
0000
0000
0000
0000
0000
0000
0000
0000
0000
0000
0000
0000
0000
0000
0000
0000
0000
0000
0000
0000
0000
0000
0000
0000
0000
0000
0000
2000
0000
0000
0000
0000
0000
0000
0000
0000
0000
0000
0000
0000
0000
0000
0000
0000
0000
0000
0000
0000
0000
0000
0000
0000
0000
0000
0000
0000
0000
0000
0000
0000
0000
0000
0000
0000
0000
0000
0000
0000
0000
0000
0000
0000
0000
0000
0000
0002
3000
0000
0000
0000
0000
0000
0000
0000
0000
0000
0000
0000
0000
0000
0000
0000
0000
0000
0000
0000
0000
0000
0000
0000
0000
0000
0000
0000
0000
0000
0000
0000
0000
0000
0000
0000
0000
0000
0000
0000
0000
0000
0000
0000
0000
0000
0000
0000
,
0003
0000
0000
0000
0000
0000
0000
0000
0000
0000
0000
0000
0000
0000
0000
0000
0000
0000
0000
0000
0000
0000
0000
0000
0000
0000
0000
0000
0000
0000
0000
0000
0000
0000
0000
0000
0000
0000
0000
0000
0000
0000
0000
0000
0000
0000
0000
0000
1000
0000
0000
0000
0000
0000
0000
0000
0000
0000
0000
0000
0000
0000
0000
0000
0000
0000
0000
0000
0000
0000
0000
0200
0000
0000
0000
0000
0000
0000
0000
0000
0000
0000
0000
0000
0000
0000
0000
0000
0000
0000
0000
0000
0000
0000
0000
0000
0000
0000
0000
0000
0000
0000
0000
0000
0000
0000
0000
0000
0000
0000
0000
0000
0000
0000
0000
0000
0000
0000
0000
0000
0310
0000
0000
0000
0000
0000
0000
0000
0000
0000
0000
0000
0000
0000
0000
0000
0000
0000
0000
0000
0000
0000
0000
0000
0001
0000
0000
0000
0000
0000
0000
0000
0000
0000
0000
0000
0000
0000
0000
0000
0000
0000
0000
0000
0000
0000
0000
0000
1000
0000
0000
0000
0000
0000
0000
0000
0000
0000
0000
0000
0000
0000
0000
0000
0000
0000
0000
0000
0000
0000
0000
0000
,
0001
0000
0000
0000
0000
0000
0000
0000
0000
0000
0000
0000
0000
0000
0000
0000
0000
0000
0000
0000
0000
0000
0000
0000
0010
0000
0000
0000
0000
0000
0000
0000
0000
0000
0000
0000
0000
0000
0000
0000
0000
0000
0000
0000
0000
0000
0000
0000
0100
0000
0000
0000
0000
0000
0000
0000
0000
0000
0000
0000
0000
0000
0000
0000
0000
0000
0000
0000
0000
0000
0000
1000
0000
0000
0000
0000
0000
0000
0000
0000
0000
0000
0000
0000
0000
0000
0000
0000
0000
0000
0000
0000
0000
0000
0000
1000
0000
0000
0000
0000
0000
0000
0000
0000
0000
0000
0000
0000
0000
0000
0000
0000
0000
0000
0000
0000
0000
0000
0000
1000
0000
0000
0000
0000
0000
0000
0000
0000
0000
0000
0000
0000
0000
0000
0000
0000
0000
0000
0000
0000
0000
0000
0000
1000
0000
0000
0000
0000
0000
0000
0000
0000
0000
0000
0000
0000
0000
0000
0000
0000
0000
0000
0000
0000
0000
0000
0000
0001
0000
0000
0000
0000
0000
0000
0000
0000
0000
0000
0000
0000
0000
0000
0000
0000
0000
0000
0000
0000
0000
0000
0000
1000
,
0000
0000
0000
0000
0000
0000
0000
0000
0000
0000
0000
0000
0000
0000
0000
0000
0000
0000
0000
0000
0000
0000
0000
0001
0000
0000
0000
0000
0000
0000
0000
0000
0000
0000
0000
0000
0000
0000
0000
0000
0000
0000
0000
0000
0000
0000
0000
1000
0000
0000
0000
0000
0000
0000
0000
0000
0000
0000
0000
0000
0000
0000
0000
0000
0000
0000
0000
0000
0000
0000
0000
0001
0000
0000
0000
0000
0000
0000
0000
0000
0000
0000
0000
0000
0000
0000
0000
0000
0000
0000
0000
0000
0000
0000
0000
0000
1000
0000
0000
0000
0000
0000
0000
0000
0000
0000
0000
0000
0000
0000
0000
0000
0000
0000
0000
0000
0000
0000
0000
0000
0001
0000
0000
0000
0000
0000
0000
0000
0000
0000
0000
0000
0000
0000
0000
0000
0000
0000
0000
0000
0000
0000
0000
0000
0010
0000
0000
0000
0000
0000
0000
0000
0000
0000
0000
0000
0000
0000
0000
0000
0000
0000
0000
0000
0000
0000
0000
0000
0001
0000
0000
0000
0000
0000
0000
0000
0000
0000
0000
0000
0000
0000
0000
0000
0000
0000
0000
0000
0000
0000
0000
0000
,
0100
0000
0000
0110
0000
0000
0000
1000
,
0001
1000
0010
1000
0100
1000
0001
0000
,
1000
0100
0001
0100
1000
0000
0000
1001
,
0000
0000
0000
0001
0100
1000
0100
0001
,
1000
0010
1000
0100
0000
0000
0020
0000
,
0031
0100
0010
0100
0001
0000
2000
0000
,
3002
0000
0003
0000
1000
0200
0000
0310
,
0001
1000
0001
0010
0100
1000
1000
1000
,
1000
1000
0001
1000
0001
1000
0000
0000
,
0001
0001
0010
0010
,
0100
0100
1000
1000
,
0001
0000
0000
1000
0000
0000
0020
0000
,
0130
0000
0000
0010
0000
0010
0000
1000
,
0000
1000
0000
0001
0000
0001
0000
0100
,
0000
0100
0000
0010
0000
0000
0010
0000
,
0000
0020
0000
0130
0000
0000
0001
0000
,
0001
0100
0100
0010
,
0010
1000
1000
0001
,
0000
1000
0000
0000
0020
0000
0130
0000
,
0000
0010
0000
0010
0000
1000
0000
1000
,
0000
0001
0000
0001
0000
0100
0000
0100
,
0000
0010
0000
0000
0010
0000
0000
0020
,
0000
0130
0000
0000
0000
0001
0100
0001
,
0000
0100
0001
0100
0000
0001
0010
0001
,
0000
0010
0001
0010
0000
0100
1000
0100
,
0000
1000
0100
1000
0000
0010
0100
0001
,
0000
1000
0100
0010
0000
0001
1000
0001
,
0000
1000
0001
1000
0000
0010
0100
0010
,
0000
0100
0010
0100
0000
0001
1000
0001
,
0000
0100
0010
0100
0000
0001
1000
0010
,
1000
0001
0000
0000
1000
0100
1000
0000
,
0001
0100
0001
0000
1000
0100
0010
0000
,
0001
0100
0010
0000
1000
0000
0000
0001
,
0000
0000
2000
0000
3001
0000
0000
0001
,
0010
0001
0000
1000
0010
1000
0000
0001
,
0010
0100
0000
1000
0010
0100
0000
0010
,
0000
0000
0010
0000
0000
0020
0000
0130
,
0000
0000
0001
1000
0100
0000
1000
0001
,
0100
0000
0001
1000
0010
0000
1000
0001
,
0010
0000
1000
0000
0000
0100
0000
0000
,
0020
0000
0031
0000
0000
1000
0001
0010
,
0000
0001
1000
0010
0000
1000
0001
0100
,
0000
0001
1000
0100
0000
0010
0000
0000
,
0010
0000
0000
0020
0000
0130
0000
0000
,
0010
0000
0000
0010
0000
0000
0020
0000
,
0130
0000
0000
0000
1000
0001
1000
0010
,
1000
0000
0100
0000
0010
0001
0100
0001
,
1000
0000
0001
0000
1000
0001
1000
0010
,
1000
0000
0100
0000
0010
0001
0100
0001
,
1000
2002
0000
3003
,
0001
1000
0010
1000
0001
0100
0000
0000
;

//---------------dance-single - Chewi----------------
#NOTES:
     dance-single:
     Chewi:
     Easy:
     7:
     0.370,0.401,0.393,0.082,0.000:
0000
0000
0000
0000
,
0000
0000
0000
0000
,
1100
0101
0100
0100
,
0000
0010
0000
0010
0000
1000
0000
1000
,
0000
0100
0000
0010
0000
0000
0001
0000
,
0010
0000
0100
0000
1000
0000
0000
1000
,
0000
0010
0000
0100
0000
0001
0000
1000
,
0000
0001
1000
0000
1001
0000
0001
0000
,
1000
0100
0010
0110
,
0000
0100
0000
0010
0000
0001
0000
1000
,
0000
0010
0000
0101
0101
0101
0101
0100
,
0000
0001
0000
1000
0001
0000
1000
0000
,
0100
0000
0010
0100
0000
1000
0000
0001
,
0000
0101
0000
1010
0000
0110
0110
0000
,
0110
0000
1000
0000
1000
0000
0100
0010
,
0000
0001
0000
0010
0000
0100
0000
1000
,
0000
0010
0000
0100
0001
0000
0100
0000
,
0010
0010
1000
1000
,
1001
0000
0000
1000
0100
0010
0000
0001
,
0000
0010
0000
0100
0000
1000
0100
0010
,
0001
1000
0000
0001
0000
1000
0001
0000
,
2000
0000
3200
0000
,
0320
0000
0032
0000
,
0103
0000
0000
0101
0000
0000
0011
0000
,
1100
0000
0000
2000
0000
0000
0000
3020
,
0000
0000
0000
0230
0000
0000
0000
0302
,
0000
0000
0000
1003
0000
0000
1001
0000
,
0000
1001
0000
1001
0000
0000
1000
0000
,
1000
0100
0100
0001
,
0001
0100
0100
0100
,
0010
1000
0000
0001
0010
0000
0011
0000
,
0000
0001
0000
0010
0000
0100
0000
1000
,
0000
0001
0000
0100
0000
0010
0000
1000
,
0000
1001
0000
0000
1010
0000
0000
1001
,
0000
1100
0000
0000
0000
1000
0000
1000
,
0000
0100
0000
0100
0000
0010
0000
0001
,
0000
0100
0000
0010
0000
0100
0000
0100
,
0000
0010
0000
0010
0000
1000
0000
0100
,
0000
0010
0000
0100
0000
1000
0000
1000
,
0000
0001
0000
0001
0000
1000
0000
0010
,
0000
0100
0000
0001
0000
0100
0000
0100
,
0000
0010
0000
0010
0000
1000
0000
0001
,
0000
1001
0000
0000
1000
0000
0100
0000
,
0001
0010
1000
0100
,
0001
0000
0010
0000
0011
0000
0000
1001
,
0000
0000
1100
0000
1001
0000
0000
0001
,
0000
0100
0000
1000
0000
0010
0000
0001
,
0000
0100
0000
1000
0000
0010
0000
1010
,
0000
0000
1001
0000
0000
0101
0000
1001
,
0000
1000
0100
0010
,
0100
1000
0010
0100
,
0010
0000
1010
0000
0000
0101
0000
0000
,
0011
0000
0110
0000
0000
0100
0000
0010
,
0000
0001
0000
0010
0000
0100
0000
0010
,
0000
0001
0000
0100
0000
0101
0000
0000
,
1010
0000
0000
0101
0000
1001
0000
0000
,
1000
0000
0000
1000
0000
0000
1100
0000
,
0010
0010
0001
0100
,
1000
0010
1000
0100
,
0001
0010
0100
0100
,
0100
0100
0010
0010
,
0010
0000
0002
0000
0000
0000
1003
0010
,
1000
0000
0100
0001
0100
0010
0000
0000
;

//---------------dance-single - Chewi----------------
#NOTES:
     dance-single:
     Chewi:
     Beginner:
     3:
     0.222,0.258,0.238,0.119,0.000:
0000
0000
0000
0000
,
0000
0000
0000
0000
,
1000
0000
0001
0000
,
0000
0000
0000
1000
0000
0000
0000
0001
,
0000
0000
0000
0100
,
0000
0010
0000
0000
,
0000
0100
0000
0000
0000
0010
0000
0000
,
0000
0000
1001
0000
,
0000
1000
1001
0000
,
0000
0001
0000
1001
0000
0000
0000
0000
,
0000
0000
0000
1000
1000
1000
0000
1000
,
0000
1000
0000
1000
0001
0000
1000
0000
,
1001
0000
0000
0000
0000
0000
0000
1000
,
0000
0001
0000
1001
0000
0000
0000
0000
,
0100
0010
0110
0000
,
0000
0000
0000
0010
0000
0100
0000
0110
,
0000
0000
0000
1000
,
0001
0001
1000
1000
,
1001
0000
0000
1000
0000
1000
0000
0001
,
0000
0001
0000
0000
0000
0001
0001
0001
,
0000
0001
0000
0001
0000
0001
0000
0000
,
2000
0000
0000
0000
,
0000
0000
0000
3000
,
1000
0000
0000
1000
0000
0000
1001
0000
,
1001
0000
0000
0002
0000
0000
0000
0000
,
0000
0000
0000
0000
,
0000
0003
0000
0001
0000
0000
0001
0000
,
0000
1001
0000
1001
0000
0000
0020
0000
,
0000
0000
0000
0000
,
0000
0000
0030
0010
,
0000
0010
0000
0000
0110
0000
0110
0000
,
0000
0200
0000
0000
0000
0000
0000
0000
,
0000
0000
0000
0000
0000
0000
0000
0300
,
0000
0100
0000
0000
0110
0000
0000
1001
,
0000
0000
0000
0000
0000
1000
0000
1000
,
0000
1000
0000
1000
0000
1000
0000
1000
,
0000
1000
0000
0000
0000
0001
0000
0001
,
0000
0001
0000
0001
0000
0001
0000
0001
,
0000
0001
0000
0000
0000
1000
0000
0000
,
0000
0100
0000
0000
0000
0001
0000
0000
,
0000
0010
0000
0000
0000
1000
0000
0000
,
0000
0010
0000
0000
0000
0100
0000
0000
,
0000
0001
0000
0000
2000
0000
0000
0000
,
0000
0000
3002
0000
,
0000
0000
0000
0000
1003
0000
0000
1000
,
0000
0000
1001
0000
1001
0000
0000
0002
,
0000
0000
0000
0000
0000
0000
0000
2003
,
0000
0000
0000
0000
0000
0000
0000
3001
,
0000
0000
0001
0000
0000
1001
0000
1001
,
0000
2000
0000
0000
,
0000
3002
0000
0000
,
0000
0000
1003
0000
0000
1000
0000
0000
,
1001
0000
1001
0000
0000
0002
0000
0000
,
0000
0000
0000
0000
0000
2003
0000
0000
,
0000
0000
0000
0000
0000
3001
0000
0000
,
0001
0000
0000
1001
0000
1001
0000
0000
,
0110
0000
0000
0100
0000
0000
0110
0000
,
0010
0000
0010
0010
,
0010
0010
0010
0010
,
0010
0000
0100
0100
,
0100
0100
0100
0100
,
0100
0020
0000
0000
,
0000
0000
0000
0000
0000
0030
0000
0000
;
