#TITLE:衰色小町メランコリア;
#SUBTITLE:;
#ARTIST:iNO;
#TITLETRANSLIT:SUISHOKU KOMACHI MELANCHOLIA;
#SUBTITLETRANSLIT:;
#ARTISTTRANSLIT:;
#GENRE:;
#CREDIT:Chewi☆;
#MENUCOLOR:;
#METERTYPE:DDR X;
#BANNER:SUISHOKU KOMACHI MELANCHOLIA.png;
#BACKGROUND:SUISHOKU KOMACHI MELANCHOLIA-bg.png;
#LYRICSPATH:;
#CDTITLE:;
#MUSIC:SUISHOKU KOMACHI MELANCHOLIA.mp3;
#OFFSET:-0.506;
#SAMPLESTART:64.156;
#SAMPLELENGTH:15.000;
#SELECTABLE:YES;
#LISTSORT:;
#BPMS:0.000=139.000;
#STOPS:;
#BGCHANGES:;
#ATTACKS:;

//---------------dance-single - Chewi----------------
#NOTES:
     dance-single:
     Chewi:
     Hard:
     12:
     0.509,0.505,0.250,0.018,0.170:
0000
0000
0000
0000
,
0000
0000
0000
0000
,
0000
0000
0000
0000
,
0000
0000
0000
0000
,
1000
0000
0000
1000
0100
0000
0000
0100
0010
0000
0000
0010
0001
0000
0000
0001
,
1000
0000
0000
1000
0010
0000
0000
0010
0100
0000
0000
0100
0001
0000
0000
0001
,
0010
0000
0000
0010
1000
0000
0000
1000
0100
0000
0000
0100
0001
0000
0000
0001
,
0010
0000
0000
0010
0100
0000
0000
0100
1000
0000
0000
1000
0001
0000
0000
0001
,
2000
0000
0000
0000
,
0002
0000
0000
3003
,
0010
0100
0001
0100
0010
0000
0010
1000
,
0001
0000
0010
0100
1000
0010
1000
0000
,
0100
0010
0001
0100
0010
0000
1000
0010
,
1010
1001
1100
0000
,
1000
0100
0010
0001
0100
0000
0010
0100
,
0001
0000
0010
0100
1000
0001
0100
0000
,
0010
0100
0001
1000
0100
0010
0001
0010
,
0100
0100
1000
1000
0010
0010
0100
0100
,
0001
0000
0000
0000
0100
0010
1000
0000
0001
0000
0010
0000
0100
0000
1000
0000
,
0000
0010
0010
0010
1010
0000
0000
0000
,
1000
0000
0010
0100
0001
0000
0010
0100
,
1000
0000
0000
0000
0000
0000
1000
0100
1000
0000
0000
0000
0000
0000
0000
0000
,
1000
0000
0100
0010
0001
0000
0100
0010
,
1000
0000
0000
0000
0000
0000
0010
1000
0010
0000
0000
0000
0000
0000
0000
0000
,
1000
0001
0010
0100
1000
0000
0100
0000
,
0010
0000
0000
0000
0000
0000
0001
0010
0100
0000
0000
0000
0000
0000
0000
0000
,
1000
0001
0100
0010
1000
0000
0010
0000
,
0100
0000
0000
0000
0000
0000
0100
0010
0100
0000
0000
0000
0000
0000
0000
0000
,
0001
0000
0000
0001
0010
0000
0000
0010
0100
0000
0000
0100
1000
0000
1000
0000
,
0010
0100
0001
0100
0010
0000
1001
0000
,
1000
0000
0000
1000
0010
0000
0000
0010
0100
0000
0000
0100
0001
0000
0000
0001
,
0010
0100
1000
0010
1000
0000
1100
0000
,
1000
0000
0000
1000
0100
0000
0000
0100
0010
0000
0000
0010
0100
0000
0000
0100
,
1000
0010
0100
0010
1000
0000
1010
0000
,
1000
0000
0000
1000
0001
0000
0000
0001
0010
0000
0000
0010
0100
0000
0000
0100
,
0010
0001
0010
0100
1000
0010
0100
0010
,
0110
0000
0000
0110
0000
0000
0110
0000
0000
0000
0000
0000
0000
0000
0000
0000
,
0010
1000
0001
0010
0100
0000
1000
0100
,
0010
0000
0001
1000
0010
0100
0100
0000
,
0010
0100
0001
1000
0100
0000
0010
0001
,
0011
1100
0101
0000
,
0100
0010
1000
0001
0010
0000
0100
1000
,
0010
0000
1000
0010
0100
0001
0010
0000
,
0011
0000
1000
0100
1100
0000
1000
0001
,
1001
0100
0010
1000
0001
0010
0100
0000
,
1000
0100
0010
0100
1000
0000
0010
0100
,
0001
0000
0010
0100
1000
0001
0001
0000
,
0001
0010
0100
1000
0010
0000
1000
0100
,
1100
1001
0101
0000
,
0100
0010
0100
0001
0010
0000
0100
1000
,
0010
0000
1000
0100
0010
0001
0100
0000
,
1010
0000
0100
1000
1010
0000
0100
0010
,
0011
0010
0100
1000
0001
1000
1000
0000
,
0001
0100
1000
0100
0001
0100
1000
0100
,
0001
0010
1000
0010
0001
0100
0101
0000
,
0001
0010
0001
0100
1000
0100
0001
0010
,
1100
1100
0011
0011
,
1000
0010
1000
0100
0001
0100
1000
0010
,
0100
0001
1000
0010
0001
0010
1000
0100
,
0001
0100
1000
0100
0001
0100
1000
0100
,
0001
0010
1000
0010
0001
0010
1000
0010
,
0001
0000
0000
0000
1000
0100
0010
0000
0001
0000
0010
0000
0100
0000
1000
0000
,
0000
1000
0001
1000
0001
0000
0110
0000
;

//---------------dance-single - Chewi----------------
#NOTES:
     dance-single:
     Chewi:
     Medium:
     7:
     0.323,0.336,0.170,0.045,0.000: // measure 1
0000
0000
0000
0000
,  // measure 2
0000
0000
0000
0000
,  // measure 3
0000
0000
0000
0000
,  // measure 4
0000
0000
0000
0000
,  // measure 5
1000
0010
0001
0100
,  // measure 6
1000
0100
0001
0010
,  // measure 7
1000
0010
0100
1000
,  // measure 8
0010
0001
0100
0010
,  // measure 9
0220
0000
0000
0000
,  // measure 10
0000
0000
0000
0330
,  // measure 11
0010
0000
0100
0010
0100
0000
0010
0000
,  // measure 12
0001
0000
1000
0010
0100
0000
0001
0000
,  // measure 13
0100
0000
0010
1000
0100
0000
0010
0000
,  // measure 14
1100
0011
0101
0000
,  // measure 15
0100
0000
0010
0100
0001
0000
0010
0000
,  // measure 16
0100
0000
1000
0010
0100
0000
0001
0000
,  // measure 17
1100
0000
0011
0000
,  // measure 18
1001
0100
0010
0100
,  // measure 19
0001
0000
1000
0001
0010
0100
1000
0010
,  // measure 20
0000
0100
0110
0000
,  // measure 21
0100
0010
1000
0001
,  // measure 22
0010
0000
0000
0010
0010
0000
0000
0000
,  // measure 23
0001
0010
0100
1000
,  // measure 24
0010
0000
0000
0010
0010
0000
0000
0000
,  // measure 25
0100
0010
1000
0001
,  // measure 26
1000
0000
0000
0100
0100
0000
0000
0000
,  // measure 27
0010
0100
1000
0001
,  // measure 28
0100
0000
0000
0010
0010
0000
0000
0000
,  // measure 29
0100
0010
1000
0001
,  // measure 30
0010
0000
0100
1000
0010
0000
1000
0000
,  // measure 31
0100
0010
0001
0100
,  // measure 32
0010
0000
0100
0001
0010
0000
0100
0000
,  // measure 33
1000
0001
0100
1000
,  // measure 34
0010
0000
0001
0010
0001
0000
0010
0000
,  // measure 35
0100
1000
0010
0100
,  // measure 36
0202
0000
0000
0300
,  // measure 37
2000
0000
0000
3003
,  // measure 38
1000
0000
0001
1000
0100
0000
0010
0000
,  // measure 39
0100
1000
0010
1100
,  // measure 40
1000
0000
0010
0000
0100
0000
0001
0100
,  // measure 41
0001
0010
0100
1000
,  // measure 42
0010
0000
1000
0100
0010
0000
0100
0000
,  // measure 43
1000
0001
0100
0010
,  // measure 44
0100
0010
1000
0001
,  // measure 45
0011
0000
1001
0000
,  // measure 46
1000
0000
0100
0000
0010
0000
0100
1000
,  // measure 47
0010
0000
0100
0000
0001
0100
0010
0000
,  // measure 48
1000
0000
0001
0000
1000
0000
0100
0010
,  // measure 49
0100
0100
0100
0000
,  // measure 50
0100
0000
0010
0001
0100
0000
0010
0000
,  // measure 51
0100
0000
0010
1000
0010
0000
1000
0000
,  // measure 52
1001
0010
0110
0100
,  // measure 53
0010
0010
1001
0000
,  // measure 54
1000
0100
0001
0010
,  // measure 55
1000
0100
0001
0010
,  // measure 56
0001
0100
1000
0010
,  // measure 57
0001
0100
1000
0000
,  // measure 58
0010
0100
0001
1000
,  // measure 59
0100
0010
0001
1000
,  // measure 60
0010
1000
0100
0010
,  // measure 61
1000
0100
0010
0001
,  // measure 62
1100
0000
0100
0000
1000
0100
1000
0100
,  // measure 63
0000
1001
1001
0110
;

//---------------dance-single - Chewi----------------
#NOTES:
     dance-single:
     Chewi:
     Beginner:
     3:
     0.170,0.224,0.071,0.018,0.000: // measure 1
0000
0000
0000
0000
,  // measure 2
0000
0000
0000
0000
,  // measure 3
0000
0000
0000
0000
,  // measure 4
0000
0000
0000
0000
,  // measure 5
1000
0000
0100
0000
,  // measure 6
0010
0000
0001
0000
,  // measure 7
0100
0000
0010
0000
,  // measure 8
1000
0000
0001
0000
,  // measure 9
2002
0000
0000
0000
,  // measure 10
0000
0000
0000
3003
,  // measure 11
1000
0000
0001
0000
,  // measure 12
0001
0000
1000
0000
,  // measure 13
1000
0000
0001
0000
,  // measure 14
0100
0000
0100
0000
,  // measure 15
1000
0000
1000
0000
,  // measure 16
0010
0000
0010
0000
,  // measure 17
0001
0000
0001
0000
,  // measure 18
0100
0000
0100
0000
,  // measure 19
1000
0000
0100
0000
,  // measure 20
0100
0000
0010
0000
,  // measure 21
0010
0010
0010
0010
,  // measure 22
0010
0000
1001
0000
,  // measure 23
0100
0100
0100
0100
,  // measure 24
0100
0000
1001
0000
,  // measure 25
1000
0000
0100
0000
,  // measure 26
0100
0000
0110
0000
,  // measure 27
0001
0000
0100
0000
,  // measure 28
0100
0000
1001
0000
,  // measure 29
1000
1000
1000
1000
,  // measure 30
1000
0000
0000
0000
,  // measure 31
0100
0100
0100
0100
,  // measure 32
0100
0000
0000
0000
,  // measure 33
0010
0010
0010
0010
,  // measure 34
0010
0000
0000
0000
,  // measure 35
0001
0001
0001
0001
,  // measure 36
0001
0000
0000
0000
,  // measure 37
1001
0000
0000
0000
,  // measure 38
1000
0000
0010
0000
,  // measure 39
0010
0000
0010
0000
,  // measure 40
0001
0000
0100
0000
,  // measure 41
0100
0000
0100
0000
,  // measure 42
1000
0000
0100
0000
,  // measure 43
0100
0000
0100
0000
,  // measure 44
0010
0000
0001
0000
,  // measure 45
0100
0000
0100
0000
,  // measure 46
1000
0000
0010
0000
,  // measure 47
1000
0000
0001
0000
,  // measure 48
0001
0000
0010
0000
,  // measure 49
0010
0000
0010
0000
,  // measure 50
1000
0000
0010
0000
,  // measure 51
1000
0000
1000
0000
,  // measure 52
0110
0000
0010
0000
,  // measure 53
0100
0000
0000
0000
,  // measure 54
0010
0000
1000
0000
,  // measure 55
0010
0000
1000
0000
,  // measure 56
0001
0000
0010
0000
,  // measure 57
0001
0000
0100
0000
,  // measure 58
1000
0000
0010
0000
,  // measure 59
1000
0000
1000
0000
,  // measure 60
1000
0000
0100
0000
,  // measure 61
0010
0000
0010
0000
,  // measure 62
0110
0000
0010
0010
,  // measure 63
0000
0100
0100
0100
;

//---------------dance-single - Chewi----------------
#NOTES:
     dance-single:
     Chewi:
     Easy:
     5:
     0.244,0.280,0.080,0.018,0.000: // measure 1
0000
0000
0000
0000
,  // measure 2
0000
0000
0000
0000
,  // measure 3
0000
0000
0000
0000
,  // measure 4
0000
0000
0000
0000
,  // measure 5
1000
1000
0100
0100
,  // measure 6
0010
0010
0001
0001
,  // measure 7
0100
0100
0010
0010
,  // measure 8
1000
1000
0001
0001
,  // measure 9
2002
0000
0000
0000
,  // measure 10
0000
0000
0000
3003
,  // measure 11
1000
0100
0001
0000
,  // measure 12
0001
0010
1000
0000
,  // measure 13
1000
0100
0001
0000
,  // measure 14
0100
0100
0100
0000
,  // measure 15
1000
0010
1000
0000
,  // measure 16
0010
0001
0010
0000
,  // measure 17
0001
0100
0001
0000
,  // measure 18
0100
1000
0100
0000
,  // measure 19
1000
0001
0100
0010
,  // measure 20
0000
0100
0010
0000
,  // measure 21
0010
0010
0010
0010
,  // measure 22
0010
0000
1001
0000
,  // measure 23
0100
0100
0100
0100
,  // measure 24
0100
0000
1001
0000
,  // measure 25
1000
0010
0100
0001
,  // measure 26
0100
0000
0110
0000
,  // measure 27
0001
0010
0100
1000
,  // measure 28
0100
0000
1001
0000
,  // measure 29
1000
1000
1000
1000
,  // measure 30
0001
0001
0001
0001
,  // measure 31
0100
0100
0100
0100
,  // measure 32
0010
0000
0000
0000
,  // measure 33
0010
0010
0010
0010
,  // measure 34
0100
0100
0100
0100
,  // measure 35
0001
0001
0001
0001
,  // measure 36
1000
0000
0000
0000
,  // measure 37
1001
0000
0000
0000
,  // measure 38
1000
0100
0010
0001
,  // measure 39
0010
0000
0010
0000
,  // measure 40
0001
0010
0100
1000
,  // measure 41
0100
0000
0100
0000
,  // measure 42
1000
0001
0100
0010
,  // measure 43
0100
0000
0100
0000
,  // measure 44
0010
1000
0001
0010
,  // measure 45
0100
0000
0100
0000
,  // measure 46
1000
0100
0010
0001
,  // measure 47
1000
0000
0001
0000
,  // measure 48
0001
0100
0010
1000
,  // measure 49
0010
0010
0010
0000
,  // measure 50
1000
0001
0010
0100
,  // measure 51
1000
0000
1000
0000
,  // measure 52
0110
0000
0010
0000
,  // measure 53
0100
0000
0000
0000
,  // measure 54
0010
0100
1000
0100
,  // measure 55
0010
0100
1000
0001
,  // measure 56
0001
0100
0010
0100
,  // measure 57
0001
0010
0100
0000
,  // measure 58
1000
0100
0010
0001
,  // measure 59
1000
0100
1000
0010
,  // measure 60
1000
0010
0100
0001
,  // measure 61
0010
0001
0010
0000
,  // measure 62
0110
0000
0010
0100
,  // measure 63
0000
0100
0010
1001
;
