#TITLE:STILL IN MY HEART~in Alpha Centauri~;
#SUBTITLE:;
#ARTIST:remixed by Proximus Astrum;
#TITLETRANSLIT:;
#SUBTITLETRANSLIT:;
#ARTISTTRANSLIT:;
#GENRE:;
#CREDIT:Chewi☆;
#MENUCOLOR:;
#METERTYPE:DDR X;
#BANNER:STILL IN MY HEART ~in Alpha Centauri~.png;
#BACKGROUND:STILL IN MY HEART ~in Alpha Centauri~-bg.png;
#LYRICSPATH:;
#CDTITLE:./CDTITLES/DanceDanceRevolution skyMIX2 -FREEDOM-.png;
#MUSIC:STILL IN MY HEART ~in Alpha Centauri~.mp3;
#OFFSET:-0.465;
#SAMPLESTART:36.270;
#SAMPLELENGTH:13.510;
#SELECTABLE:YES;
#LISTSORT:;
#BPMS:0.000=156.000;
#STOPS:;
#BGCHANGES:;
#ATTACKS:;

//---------------dance-single - Chewi----------------
#NOTES:
     dance-single:
     Chewi:
     Easy:
     5:
     0.343,0.414,0.191,0.149,0.000:
0000
0000
0000
0000
,
0000
0000
0000
0000
,
0000
0000
0000
0000
,
0000
0000
0000
0000
,
1000
0000
1000
0010
,
0100
0000
0100
0001
,
0010
1000
0100
0000
,
0100
0001
0010
0000
,
0100
0100
0100
0100
,
0010
0010
0010
0010
,
1000
1000
1000
1000
,
0001
0001
0001
0001
,
0001
1000
1000
0001
,
0010
0100
0100
0010
,
0001
0100
1000
0010
,
1000
0100
0001
0010
,
0100
0110
0010
0110
,
0001
1001
1000
1001
,
1000
0010
0001
0010
,
0100
0100
0010
0010
,
0001
1001
1000
1001
,
0100
0110
0010
0110
,
0010
0010
0100
0100
,
2002
0000
0000
3003
,
0001
0010
0100
1000
,
0001
0010
0100
1000
,
0010
0001
0100
1000
,
0010
0001
0100
1000
,
0010
0100
0001
1001
,
0010
0100
1000
1001
,
1000
0100
0010
0101
,
0001
0100
0010
1010
,
2002
0000
0000
3000
,
0020
0000
0000
0033
,
0001
0010
0100
1000
,
0200
0000
0002
0303
,
0010
0010
0010
0000
,
0100
0100
0100
0000
,
0010
0100
0010
0100
,
0001
1000
0001
1000
,
0001
0010
0100
1000
,
0100
1000
0010
0001
,
0001
0100
0010
1000
,
0010
0001
0100
1000
,
0001
1000
0010
0100
,
0100
0010
1000
0001
,
0010
0100
1000
0001
,
2002
0000
0000
3000
,
0020
0000
0000
0033
,
0011
0100
0010
1000
,
0100
0010
0001
0100
,
0010
0100
0001
1000
,
0100
0010
0001
1000
,
1001
0001
0010
0100
,
1000
0010
0001
0010
,
1000
0100
0001
0010
,
0100
0001
0010
0100
,
2002
0000
0000
3000
,
0200
0000
0003
0010
,
0000
0010
0000
0000
0020
0000
0000
0000
,
0330
0000
0000
0000
;

//---------------dance-single - Chewi----------------
#NOTES:
     dance-single:
     Chewi:
     Medium:
     9:
     0.437,0.478,0.234,0.489,0.000:
0000
0000
0000
0000
,
0000
0000
0000
0000
,
0000
0000
0000
0000
,
0000
0000
0000
0000
,
2000
3100
0002
0013
,
2000
3010
0002
0103
,
0010
0100
0010
0000
1000
0001
1000
0000
,
0001
0011
1000
1010
,
0002
0203
0302
0023
,
0130
0000
0100
0000
0010
0100
0010
0000
,
0200
2300
3020
2030
,
3010
0000
0010
0000
0100
0010
0100
0000
,
0001
1001
1000
1001
,
0010
0110
0100
0110
,
0010
0001
0100
1000
,
0020
1000
1000
1030
,
0010
1000
0001
0000
0010
0000
0100
0000
,
1000
1001
0001
1001
,
0100
0001
1000
0000
0010
0000
0100
0000
,
0010
0110
0100
0110
,
0010
1000
0100
0000
0001
0000
0100
0000
,
0010
0001
0100
0000
1000
0000
0010
0000
,
0100
0000
0010
0000
1000
0001
1000
0000
,
2002
0000
0000
3003
,
0001
0011
1000
1100
,
0001
1000
0100
0000
0100
0100
0100
0000
,
1000
0010
0001
0100
,
0001
0010
1000
0100
,
0001
0000
1100
0000
1000
0001
0100
0000
,
0010
0000
0100
0000
0010
0010
0010
0000
,
1010
0100
0001
0010
,
0100
1000
0001
0100
,
0220
0000
0000
0300
,
2000
0000
0000
0030
,
0002
3000
0023
0000
,
0200
0000
0000
0330
,
0200
0000
1300
0000
0100
1000
0100
0000
,
0200
0000
0301
0000
0100
0001
0100
0000
,
0020
0230
0320
0230
,
0310
1100
0010
0101
,
1000
0000
0001
0000
0100
0010
0100
0000
,
0001
0000
1000
0000
0100
0010
0100
0000
,
0010
1000
0100
0001
,
0010
0001
0100
1000
,
0010
0000
0100
0000
0010
0100
0010
0000
,
1000
0000
0001
0000
1000
0001
1000
0000
,
0001
0000
0010
0000
0100
0000
1000
2200
,
0000
0000
0000
0300
,
0020
0000
0000
3030
,
0020
0000
0130
0000
0001
0100
0001
0000
,
0020
0000
0130
0000
1000
0100
1000
0000
,
0200
0000
0310
0000
0001
1000
0001
0000
,
0200
0000
0310
0000
0001
1000
0001
0000
,
0020
0230
2300
3020
,
0130
0110
0100
0001
,
0020
0032
0203
2300
,
3001
1001
0010
1000
,
2002
0000
0000
3000
,
0020
0000
0003
0001
,
0000
1000
0000
0000
0002
0000
0000
0000
,
0030
0003
0000
0000
0000
0000
0000
0000
0000
0000
0000
0000
0000
0000
0000
0000
0000
0000
0000
0000
0000
0000
0000
0000
0000
0000
0000
0000
0000
0000
0000
0000
0000
0000
0000
0000
0000
0000
0000
0000
0000
0000
0000
0000
0000
0000
0000
0000
0000
0000
0000
0000
0000
0000
0000
0000
0000
0000
0000
0000
0000
0000
0000
0000
0000
0000
0000
0000
0000
0000
0000
0000
0000
0000
0000
0000
0000
0000
0000
0000
0000
0000
0000
0000
0000
0000
0000
0000
0000
0000
0000
0000
0000
0000
0000
0000
0000
0000
0000
0000
0000
0000
0000
0000
0000
0000
0000
0000
0000
0000
0000
0000
0000
0000
0000
0000
0000
0000
0000
0000
0000
0000
0000
0000
0000
0000
0000
0000
0000
0000
0000
0000
0000
0000
0000
0000
0000
0000
0000
0000
0000
0000
0000
0000
0000
0000
0000
0000
0000
0000
0000
0000
0000
0000
0000
0000
0000
0000
0000
0000
0000
0000
0000
0000
0000
0000
0000
0000
0000
0000
0000
0000
0000
0000
0000
0000
0000
0000
0000
0000
0000
0000
0000
0000
0000
0000
0000
0000
0000
0000
0000
0000
;

//---------------dance-single - Chewi----------------
#NOTES:
     dance-single:
     Chewi:
     Hard:
     10:
     0.625,0.574,0.127,0.276,0.000: // measure 1
0000
0000
0000
0000
,  // measure 2
0000
0000
0000
0000
,  // measure 3
0000
0000
0000
0000
,  // measure 4
0000
0000
0000
0000
,  // measure 5
0010
0100
0001
1000
0010
0100
0100
0000
,  // measure 6
0010
1000
0100
0010
0001
0010
0010
0000
,  // measure 7
0001
0010
1100
0000
1000
0010
0101
0000
,  // measure 8
1000
0001
0100
0010
1000
0001
0010
0000
,  // measure 9
0100
0010
0001
0010
0100
0010
0001
0010
,  // measure 10
0100
0010
0001
0010
0100
0010
0001
0010
,  // measure 11
0100
1000
0010
1000
0100
1000
0010
1000
,  // measure 12
0100
1000
0010
1000
0100
1000
0010
1000
,  // measure 13
0001
0010
0100
1000
0001
0010
0100
1000
,  // measure 14
0001
0100
0010
1000
0001
0100
0010
1000
,  // measure 15
0001
1000
0100
0010
0001
1000
0010
0100
,  // measure 16
0001
0100
0010
1000
1002
0000
0013
0000
,  // measure 17
0001
0010
0100
1000
0001
0010
0100
1000
,  // measure 18
0001
0100
1000
0010
0001
0010
1000
0100
,  // measure 19
0001
1000
0100
0010
0001
1000
0100
0010
,  // measure 20
0001
0010
1000
0100
0001
0100
1000
0010
,  // measure 21
0100
0001
0100
0010
1000
0001
0010
0100
,  // measure 22
1000
0001
0100
0010
1000
0100
0010
0001
,  // measure 23
1000
0100
1000
0100
0010
0001
0010
0001
,  // measure 24
0022
0030
2000
3003
,  // measure 25
0001
0100
1000
0010
0001
0010
1000
0100
,  // measure 26
0001
0100
0010
0100
0001
0010
0100
0000
,  // measure 27
0001
0010
1000
0100
0001
0100
1000
0010
,  // measure 28
0100
0010
0100
0010
1000
0001
1000
0000
,  // measure 29
1000
0100
0010
0001
1000
0100
0001
0100
,  // measure 30
1000
0010
0100
0001
1000
0010
0001
0010
,  // measure 31
0100
0010
0100
0010
1000
0001
1000
0001
,  // measure 32
0010
0100
1000
0001
0010
0100
1000
0001
,  // measure 33
2002
0000
0000
0003
,  // measure 34
0020
0000
0000
3030
,  // measure 35
0002
0203
2300
3020
,  // measure 36
0230
2300
3002
0003
,  // measure 37
0001
0010
0100
1000
0001
0010
0100
0000
,  // measure 38
1000
0100
0010
0001
1000
0100
0010
0000
,  // measure 39
0001
1000
0010
0000
1000
0001
0010
0000
,  // measure 40
0100
0100
0010
0010
0100
0010
0110
0000
,  // measure 41
0010
1000
0100
1000
0010
0100
0001
0010
,  // measure 42
0001
0100
0001
0010
0100
1000
0010
0100
,  // measure 43
0010
0100
0010
0100
0001
1000
0001
1000
,  // measure 44
0001
0010
0100
1000
0001
0010
0100
1000
,  // measure 45
0001
0100
1000
0010
1000
0100
0001
0010
,  // measure 46
0100
0010
0100
0010
0001
1000
0001
1000
,  // measure 47
0001
0100
0010
1000
0001
0100
0010
2002
,  // measure 48
0000
0000
0000
3003
,  // measure 49
0010
0100
0010
0100
1000
0001
1000
0001
,  // measure 50
0010
1000
0100
0010
0001
0010
0100
0000
,  // measure 51
0010
0001
0100
1000
0010
1000
0010
0000
,  // measure 52
1000
0100
0010
0001
1000
0100
0010
0001
,  // measure 53
1000
0001
1000
0001
0100
0010
0100
0010
,  // measure 54
1000
0100
0001
0100
1000
0010
0010
0000
,  // measure 55
0100
0001
0010
0100
1000
0010
0010
0000
,  // measure 56
0100
0010
1000
0001
0010
0100
1000
0001
,  // measure 57
1000
0100
1000
0100
0010
0001
0010
0001
,  // measure 58
0022
0000
0000
0033
,  // measure 59
0202
0000
0303
2002
,  // measure 60
3003
2200
0000
3300
2002
0000
0000
0000
,  // measure 61
0000
3003
0000
0000
0000
0000
0000
0000
0000
0000
0000
0000
0000
0000
0000
0000
0000
0000
0000
0000
0000
0000
0000
0000
0000
0000
0000
0000
0000
0000
0000
0000
0000
0000
0000
0000
0000
0000
0000
0000
0000
0000
0000
0000
0000
0000
0000
0000
0000
0000
0000
0000
0000
0000
0000
0000
0000
0000
0000
0000
0000
0000
0000
0000
0000
0000
0000
0000
0000
0000
0000
0000
0000
0000
0000
0000
0000
0000
0000
0000
0000
0000
0000
0000
0000
0000
0000
0000
0000
0000
0000
0000
0000
0000
0000
0000
0000
0000
0000
0000
0000
0000
0000
0000
0000
0000
0000
0000
0000
0000
0000
0000
0000
0000
0000
0000
0000
0000
0000
0000
0000
0000
0000
0000
0000
0000
0000
0000
0000
0000
0000
0000
0000
0000
0000
0000
0000
0000
0000
0000
0000
0000
0000
0000
0000
0000
0000
0000
0000
0000
0000
0000
0000
0000
0000
0000
0000
0000
0000
0000
0000
0000
0000
0000
0000
0000
0000
0000
0000
0000
0000
0000
0000
0000
0000
0000
0000
0000
0000
0000
0000
0000
0000
0000
0000
0000
0000
0000
0000
0000
0000
0000
;

//---------------dance-single - Chewi----------------
#NOTES:
     dance-single:
     Chewi:
     Beginner:
     3:
     0.134,0.223,0.032,0.021,0.000:
0000
0000
0000
0000
,
0000
0000
0000
0000
,
0000
0000
0000
0000
,
0000
0000
0000
0000
,
1000
0000
0000
0000
,
1000
0000
0000
0000
,
0001
0000
0000
0000
,
0001
0000
0000
0000
,
0010
0000
0000
0000
,
0010
0000
0000
0000
,
0100
0000
0000
0000
,
0100
0000
0000
0000
,
1000
0000
1000
0000
,
1000
0000
0000
0000
,
0001
0000
0001
0000
,
0001
0000
0000
0000
,
1001
0000
0000
0000
,
1000
0000
0000
0000
,
0001
0000
0000
0000
,
0010
0000
0000
0000
,
0100
0000
0000
0000
,
0010
0000
0000
0000
,
0001
0000
0000
0000
,
1001
0000
0000
0000
,
0001
0000
0001
0000
,
0001
0000
0000
0000
,
0010
0000
0010
0000
,
0010
0000
0000
0000
,
0100
0000
0100
0000
,
0100
0000
0000
0000
,
1000
0000
1000
0000
,
1000
0000
0000
0000
,
0001
0000
0100
0000
,
1000
0000
0100
0000
,
0002
0000
0000
0003
,
0001
0000
0000
0000
,
1000
0000
0100
0000
,
0001
0000
0100
0000
,
2000
0000
0000
3000
,
1000
0000
0000
0000
,
0010
0000
0010
0000
,
0010
0000
0000
0000
,
0100
0000
0100
0000
,
0100
0000
0000
0000
,
0001
0000
1000
0000
,
0001
0000
0000
0000
,
1000
0000
0001
0000
,
1000
0000
0000
0000
,
0100
0100
0100
0100
,
0100
0000
0100
0000
,
0100
0000
0000
0000
,
0010
0000
0010
0000
,
0010
0000
0000
0000
,
1000
0000
1000
0000
,
1000
0000
0000
0000
,
0001
0000
0001
0000
,
0001
0000
0001
0000
,
1001
0000
0000
0000
,
0100
0100
0000
0000
,
0010
0010
0010
0010
,
0010
0000
0000
0000
;
