#TITLE:SPECIAL SUMMER CAMPAIGN!;
#SUBTITLE:;
#ARTIST:Lucky Vacuum;
#TITLETRANSLIT:;
#SUBTITLETRANSLIT:;
#ARTISTTRANSLIT:;
#CREDIT:Chewi☆;
#BANNER:SPECIAL SUMMER CAMPAIGN!.png;
#BACKGROUND:SPECIAL SUMMER CAMPAIGN!-bg.png;
#LYRICSPATH:;
#CDTITLE:;
#MUSIC:SPECIAL SUMMER CAMPAIGN!.mp3;
#OFFSET:-0.564;
#SAMPLESTART:74.861;
#SAMPLELENGTH:15.000;
#SELECTABLE:YES;
#BPMS:0.000=168.000;
#STOPS:;
#BGCHANGES:;

//---------------dance-single - Chewi----------------
#NOTES:
     dance-single:
     Chewi:
     Beginner:
     3:
     0.188,0.225,0.038,0.000,0.000: // measure 1
0000
0000
0000
0000
,  // measure 2
0000
0000
0000
0000
,  // measure 3
0000
0000
0000
0000
,  // measure 4
0000
0000
0000
0000
,  // measure 5
1000
0000
1000
0000
,  // measure 6
0001
0000
0001
0000
,  // measure 7
0100
0000
0100
0000
,  // measure 8
0010
0000
0010
0000
,  // measure 9
0010
0000
1000
0000
,  // measure 10
0010
0000
0001
0000
,  // measure 11
0010
0000
1000
0000
,  // measure 12
0010
0000
0001
0000
,  // measure 13
0100
0000
0001
0000
,  // measure 14
0100
0000
1000
0000
,  // measure 15
0100
0000
0001
0000
,  // measure 16
0100
0000
1000
0000
,  // measure 17
0010
0000
0010
0000
,  // measure 18
1000
0000
1000
0000
,  // measure 19
0100
0000
0100
0000
,  // measure 20
0010
0000
0100
0000
,  // measure 21
0001
0000
0001
0000
,  // measure 22
1000
0000
1000
0000
,  // measure 23
0010
0000
0010
0000
,  // measure 24
0100
0000
0010
0000
,  // measure 25
0001
0000
0100
0000
,  // measure 26
0001
0000
0100
0000
,  // measure 27
0001
0000
0001
0000
,  // measure 28
0010
0000
0001
0000
,  // measure 29
1000
0000
1000
0000
,  // measure 30
1000
0000
1000
0000
,  // measure 31
0100
0000
0100
0000
,  // measure 32
0010
0000
0100
0000
,  // measure 33
0001
0000
0100
0000
,  // measure 34
0001
0000
0100
0000
,  // measure 35
1000
0000
0010
0000
,  // measure 36
1000
0000
0010
0000
,  // measure 37
0100
0000
0100
0000
,  // measure 38
0010
0000
0010
0000
,  // measure 39
0001
0000
0001
0000
,  // measure 40
1000
0000
1000
0000
,  // measure 41
1001
0000
0000
0000
,  // measure 42
1000
1000
1000
0000
,  // measure 43
0110
0000
0000
0000
,  // measure 44
0010
0010
0010
0000
,  // measure 45
0100
0100
0100
0000
,  // measure 46
0010
0010
0010
0000
,  // measure 47
1000
1000
1000
0000
,  // measure 48
0001
0001
0001
0000
,  // measure 49
1000
1000
1000
0000
,  // measure 50
0001
0001
0001
0000
,  // measure 51
0010
0010
0010
0000
,  // measure 52
0110
0000
0000
0000
,  // measure 53
0001
0000
0100
0000
,  // measure 54
0001
0000
0100
0000
,  // measure 55
0001
0000
0001
0000
,  // measure 56
0010
0000
0001
0000
,  // measure 57
1000
0000
1000
0000
,  // measure 58
1000
0000
1000
0000
,  // measure 59
0100
0000
0100
0000
,  // measure 60
0010
0000
0100
0000
,  // measure 61
0001
0000
0100
0000
,  // measure 62
0001
0000
0100
0000
,  // measure 63
1000
0000
0010
0000
,  // measure 64
1000
0000
0010
0000
,  // measure 65
0100
0000
0100
0000
,  // measure 66
0010
0000
0010
0000
,  // measure 67
0001
0000
0001
0000
,  // measure 68
1000
0000
1000
0000
,  // measure 69
1001
0000
0000
0000
;

//---------------dance-single - Chewi----------------
#NOTES:
     dance-single:
     Chewi:
     Easy:
     6:
     0.307,0.321,0.038,0.038,0.000: // measure 1
0000
0000
0000
0000
,  // measure 2
0000
0000
0000
0000
,  // measure 3
0000
0000
0000
0000
,  // measure 4
0000
0000
0000
0000
,  // measure 5
1000
1000
1000
0000
,  // measure 6
0001
0001
0001
0000
,  // measure 7
0100
0100
0100
0000
,  // measure 8
0010
0010
0010
0000
,  // measure 9
0010
0000
1000
0000
,  // measure 10
0100
0000
0001
0000
,  // measure 11
0010
0000
1000
0000
,  // measure 12
0100
0000
1000
0000
,  // measure 13
0010
0000
0001
0000
,  // measure 14
0100
0000
1000
0000
,  // measure 15
0010
0000
0001
0000
,  // measure 16
0100
0000
0001
0000
,  // measure 17
0010
0010
0010
0010
,  // measure 18
1000
1000
1000
1000
,  // measure 19
0100
0100
0100
0100
,  // measure 20
0010
0001
0100
0000
,  // measure 21
0001
0001
0001
0001
,  // measure 22
1000
1000
1000
1000
,  // measure 23
0010
0010
0010
0010
,  // measure 24
0100
0001
0010
0000
,  // measure 25
0001
0010
0100
1000
,  // measure 26
0001
0010
0100
1000
,  // measure 27
0001
1000
0001
1000
,  // measure 28
0010
0100
0001
0000
,  // measure 29
1000
0100
1000
0100
,  // measure 30
1000
0010
1000
0010
,  // measure 31
0100
0001
0100
0001
,  // measure 32
0010
0001
0100
0000
,  // measure 33
0001
1000
0100
1000
,  // measure 34
0001
1000
0100
0100
,  // measure 35
1000
0001
0010
0001
,  // measure 36
1000
0001
0010
0010
,  // measure 37
0100
0100
0100
0100
,  // measure 38
0010
0010
0010
0010
,  // measure 39
0001
0001
0001
0001
,  // measure 40
1000
1000
1000
1000
,  // measure 41
2002
0000
3003
0000
,  // measure 42
1000
0001
1000
0000
,  // measure 43
0220
0000
0330
0000
,  // measure 44
0010
0100
0010
0000
,  // measure 45
0100
0010
0010
0000
,  // measure 46
0010
1000
1000
0000
,  // measure 47
1000
1000
0100
0100
,  // measure 48
0001
0001
0010
0010
,  // measure 49
1000
1000
1000
1000
,  // measure 50
0001
0001
0001
0001
,  // measure 51
0010
0010
0010
0010
,  // measure 52
0110
0000
0000
0100
,  // measure 53
0001
0010
0100
1000
,  // measure 54
0001
0010
0100
1000
,  // measure 55
0001
1000
0001
1000
,  // measure 56
0010
0100
0001
0000
,  // measure 57
1000
0100
1000
0100
,  // measure 58
1000
0010
1000
0010
,  // measure 59
0100
0001
0100
0001
,  // measure 60
0010
0001
0100
0000
,  // measure 61
0001
1000
0100
1000
,  // measure 62
0001
1000
0100
0100
,  // measure 63
1000
0001
0010
0001
,  // measure 64
1000
0001
0010
0010
,  // measure 65
0100
0100
0100
0100
,  // measure 66
0010
0010
0010
0010
,  // measure 67
0001
0001
0001
0001
,  // measure 68
1000
1000
1000
1000
,  // measure 69
1001
0000
0000
0000
;

//---------------dance-single - Chewi----------------
#NOTES:
     dance-single:
     Chewi:
     Medium:
     8:
     0.431,0.514,0.312,0.198,0.005: // measure 1
0000
0000
0000
0000
,  // measure 2
0000
0000
0000
0000
,  // measure 3
0000
0000
0000
0000
,  // measure 4
0000
0000
0000
0000
,  // measure 5
1000
0100
0001
0010
,  // measure 6
1000
0100
1000
0100
,  // measure 7
1000
0010
0001
0100
,  // measure 8
1000
0100
1000
0100
,  // measure 9
2002
0000
0000
3003
,  // measure 10
0010
0100
1000
0000
0010
0100
0001
0000
,  // measure 11
0202
0000
0000
0303
,  // measure 12
0001
0100
0010
0000
1000
0100
0010
0000
,  // measure 13
0110
0000
0010
0100
,  // measure 14
1100
0000
1000
0001
,  // measure 15
0011
1000
1100
1000
,  // measure 16
0001
1000
0001
0000
1000
0001
1000
0000
,  // measure 17
0002
0023
0032
0203
,  // measure 18
0301
0100
0010
0000
1000
0100
0010
0000
,  // measure 19
0200
2300
3020
2030
,  // measure 20
3100
0010
0100
0000
1000
0001
1000
0000
,  // measure 21
0020
0230
0302
0203
,  // measure 22
0310
1000
0100
0000
0010
0001
0100
0000
,  // measure 23
0002
2003
3200
2300
,  // measure 24
3100
1000
0010
0000
1000
0001
0100
0000
,  // measure 25
0101
0010
0101
0010
,  // measure 26
0001
0010
0100
0000
0001
0010
0100
0000
,  // measure 27
1100
0010
1100
0010
,  // measure 28
1000
0010
0100
0000
1000
0010
0100
0000
,  // measure 29
1001
0001
1001
0001
,  // measure 30
1000
0001
1000
0000
0001
1000
0001
0000
,  // measure 31
0101
1000
0101
1000
,  // measure 32
0010
0100
0001
0000
0010
0100
1000
0010
,  // measure 33
0100
0000
0100
0010
0000
0010
0000
0100
,  // measure 34
0000
0001
0000
0010
0000
0001
1000
0000
,  // measure 35
1000
0000
0010
1000
0000
0010
0000
0100
,  // measure 36
0000
0001
0000
0001
0000
0100
0000
0010
,  // measure 37
1000
0000
1000
0001
0000
0001
0000
0000
,  // measure 38
0001
0000
0001
1000
0000
1000
0000
0000
,  // measure 39
1000
0000
1000
0100
0000
0010
0000
0000
,  // measure 40
0001
0000
0000
0001
0000
0000
0001
0000
0000
0000
1000
0000
0001
0000
0000
0000
,  // measure 41
1001
1001
1001
0000
,  // measure 42
1000
0010
0100
0000
,  // measure 43
0101
0101
0101
0000
,  // measure 44
0001
0010
0100
1000
,  // measure 45
1100
1100
1100
0000
,  // measure 46
0011
0011
0011
0000
,  // measure 47
1001
0000
0001
0000
,  // measure 48
1000
0000
1001
0000
,  // measure 49
0100
0100
0010
0010
,  // measure 50
1000
1000
0001
0001
,  // measure 51
1000
0100
1000
0000
0002
0000
1003
0000
,  // measure 52
1001
0000
0000
0100
,  // measure 53
0001
0010
1000
0100
,  // measure 54
0001
0010
0100
1100
,  // measure 55
1000
0100
0001
0100
,  // measure 56
1000
0010
0001
0010
,  // measure 57
1000
0100
0001
0010
,  // measure 58
1000
0100
0010
0011
,  // measure 59
0001
0010
1000
0010
,  // measure 60
0001
0100
1000
0100
,  // measure 61
0100
0001
0010
1000
,  // measure 62
0100
0001
1000
1010
,  // measure 63
0010
1000
0100
1000
,  // measure 64
0010
0001
0100
0001
,  // measure 65
0010
1000
0100
0001
,  // measure 66
0010
1000
0001
0101
,  // measure 67
0100
0001
0010
0001
,  // measure 68
0100
1000
0010
1000
,  // measure 69
0001
0000
0000
0000
;

//---------------dance-single - Chewi----------------
#NOTES:
     dance-single:
     Chewi:
     Hard:
     11:
     0.520,0.578,0.312,0.180,0.128: // measure 1
0000
0000
0000
0000
,  // measure 2
0000
0000
0000
0000
,  // measure 3
0000
0000
0000
0000
,  // measure 4
0000
0000
0000
0000
,  // measure 5
0001
0000
0001
0000
0010
0000
0100
1000
,  // measure 6
0010
0000
0010
0000
0100
0000
0001
1000
,  // measure 7
1100
0100
0011
0010
,  // measure 8
0001
0000
0000
1000
0000
0000
0001
0000
0000
0000
1000
0000
1001
0000
0000
0000
,  // measure 9
0010
0000
0010
0000
0001
0000
0100
0001
,  // measure 10
0010
0000
0010
0000
0100
0000
1000
0001
,  // measure 11
0100
0000
0100
0000
0001
0000
1000
0100
,  // measure 12
0001
0000
0001
0000
0100
0000
1000
0001
,  // measure 13
1001
1000
0001
0000
0100
0010
1000
0000
,  // measure 14
1001
0001
1000
0000
0100
0010
0001
0000
,  // measure 15
0011
0010
1100
0100
,  // measure 16
1000
0000
0000
0001
0000
0000
1000
0000
0000
0000
0001
1000
0001
0000
0000
0000
,  // measure 17
1010
0000
0100
0000
0010
0100
0001
0000
,  // measure 18
1000
0100
0010
0000
0001
1000
0010
0000
,  // measure 19
0100
0001
1000
0000
0100
0010
0001
0000
,  // measure 20
0010
0100
1000
0100
0001
0010
0001
0100
,  // measure 21
1000
0000
1000
0000
0100
0000
0010
0001
,  // measure 22
0100
0000
0100
0000
0010
0000
1000
0001
,  // measure 23
0101
0100
0110
0010
,  // measure 24
1000
0000
0000
0001
0000
0000
1000
0000
0000
0000
0001
1000
0001
0000
0000
0000
,  // measure 25
0011
0000
0100
0000
1000
0001
0100
0000
,  // measure 26
0010
0000
0100
0000
0001
1000
0100
0010
,  // measure 27
0001
0000
0100
0000
0010
1000
0100
0000
,  // measure 28
0010
0001
0100
0010
1000
0001
1000
0100
,  // measure 29
1100
0000
0010
0000
0001
1000
0010
0000
,  // measure 30
0100
0000
0010
0000
1000
0001
0010
0100
,  // measure 31
1000
0000
0010
0000
0100
0001
0010
0000
,  // measure 32
0100
1000
0010
0100
0001
1000
0001
0010
,  // measure 33
0100
0000
0100
1000
0000
1000
0000
0100
,  // measure 34
0000
0010
0001
0010
0000
0001
0010
0100
,  // measure 35
1000
0000
0010
1000
0000
0010
0000
0100
,  // measure 36
0000
0001
0100
0001
0100
0000
0100
0010
,  // measure 37
1000
0000
0001
0100
0000
0001
0000
0010
,  // measure 38
0100
0000
1000
1000
0000
0010
0000
0100
,  // measure 39
0001
0000
1000
0001
0000
0100
0001
0010
,  // measure 40
0100
0000
0000
1000
0000
0000
0100
0000
0000
0000
1000
0000
1001
0000
0000
0000
,  // measure 41
1001
0000
0101
0000
1001
0000
0000
0001
,  // measure 42
0010
0100
2000
3000
,  // measure 43
1100
0000
1010
0000
1100
0000
0000
1000
,  // measure 44
0100
0000
0010
0001
0020
0000
0030
0000
,  // measure 45
0011
1100
0202
0303
,  // measure 46
0101
1010
2002
3003
,  // measure 47
2002
3003
2200
3300
,  // measure 48
0220
0330
0022
0033
,  // measure 49
0101
0100
1010
1000
,  // measure 50
1100
0100
0110
0010
,  // measure 51
0001
0010
0100
0010
0001
0100
0010
0100
,  // measure 52
0002
0000
0000
1003
,  // measure 53
0001
0000
0000
0001
0000
0000
0001
0000
0000
0000
0100
0000
0100
0000
0001
0000
,  // measure 54
0010
0000
0000
0010
0000
0000
0010
0000
0000
0000
0001
0000
0001
0000
0010
0000
,  // measure 55
0001
0000
0000
0001
0000
0000
0001
0000
0010
0000
0000
0010
0000
0000
0010
0000
,  // measure 56
0001
0000
0000
0010
0000
0000
0100
0000
1000
0000
0000
1000
0000
0000
1000
0000
,  // measure 57
1000
0000
0000
1000
0000
0000
1000
0000
0000
0000
0010
0000
0010
0000
1000
0000
,  // measure 58
0100
0000
0000
0100
0000
0000
0100
0000
0000
0000
1000
0000
1000
0000
0100
0000
,  // measure 59
1000
0000
0000
1000
0000
0000
1000
0000
0100
0000
0000
0100
0000
0000
0100
0000
,  // measure 60
1000
0000
0000
0100
0000
0000
0010
0000
0001
0000
0000
0001
0000
0000
0001
0000
,  // measure 61
0001
0000
0000
0001
0000
0000
0001
0000
0000
0000
0100
0000
0100
0000
0001
0000
,  // measure 62
1000
0000
0000
1000
0000
0000
1000
0000
0000
0000
0010
0000
0010
0000
1000
0000
,  // measure 63
0100
0000
0000
0100
0000
0000
0100
0000
0010
0000
0000
0010
0000
0000
0010
0000
,  // measure 64
0001
0000
0000
0010
0000
0000
0001
0000
1000
0000
0000
0100
0000
0000
1000
0000
,  // measure 65
1000
0000
0001
0000
0100
0010
0000
1000
,  // measure 66
0000
0000
0010
0000
0000
0000
1000
0000
0001
0000
0000
0010
0000
0000
0100
0000
,  // measure 67
1000
0000
0000
1000
0000
0000
1000
0000
0001
0000
0000
0001
0000
0000
0001
0000
,  // measure 68
2000
3200
0320
0032
,  // measure 69
1003
0000
0000
0000
;

//---------------dance-single - Chewi----------------
#NOTES:
     dance-single:
     Chewi:
     Challenge:
     14:
     0.658,0.675,0.463,0.076,0.544: // measure 1
0000
0000
0000
0000
,  // measure 2
0000
0000
0000
0000
,  // measure 3
0000
0000
0000
0000
,  // measure 4
0000
0000
0000
0000
,  // measure 5
1000
0100
1000
0100
0000
0010
0000
0002
0000
0000
0000
0000
0103
0000
0100
0000
,  // measure 6
0010
1000
0010
1000
0000
0001
0000
0010
0000
0100
0000
1000
0100
0010
0001
0000
,  // measure 7
0010
0001
0010
0001
0000
0100
0000
0002
0000
0000
0000
0000
0013
0000
0010
0000
,  // measure 8
0100
0000
0000
1000
0000
0000
1001
0000
0000
0000
0100
0000
0110
0000
0000
0000
,  // measure 9
0100
0001
0100
0001
0000
1000
0000
0020
0000
0000
0000
0000
1030
0000
1000
0000
,  // measure 10
0001
0010
0001
0010
0000
0100
0000
1000
0000
0001
0000
0100
0001
1000
0010
0000
,  // measure 11
1000
0010
1000
0010
0000
0001
0000
0020
0000
0000
0000
0000
0031
0000
0001
0000
,  // measure 12
1000
0000
0000
0010
0000
0000
0100
0000
0110
0000
1000
0000
1001
0000
1000
0000
,  // measure 13
0001
0010
0100
1000
0000
0010
0000
1000
0000
0010
0000
1000
0001
0000
0010
0000
,  // measure 14
0001
0010
0001
0010
0000
0010
0000
0001
0000
0100
0001
0000
0001
0000
0100
0000
,  // measure 15
0010
0000
0000
1000
0000
0000
0101
0000
0010
0000
0000
0001
0000
0000
1100
0000
,  // measure 16
1001
0000
0000
1001
0000
0000
1001
0000
0000
0000
0010
0100
0010
0000
0000
0000
,  // measure 17
1000
0000
0001
0000
0001
0100
0000
0001
0100
0000
0000
0001
0000
0000
0010
0000
,  // measure 18
0100
0000
1000
0000
0100
1000
0000
1000
0100
0000
0000
1000
0000
0000
0010
0000
,  // measure 19
0001
0000
0100
0000
1000
0010
0000
0010
0100
0000
0000
0001
0000
0000
0001
0000
,  // measure 20
1000
0010
1000
0001
0010
0000
0100
0000
1000
0100
1000
0100
0010
0000
0001
0000
,  // measure 21
1000
0100
0010
0001
0000
0100
0000
0001
0000
0100
0000
0001
1000
0000
0010
0000
,  // measure 22
1000
0100
1000
0100
0000
0100
0000
1000
0000
0010
1000
0000
1000
0000
0010
0000
,  // measure 23
0100
0000
0000
0001
0000
0000
1010
0000
0100
0000
0000
1000
0000
0000
0011
0000
,  // measure 24
1001
0000
0000
1001
0000
0000
1001
0000
0000
0000
0100
0010
0100
0000
0000
0000
,  // measure 25
1010
0100
0010
0100
0001
1000
0100
0010
,  // measure 26
0001
1000
0010
0100
0001
1000
0100
0010
,  // measure 27
0001
0010
0100
1000
0001
1000
0010
1000
,  // measure 28
0100
0010
0001
0100
0010
0100
0001
1000
,  // measure 29
0010
0100
0001
1000
0100
0010
0001
1000
,  // measure 30
0100
1000
0010
1000
0010
1000
0100
1000
,  // measure 31
0100
0010
0001
1000
0001
0010
0100
1000
,  // measure 32
0010
1000
0001
1000
0100
0010
0100
1000
,  // measure 33
0100
0000
0100
1000
0000
1000
0000
0010
,  // measure 34
0000
0001
0010
0001
0000
0001
0010
0001
,  // measure 35
0010
0000
0010
0010
0000
1000
0000
0100
,  // measure 36
0000
1000
0100
0001
0100
0000
0100
0010
,  // measure 37
1000
0000
0001
0100
0000
0001
0000
0010
,  // measure 38
0100
0000
1000
1000
0000
0010
0000
0100
,  // measure 39
0001
0000
1000
0001
0000
0100
0001
0010
,  // measure 40
0100
0000
0000
1000
0000
0000
0100
0000
0000
0000
0001
0000
0011
0000
0000
0000
,  // measure 41
1100
0000
0000
0000
1100
0000
0000
0000
0101
0000
0000
0000
0000
0000
0100
0001
,  // measure 42
0010
0100
1000
0010
0100
0000
0000
0000
,  // measure 43
0101
0000
0000
0000
0101
0000
0000
0000
1010
0000
0000
0000
0000
0000
0010
1000
,  // measure 44
0100
0010
0001
0010
0100
0000
0000
0000
,  // measure 45
0011
0011
1010
0000
,  // measure 46
1010
1010
1001
0000
,  // measure 47
1100
0000
0101
0000
,  // measure 48
0011
0000
1010
0000
,  // measure 49
1100
1100
0011
0011
,  // measure 50
1001
0101
1001
1100
,  // measure 51
0010
0000
1000
0000
0100
0000
0010
0000
0001
0010
0001
0010
0100
1000
0100
1000
,  // measure 52
0001
0000
0000
1001
,  // measure 53
0001
0000
0000
0001
0000
0000
0100
0001
0000
0001
0100
0000
0100
0000
0001
0000
,  // measure 54
0010
0000
0000
0010
0000
0000
0001
0010
0000
0010
0001
0000
0001
0000
0010
0000
,  // measure 55
0001
0000
0000
0001
0000
0000
0001
0000
0010
0000
0000
0010
0000
0000
0010
0000
,  // measure 56
0001
0000
0000
0010
0000
0000
0100
0000
1000
0000
0000
1000
0000
0000
1000
0000
,  // measure 57
1000
0000
0000
1000
0000
0000
0010
1000
0000
1000
0010
0000
0010
0000
1000
0000
,  // measure 58
0100
0000
0000
0100
0000
0000
1000
0100
0000
0100
1000
0000
1000
0000
0100
0000
,  // measure 59
1000
0000
0000
1000
0000
0000
1000
0000
0100
0000
0000
0100
0000
0000
0100
0000
,  // measure 60
1000
0000
0000
0100
0000
0000
0010
0000
0001
0000
0000
0001
0000
0000
0001
0000
,  // measure 61
0001
0000
0000
0001
0000
0000
0100
0001
0000
0001
0100
0000
0100
0000
0001
0000
,  // measure 62
1000
0000
0000
1000
0000
0000
0010
1000
0000
1000
0010
0000
0010
0000
1000
0000
,  // measure 63
0100
0000
0000
0100
0000
0000
0100
0000
0010
0000
0000
0010
0000
0000
0010
0000
,  // measure 64
0001
0000
0000
0011
0000
0000
1001
0000
1000
0000
0000
1100
0000
0000
1001
0000
,  // measure 65
1000
0000
0010
0000
0001
0100
0000
1000
,  // measure 66
0000
0000
0010
0000
0000
0000
1000
0000
0001
0000
0000
0010
0000
0000
0100
0000
,  // measure 67
1000
0000
0000
1100
0000
0000
1001
0000
0001
0000
0000
0101
0000
0000
1001
0000
,  // measure 68
0002
0203
2300
3020
,  // measure 69
0031
0000
0000
0000
;
