#TITLE:月夜を二人で抜け出す程度の能力;
#SUBTITLE:;
#ARTIST:IOSYS;
#TITLETRANSLIT:SPECIAL ABILITY FOR TWO PEOPLE TO SNEAK OUT INTO THE MOONLIT NIGHT;
#SUBTITLETRANSLIT:;
#ARTISTTRANSLIT:;
#GENRE:;
#CREDIT:TaroNuke & Chewi☆;
#MENUCOLOR:;
#METERTYPE:DDR X;
#BANNER:SPECIAL ABILITY FOR TWO PEOPLE TO SNEAK OUT INTO THE MOONLIT NIGHT.png;
#BACKGROUND:SPECIAL ABILITY FOR TWO PEOPLE TO SNEAK OUT INTO THE MOONLIT NIGHT-bg.png;
#LYRICSPATH:;
#CDTITLE:;
#MUSIC:SPECIAL ABILITY FOR TWO PEOPLE TO SNEAK OUT INTO THE MOONLIT NIGHT.ogg;
#OFFSET:-0.249;
#SAMPLESTART:62.435;
#SAMPLELENGTH:15.000;
#SELECTABLE:YES;
#LISTSORT:;
#BPMS:0.000=216.000;
#STOPS:;
#BGCHANGES:;
#ATTACKS:;

//---------------dance-single - TaroNuke----------------
#NOTES:
     dance-single:
     TaroNuke:
     Hard:
     14:
     0.778,0.761,0.611,0.402,0.000:
0000
0000
0000
0000
,
0000
0000
0000
0000
,
0000
0000
0000
0000
,
0000
0000
0000
0000
,
0000
0000
0000
0000
,
0000
0000
0000
0000
,
0000
0000
0000
0000
,
0000
0000
0000
0000
,
1000
0000
0001
0000
1000
0100
0010
0000
,
0001
0000
0100
0010
1000
0010
0100
0000
,
0001
0000
1000
0000
0001
0100
0010
0000
,
1000
0000
0100
0010
0001
0010
0100
0000
,
0010
0000
0100
0000
0010
0001
1000
0000
,
0010
0000
0100
0001
0010
0001
1000
0000
,
0100
0000
0010
0000
0100
1000
0001
0000
,
0100
0000
0001
0100
0010
1000
0001
0000
,
1000
0000
0010
0000
0100
0001
1000
0000
,
0010
0000
1000
0100
0001
0100
1000
0000
,
0001
0000
0010
0000
0100
1000
0001
0000
,
0010
0000
0001
0100
1000
0100
0001
0000
,
1000
0000
0100
0000
0010
0001
1000
0000
,
0100
0000
0010
0100
0001
0100
0010
0000
,
0001
0000
0100
0000
0010
1000
0001
0000
,
0100
0000
0010
0100
1000
0100
0010
0000
,
1000
0010
0100
0001
0000
1000
0010
0100
,
0000
0001
1000
0000
1001
0000
0000
0000
,
0001
0010
0100
1000
0000
0001
0010
0100
,
0000
1000
0001
0000
1001
0000
1000
0001
,
1000
0010
0100
0001
0000
0010
0100
0001
,
0000
0100
1000
0000
1001
0000
0001
1000
,
0001
0010
0100
1000
0000
0010
0100
1000
,
0000
0100
0001
0000
1001
0000
1000
0001
,
2000
0000
3000
0100
0020
0000
0030
0002
,
0000
0003
0010
0100
1000
0010
0100
0001
,
2000
0000
3000
0001
0200
0000
0300
0101
,
0000
0101
0000
1000
0100
0010
0001
1000
,
0002
0000
0003
0100
0020
0000
0030
2000
,
0000
3000
0001
0010
0100
1000
0010
0100
,
0002
0000
0000
0203
0000
0000
0301
0100
,
0000
0100
0001
1000
0010
0100
0001
0010
,
0200
0000
0300
0001
0200
0000
0300
0020
,
0000
0030
0001
0010
0100
1000
0010
0100
,
0020
0000
0030
0001
0020
0000
0030
1010
,
0000
1010
0000
0001
0010
0100
1000
0010
,
0200
0000
0300
1000
0200
0000
0300
0020
,
0000
0030
1000
0100
0010
0001
1000
0010
,
0200
0000
0300
0001
0020
0000
0030
0011
,
0000
1000
0100
0001
0100
0010
0001
0000
,
1010
0011
1100
0011
,
1000
0000
0010
0100
0000
0100
0001
1000
,
0010
0000
1010
0000
1000
0100
0010
0001
,
0000
1000
0010
0100
0001
0000
1000
0010
,
1000
0100
0010
0001
0100
0010
0100
0001
,
0010
0100
1000
0001
0100
0010
1000
0100
,
0010
0001
0010
0100
1000
0001
0100
0010
,
2000
0000
0000
3001
,
1001
0000
1001
0000
0001
0100
0001
0100
,
0000
0101
0000
0101
0000
0001
0010
0100
,
1000
0000
0010
1000
0001
1000
0010
0100
,
0000
0110
0000
0000
0000
1000
0010
0000
,
1001
0000
1001
0000
1000
0010
0000
1100
,
0000
0011
0000
0012
0000
0000
0103
0000
,
1001
0000
1001
0000
1000
0100
1000
0001
,
0000
0010
0000
0100
0000
1000
0000
0000
,
1001
0000
1000
0100
1000
0100
0010
0001
,
0000
0101
0000
0101
0000
1000
0100
0010
,
0001
0100
0001
1000
0001
0100
0010
1000
,
0000
0011
0000
0000
0000
1000
0100
0000
,
0011
0000
0011
0000
0000
1100
0000
1100
,
0000
1010
0000
1010
0000
0000
1100
0000
,
1001
0000
1001
0000
0000
0100
0010
0001
,
0000
0011
0000
0110
0000
1100
0000
0000
,
0001
0000
0100
0000
0010
1000
0000
0011
,
0000
0011
0000
1000
0010
0100
0010
0100
,
0001
0000
0010
0000
0100
1000
0000
0001
,
0000
1010
0000
0001
0010
0001
0010
0100
,
2000
0000
3100
0000
0002
0103
0000
1010
,
0000
1010
0000
1000
0100
1000
0100
0010
,
0002
0000
0103
0000
2000
3100
0000
0011
,
0000
0001
0100
0010
1000
0001
0010
0100
,
1000
0000
0101
0000
1100
0000
0001
0100
,
0000
0100
0010
1000
0001
0000
1010
0000
,
1000
0100
0010
0001
0000
1000
0000
0011
,
0000
1000
0010
1000
0100
0000
0011
0000
,
1000
0010
0100
0001
0010
0100
0010
0001
,
1000
0010
1000
0001
0100
0010
1000
0100
,
0010
0001
0010
0100
1000
0010
0100
0010
,
1000
0100
0010
0100
1000
0001
0100
0010
,
1000
0001
0010
0001
1000
0100
0010
0100
,
1000
0010
0100
0001
0010
0100
1000
0001
,
0100
0010
0100
0001
0010
0100
1000
0001
,
0100
0010
0100
0001
1000
0010
0100
0010
,
1000
0100
0010
0001
1000
0010
0100
0001
,
1000
0100
0010
0001
0010
0100
1000
0100
,
0010
0001
0010
0100
1000
0001
0100
0010
,
1000
0010
0100
0001
0010
0000
1100
0000
,
0021
0000
0030
1200
0000
0000
0300
0000
,
0000
1100
0110
0011
,
0002
0000
0000
0023
0000
0000
0032
0000
,
0003
0110
1100
0110
,
0021
0000
0030
1200
0000
0000
0300
0000
,
0000
0101
0110
1010
,
0020
0000
0000
2030
0000
0000
3020
0000
,
0030
0000
0101
1001
,
0021
0000
0030
1200
0000
0000
0300
0000
,
0000
1100
1001
0011
,
0021
0000
0030
1200
0000
0000
0300
0000
,
0000
0101
1001
1010
,
0020
0000
0000
2030
0020
0000
0000
3030
,
0000
2000
3020
0230
,
0302
0000
0000
0023
0000
0000
0032
0000
,
0000
0203
2300
3200
,
0310
1000
0010
0100
0001
0010
0100
0001
,
0100
0010
0001
0010
0100
1000
0010
0100
,
1000
0100
0010
1000
0100
0010
0001
1000
,
0010
0100
0001
1000
0100
0001
0100
0000
;

//---------------dance-single - TaroNuke----------------
#NOTES:
     dance-single:
     TaroNuke:
     Medium:
     10:
     0.511,0.582,0.085,0.271,0.000:
0000
0000
0000
0000
,
0000
0000
0000
0000
,
0000
0000
0000
0000
,
0000
0000
0000
0000
,
0000
0000
0000
0000
,
0000
0000
0000
0000
,
0000
0000
0000
0000
,
0000
0000
0000
0000
,
1000
0001
0100
0010
,
1000
0000
0001
0100
0001
0100
0001
0000
,
1000
0001
0010
0100
,
1000
0000
0010
0100
0010
0100
0010
0000
,
1000
0010
0100
0001
,
1000
0000
0010
1000
0010
1000
0010
0000
,
1000
0100
0010
0001
,
1000
0000
0001
1000
0001
1000
0001
0000
,
1000
0001
0100
0010
,
1000
0000
0001
0100
0001
1000
0001
0000
,
1000
0001
0010
0100
,
1000
0000
0001
0010
0001
0100
0001
0000
,
1000
0010
0100
0001
,
1000
0000
0001
0100
0010
1000
0001
0000
,
1000
0100
0010
0001
,
1000
0000
0001
0100
0010
0000
0100
0010
,
2000
0000
0000
3002
0000
0000
0000
1003
,
0000
1000
0000
0000
0100
0000
0010
0000
,
0002
0000
0000
2003
0000
0000
0000
3001
,
0000
0001
0000
0000
0010
0000
0100
0000
,
2000
0000
0000
3002
0000
0000
0000
1003
,
0000
1000
0000
0000
0010
0000
0100
0000
,
0002
0000
0000
2003
0000
0000
0000
3001
,
0000
0001
0000
0000
0100
0000
0010
0000
,
2000
0000
3000
0100
0020
0000
0030
0002
,
0000
0003
0010
0000
0100
0000
1000
0000
,
2000
0000
3000
0001
0200
0000
0300
0000
,
0000
0000
0010
1000
,
0002
0000
0003
0100
0020
0000
0030
2000
,
0000
3000
0010
0000
0100
0000
0001
0000
,
0002
0000
0000
0203
0000
0000
0300
0000
,
0001
1000
0010
1000
,
0200
0000
0300
1000
0200
0000
0300
0020
,
0000
0030
0001
0000
0100
0000
0010
0000
,
0020
0000
0030
1000
0020
0000
0030
0000
,
1000
0001
0100
0010
,
0200
0000
0300
0001
0200
0000
0300
0020
,
0000
0030
1000
0000
0010
0000
0100
0000
,
0200
0000
0300
0001
0020
0000
0030
0000
,
0001
0001
1000
1000
,
0001
0010
0100
1000
,
0010
0100
0001
1000
,
0100
1000
0010
0100
,
0001
0010
0100
1000
,
0001
0100
0010
0100
,
0001
1000
0100
0010
,
0001
0010
0100
1000
,
0001
0100
0010
1000
,
0001
0100
0001
0100
0001
0100
0001
0000
,
1000
0100
1000
0100
,
0010
0001
0010
0001
0010
0001
0010
0000
,
0100
1000
0000
0000
,
0010
1000
0010
1000
0010
1000
0010
0000
,
0100
0000
0001
1000
0001
0000
0010
0000
,
0100
1000
0100
1000
0100
1000
0100
1000
,
0000
0100
0000
0010
0000
0001
0000
0000
,
0000
0000
0100
0001
0100
0001
0100
0000
,
0010
0010
1000
0001
,
1000
0010
1000
0010
1000
0010
1000
0100
,
0000
0010
0000
0000
0000
0100
0010
0000
,
0001
0000
0001
0000
0000
0100
0000
0100
,
0000
0010
0000
0010
0000
0000
1000
0000
,
0100
0000
1000
0000
0000
0100
0010
0001
,
0000
0010
0000
0100
0000
1000
0000
0000
,
0001
0000
0100
0000
0001
0100
0001
0000
,
0100
0000
0001
1000
0100
0000
1000
0000
,
0010
0000
0100
0000
0001
1000
0001
0000
,
1000
0000
0100
0000
0010
0000
0100
0010
,
0001
0000
0010
0000
0100
1000
0010
0000
,
0100
0000
0001
1000
0010
0000
0100
0000
,
0001
0010
0100
1000
,
0001
0100
0010
1000
,
0001
0010
0100
0010
,
0001
1000
0100
0010
,
0001
0100
0010
1000
,
0001
0100
0010
1000
,
0100
0010
0100
1000
,
0001
0010
0001
1000
,
0010
0100
0010
1000
,
0001
0100
0001
1000
,
0100
0010
0001
1000
,
0010
0100
0010
1000
,
0001
0010
0100
1000
,
0010
0100
0001
1000
,
0100
0010
0001
0100
,
0010
1000
0010
0100
,
0001
1000
0100
0010
,
0001
0000
1000
0000
0010
0100
0010
0100
,
0001
0000
0000
1100
0000
0000
0000
0000
,
0000
1000
0100
0010
,
0101
0000
0000
0011
0000
0000
0101
0000
,
0000
0010
1000
0010
,
0001
0000
0000
1100
0000
0000
0000
0000
,
0000
0001
0100
0010
,
1100
0000
0000
1010
0000
0000
1100
0000
,
0000
0000
1000
0001
,
0010
0000
0000
0101
0000
0000
0000
0000
,
0000
1000
0010
0100
,
0011
0000
0000
1100
0000
0000
0000
0000
,
0000
1000
0001
0100
,
0020
0000
0000
1030
0200
0000
0300
0000
,
0000
1000
0100
0010
,
0002
0000
0000
0023
0000
0000
0032
0000
,
0000
0013
0100
0010
,
0200
0000
0000
0000
,
0000
0000
0300
0000
,
2000
0000
0000
0000
,
0000
0000
0000
3001
;

//---------------dance-single - Chewi----------------
#NOTES:
     dance-single:
     Chewi:
     Easy:
     6:
     0.260,0.313,0.139,0.000,0.000: // measure 1
0000
0000
0000
0000
,  // measure 2
0000
0000
0000
0000
,  // measure 3
0000
0000
0000
0000
,  // measure 4
0000
0000
0000
0000
,  // measure 5
0000
0000
0000
0000
,  // measure 6
0000
0000
0000
0000
,  // measure 7
0000
0000
0000
0000
,  // measure 8
0000
0000
0000
0000
,  // measure 9
1000
0000
1000
0000
,  // measure 10
0001
0000
1000
0000
,  // measure 11
0001
0000
0001
0000
,  // measure 12
1000
0000
0001
0000
,  // measure 13
0010
0000
0010
0000
,  // measure 14
0010
0000
0010
0000
,  // measure 15
0100
0000
0100
0000
,  // measure 16
0100
0000
0010
0000
,  // measure 17
1000
0000
0100
0000
,  // measure 18
0010
0000
0001
0000
,  // measure 19
0001
0000
0100
0000
,  // measure 20
0010
0000
1000
0000
,  // measure 21
1000
0000
0010
0000
,  // measure 22
0100
0000
0001
0000
,  // measure 23
0001
0000
0010
0000
,  // measure 24
0100
0000
1000
0000
,  // measure 25
1000
0000
0010
0000
,  // measure 26
0001
0000
1001
0000
,  // measure 27
0001
0000
0010
0000
,  // measure 28
0001
0000
1001
0000
,  // measure 29
1000
0000
0100
0000
,  // measure 30
1000
0000
1001
0000
,  // measure 31
0100
0000
0100
0000
,  // measure 32
0001
0000
1001
0000
,  // measure 33
1000
0000
1000
0000
,  // measure 34
1000
0000
1000
0000
,  // measure 35
1000
0000
0100
0000
,  // measure 36
1000
0000
1000
0000
,  // measure 37
1000
0000
0010
0000
,  // measure 38
0100
0000
0100
0000
,  // measure 39
0100
0000
1000
0000
,  // measure 40
0010
0000
1000
0000
,  // measure 41
1000
0000
0010
0000
,  // measure 42
0100
0000
0100
0000
,  // measure 43
0100
0000
1000
0000
,  // measure 44
1000
0000
0010
0000
,  // measure 45
1000
0000
0100
0000
,  // measure 46
1000
0000
0010
0000
,  // measure 47
1000
0000
0100
0000
,  // measure 48
0100
0000
0100
0000
,  // measure 49
1010
0000
0100
0000
,  // measure 50
1000
0000
0010
0000
,  // measure 51
0010
0000
1000
0000
,  // measure 52
0010
0000
0001
0000
,  // measure 53
1000
0000
0100
0000
,  // measure 54
0010
0000
0100
0000
,  // measure 55
0010
0000
1000
0000
,  // measure 56
1000
0000
0001
0000
,  // measure 57
1001
0000
0001
0000
,  // measure 58
1000
0000
1000
0000
,  // measure 59
1000
0000
0001
0000
,  // measure 60
0010
0000
0010
0000
,  // measure 61
1001
0000
1000
0000
,  // measure 62
0001
0000
0100
0000
,  // measure 63
1001
0000
1000
0000
,  // measure 64
0001
0000
0010
0000
,  // measure 65
1001
0000
1000
0000
,  // measure 66
1000
0000
0100
0000
,  // measure 67
0001
0000
0001
0000
,  // measure 68
0001
0000
0100
0000
,  // measure 69
0011
0000
1000
0000
,  // measure 70
1000
0000
1000
0000
,  // measure 71
1001
0000
0100
0000
,  // measure 72
0100
0000
0100
0000
,  // measure 73
0001
0000
0010
0000
,  // measure 74
0100
0000
0010
0000
,  // measure 75
0001
0000
0100
0000
,  // measure 76
1000
0000
0010
0000
,  // measure 77
0100
0000
0001
0000
,  // measure 78
0100
0000
0100
0000
,  // measure 79
0010
0000
0100
0000
,  // measure 80
1000
0000
1000
0000
,  // measure 81
1000
0000
1100
0000
,  // measure 82
0001
0000
0001
0000
,  // measure 83
1000
0000
1000
0000
,  // measure 84
1000
0000
0100
0000
,  // measure 85
1000
0000
0010
0000
,  // measure 86
1000
0000
0100
0000
,  // measure 87
0010
0000
1000
0000
,  // measure 88
1000
0000
1000
0000
,  // measure 89
1000
0000
1000
0000
,  // measure 90
1000
0000
0010
0000
,  // measure 91
0100
0000
0010
0000
,  // measure 92
0100
0000
1000
0000
,  // measure 93
1000
0000
1000
0000
,  // measure 94
1000
0000
0010
0000
,  // measure 95
0010
0000
1000
0000
,  // measure 96
1000
0000
0010
0000
,  // measure 97
0001
0000
0100
0000
,  // measure 98
0100
0000
0110
0000
,  // measure 99
0001
0000
0001
0000
,  // measure 100
0001
0000
1100
0000
,  // measure 101
0001
0000
0001
0000
,  // measure 102
0001
0000
0110
0000
,  // measure 103
1000
0000
1000
0000
,  // measure 104
1000
0000
0101
0000
,  // measure 105
0001
0000
0100
0000
,  // measure 106
0001
0000
1001
0000
,  // measure 107
0001
0000
0100
0000
,  // measure 108
1000
0000
1001
0000
,  // measure 109
1000
0000
0100
0000
,  // measure 110
0001
0000
0010
0000
,  // measure 111
1000
0000
0010
0000
,  // measure 112
0001
0000
0100
0000
,  // measure 113
0010
0000
0001
0000
,  // measure 114
0100
0000
0100
0000
,  // measure 115
1000
0000
0100
0000
,  // measure 116
0010
0000
0100
0100
;

//---------------dance-single - Chewi----------------
#NOTES:
     dance-single:
     Chewi:
     Beginner:
     3:
     0.129,0.224,0.054,0.000,0.000:
0000
0000
0000
0000
,
0000
0000
0000
0000
,
0000
0000
0000
0000
,
0000
0000
0000
0000
,
0000
0000
0000
0000
,
0000
0000
0000
0000
,
0000
0000
0000
0000
,
0000
0000
0000
0000
,
1000
0000
0000
0000
,
0001
0000
0000
0000
,
0001
0000
0000
0000
,
1000
0000
0000
0000
,
0010
0000
0000
0000
,
0010
0000
0000
0000
,
0100
0000
0000
0000
,
0100
0000
0000
0000
,
1000
0000
0000
0000
,
0010
0000
0000
0000
,
0001
0000
0000
0000
,
0010
0000
0000
0000
,
1000
0000
0000
0000
,
0100
0000
0000
0000
,
0001
0000
0000
0000
,
0100
0000
0000
0000
,
1000
0000
0000
0000
,
0001
0000
0000
0000
,
0001
0000
0000
0000
,
0001
0000
0000
0000
,
1000
0000
0000
0000
,
1000
0000
0000
0000
,
0100
0000
0000
0000
,
0001
0000
0000
0000
,
1000
0000
0000
0000
,
1000
0000
0000
0000
,
1000
0000
0000
0000
,
1000
0000
0000
0000
,
1000
0000
0000
0000
,
0100
0000
0000
0000
,
0100
0000
0000
0000
,
0010
0000
0000
0000
,
1000
0000
0000
0000
,
0100
0000
0000
0000
,
0100
0000
0000
0000
,
1000
0000
0000
0000
,
1000
0000
0000
0000
,
1000
0000
0000
0000
,
1000
0000
0000
0000
,
0100
0000
0000
0000
,
1010
0000
0000
0000
,
1000
0000
0000
0000
,
0010
0000
0000
0000
,
0010
0000
0000
0000
,
1000
0000
0000
0000
,
0010
0000
0000
0000
,
0010
0000
0000
0000
,
1000
0000
0000
0000
,
1001
0000
0000
0000
,
1000
0000
0000
0000
,
1000
0000
0000
0000
,
0010
0000
0000
0000
,
1001
0000
0000
0000
,
0001
0000
0000
0000
,
1001
0000
0000
0000
,
0001
0000
0000
0000
,
1001
0000
0000
0000
,
1000
0000
0000
0000
,
0001
0000
0000
0000
,
0001
0000
0000
0000
,
0011
0000
0000
0000
,
1000
0000
0000
0000
,
1001
0000
0000
0000
,
0100
0000
0000
0000
,
0001
0000
0000
0000
,
0100
0000
0000
0000
,
0001
0000
0000
0000
,
1000
0000
0000
0000
,
0100
0000
0000
0000
,
0100
0000
0000
0000
,
0010
0000
0000
0000
,
1000
0000
0000
0000
,
1000
0000
0000
0000
,
0001
0000
0000
0000
,
1000
0000
0000
0000
,
1000
0000
0000
0000
,
1000
0000
0000
0000
,
1000
0000
0000
0000
,
0010
0000
0000
0000
,
1000
0000
0000
0000
,
1000
0000
0000
0000
,
1000
0000
0000
0000
,
0100
0000
0000
0000
,
0100
0000
0000
0000
,
1000
0000
0000
0000
,
1000
0000
0000
0000
,
0010
0000
0000
0000
,
1000
0000
0000
0000
,
0001
0000
0000
0000
,
0100
0000
0000
0000
,
0001
0000
0000
0000
,
0001
0000
0000
0000
,
0001
0000
0000
0000
,
0001
0000
0000
0000
,
1000
0000
0000
0000
,
1000
0000
0000
0000
,
0001
0000
0000
0000
,
0001
0000
0000
0000
,
0001
0000
0000
0000
,
1000
0000
0000
0000
,
1000
0000
0000
0000
,
0001
0000
0000
0000
,
1000
0000
0000
0000
,
0001
0000
0000
0000
,
0010
0000
0000
0000
,
0100
0000
0000
0000
,
1000
0000
0000
0000
,
0010
0000
0010
0010
;
