#TITLE:SON OF SUN;
#SUBTITLE:;
#ARTIST:Hosoe Shinji;
#TITLETRANSLIT:;
#SUBTITLETRANSLIT:;
#ARTISTTRANSLIT:;
#GENRE:Gabber;
#CREDIT:Chewphoria~;
#MENUCOLOR:#FF8800;
#METERTYPE:DDR;
#BANNER:SON OF SUN.png;
#BACKGROUND:SON OF SUN-bg.png;
#LYRICSPATH:;
#CDTITLE:;
#MUSIC:SON OF SUN.mp3;
#OFFSET:-4.959;
#SAMPLESTART:15.065;
#SAMPLELENGTH:15.000;
#SELECTABLE:YES;
#LISTSORT:;
#DISPLAYBPM:200.000;
#BPMS:0.000=200.050,28.000=400.108,36.000=200.050;
#STOPS:;
#BGCHANGES:-16.500=SON OF SUN.avi=1.000=1=0=1,
332.000=SON OF SUN-bg.png=1.000=1=0=1,
99999=-nosongbg-=1.000=0=0=0 // don't automatically add -songbackground-
;
#ATTACKS:;

//---------------dance-single - ----------------
#NOTES:
     dance-single:
     :
     Easy:
     5:
     0.407,0.454,0.299,0.019,0.000:
1000
0010
1000
0010
,
0000
0000
0000
0000
,
0000
0000
0000
0000
,
0000
0000
0000
0000
,
0001
0010
0001
0010
,
0000
0000
0000
0000
,
0000
0000
0000
0000
,
2002
0000
0000
0000
,
0000
0000
0000
3003
,
1000
1000
1000
1000
,
1000
1000
1000
1000
,
0001
0001
0001
0001
,
0001
0001
0001
0001
,
0010
0010
0010
0010
,
0010
0010
0010
0010
,
0100
0100
0100
0100
,
0100
0100
0100
0100
,
0010
0001
0100
0010
,
0100
0100
0100
0100
,
0010
1000
0100
1000
,
0010
0010
0010
0010
,
1000
0001
1000
0001
,
1000
1000
1000
1000
,
0100
0010
0100
0010
,
0100
0100
0100
0100
,
0001
0010
1000
0010
,
1000
0100
0001
0100
,
0001
0010
1000
0010
,
1000
0100
0001
0100
,
1000
0010
0001
0100
,
0001
0100
1000
0010
,
1000
0010
0001
0100
,
1000
1000
0001
0001
,
1001
0100
0010
1000
,
0100
0010
0001
0100
,
1010
0001
0010
1000
,
0100
0010
0001
0100
,
0101
0100
0010
1000
,
1001
1000
0100
0010
,
0011
0001
0010
0100
,
1100
0100
1100
1000
,
0001
1000
0010
0100
,
0001
0100
0010
1000
,
0001
0010
0100
0000
,
0010
1000
0100
0010
,
0001
0010
0100
1000
,
0001
1000
0010
0100
,
0001
0100
0010
1000
,
0001
0001
1000
1000
,
1001
0000
1010
0000
,
1001
0000
0101
0000
,
1001
0000
1100
0000
,
1001
0000
0011
0000
,
1001
0000
0110
0000
,
1001
0000
0110
0000
,
1100
0000
0011
0000
,
0101
0000
1010
0000
,
1000
0001
1000
0001
,
0010
0010
0010
0010
,
1000
0001
1000
0001
,
0100
0100
0100
0100
,
0010
0100
0010
0100
,
1000
1000
1000
1000
,
0010
0100
0010
0100
,
0001
0001
0001
0001
,
1000
0100
1000
0100
,
0000
1100
1100
0000
,
0001
0100
0001
0100
,
0101
0000
0000
0000
,
0010
0100
0010
0100
,
0000
1010
1010
0000
,
0010
0100
0010
0100
,
0011
0000
1100
0000
,
0001
0010
0010
0010
,
0010
0010
0010
0010
,
1000
0010
0010
0010
,
0010
0010
0010
0000
,
0001
0100
0100
0100
,
0100
0100
0100
0100
,
1000
0100
0100
0100
,
0100
0100
0100
0100
,
1001
0000
0000
0000
;

//---------------dance-single - ----------------
#NOTES:
     dance-single:
     :
     Medium:
     7:
     0.585,0.620,0.560,0.047,0.014:
0010
0000
0000
0010
0000
0000
0000
0000
0010
0000
0010
0000
0010
0000
0000
0000
,
0000
0000
0000
0000
,
0000
0000
0000
0000
,
0000
0000
0000
0000
,
0100
0000
0000
0100
0000
0000
0000
0000
0100
0000
0100
0000
0100
0000
0000
0000
,
0000
0000
0000
0000
,
0000
0000
0000
0000
,
1010
0000
0000
0000
0000
0000
0000
1010
0000
0000
0000
0000
0000
0000
0101
0000
,
0000
0000
0000
0101
0000
0000
0000
0000
,
1000
0010
1000
0000
0001
0100
0001
0000
,
1001
1001
1001
1001
,
1000
0010
1000
0000
0001
0010
0001
0000
,
1001
1001
1001
1001
,
0100
0010
0100
0000
0010
0100
0010
0000
,
0110
0110
0110
0110
,
0100
0010
0100
0000
0010
0100
0010
0000
,
0110
0110
0110
0110
,
1000
0001
1000
0000
0001
1000
0001
0000
,
1100
0001
0010
1000
,
1000
0010
1000
0000
0001
0100
0001
0000
,
1001
1000
0001
1000
,
0010
1000
0010
0000
0100
0001
0100
0000
,
0101
1000
1000
1000
,
1000
0010
1000
0000
0001
0010
0001
0000
,
0012
0100
1000
0013
,
1000
0100
1000
0100
1000
0000
0000
0000
,
0001
0100
0001
0100
0001
0000
0000
0000
,
1000
0010
1000
0010
1000
0000
0000
0000
,
0001
0010
0001
0010
0001
0010
0001
0000
,
1000
0100
1000
0100
1000
0000
0000
0000
,
0001
0100
0001
0100
0001
0000
0000
0000
,
0100
0010
0100
0010
0100
0000
0000
0000
,
0010
0100
0010
0100
0010
0100
0010
0000
,
1000
0000
0001
1000
0001
0000
1000
0000
,
0001
0000
1000
0000
0001
1000
0001
0000
,
1000
0000
0100
0000
1000
0100
1000
0000
,
0001
0000
0100
0000
0001
0100
0001
0000
,
0010
0000
1000
0000
0010
1000
0010
0000
,
0100
0000
0001
0000
0100
0001
0100
0000
,
1010
0000
0001
0000
0100
1000
0100
0000
,
1001
1000
1010
0001
,
0011
0000
0001
1000
0100
0000
1000
0100
,
0000
1000
0001
0000
1001
0000
1001
0000
,
0001
0000
0100
0010
0100
0000
0010
0100
,
0000
0010
1000
0010
1000
0000
1001
0000
,
1000
0000
0100
1000
0100
0000
1000
0100
,
0000
0010
0001
0000
0011
0000
0101
0000
,
0001
0000
0100
0001
0100
0000
1000
0100
,
0000
1000
0010
0000
1000
0000
1001
0000
,
0001
0010
0100
0000
1000
0000
1000
0000
,
1000
0100
0010
0000
1001
0000
1001
0000
,
0001
0100
0010
0000
0100
0000
0001
0000
,
0010
0000
0100
0000
1000
0100
0010
0000
,
0001
0000
1000
0000
0010
0100
0010
0000
,
0100
0000
0001
0000
0100
0010
0100
0000
,
0001
0000
1100
0000
1000
0001
1000
0000
,
0001
1000
0001
1000
0001
0000
0000
0000
,
1000
0100
1000
0000
0001
0100
0001
0000
,
1000
0100
1000
0000
0001
0100
0001
0000
,
1000
0010
1000
0000
0001
0010
0001
0000
,
1000
0010
1000
0000
0001
0010
0001
0000
,
1000
0001
1000
0000
0001
1000
0001
0000
,
1000
0001
1000
0000
0001
1000
0001
0000
,
0100
0010
0100
0000
0010
0100
0010
0000
,
0100
0010
0100
0000
0010
0100
0010
0000
,
0010
1000
0010
1000
0010
1000
0010
0000
,
0000
1100
0101
0000
,
0100
0001
0100
0001
0100
0001
0100
0000
,
2002
0000
0000
3003
,
0010
1000
0010
1000
0010
1000
0010
0000
,
0000
1010
0011
0000
,
0010
0001
0010
0001
0010
0001
0010
0000
,
0011
0000
0000
1100
0000
0000
1001
0000
,
0000
0001
0000
0101
0000
1000
0000
1100
,
0000
0001
0000
0011
0000
1010
0000
0000
,
0000
0001
0000
1001
0000
1000
0000
1001
,
0000
0110
0000
0000
0000
0110
0000
0000
,
0000
0100
0000
1100
0000
1000
0000
1010
,
0000
0001
0000
0011
0000
1010
0000
0000
,
0000
0001
0000
0101
0000
1000
0000
1100
,
0001
1000
0001
1000
0001
1000
0001
0000
,
2002
0000
0000
0000
,
0000
0000
0000
0000
,
3003
0000
0000
0000
;

//---------------dance-single - ----------------
#NOTES:
     dance-single:
     :
     Hard:
     9:
     0.703,0.697,0.616,0.103,0.014: // measure 1
1000
0000
0000
0001
0000
0000
1000
0000
0001
0000
1000
0000
0001
0000
0000
0000
,  // measure 2
0000
0000
0000
0000
,  // measure 3
0000
0000
0000
0000
,  // measure 4
0000
0000
0000
0000
,  // measure 5
0001
0000
0000
1000
0000
0000
0001
0000
1000
0000
0001
0000
1000
0000
0000
0000
,  // measure 6
0000
0000
0000
0000
,  // measure 7
0000
0000
0000
0000
,  // measure 8
1100
0000
0000
0000
0000
0000
0000
0101
0000
0000
0000
0000
0000
0000
1100
0000
,  // measure 9
0000
0000
0000
0101
0000
0000
0000
0000
,  // measure 10
1000
0010
0100
0001
0100
0010
1000
0001
,  // measure 11
0010
0100
1000
0001
1000
0000
0001
0000
,  // measure 12
0001
0010
0100
1000
0010
0100
0001
0100
,  // measure 13
0001
1001
1000
1001
,  // measure 14
1000
0100
0010
0001
0010
0100
1000
0010
,  // measure 15
0100
0001
0010
0100
1000
0001
1001
0000
,  // measure 16
1000
0010
0100
0001
0010
1000
0100
0010
,  // measure 17
0001
0001
0010
0100
1000
0010
1000
0000
,  // measure 18
1000
0100
0010
0001
0010
0100
1000
0100
,  // measure 19
1100
0101
0011
1010
,  // measure 20
0001
0010
0100
0010
0001
0100
0010
0100
,  // measure 21
0101
1010
0011
1100
,  // measure 22
1000
0100
0010
0100
1000
0100
0010
0100
,  // measure 23
1100
0101
1100
0101
,  // measure 24
0001
0100
0010
1000
0001
0010
0100
1000
,  // measure 25
1002
0100
0010
1003
,  // measure 26
1000
0100
0010
0001
0010
0000
0011
0000
,  // measure 27
0001
0010
0100
1000
0100
0000
1100
0000
,  // measure 28
1000
0001
0100
0010
1000
0000
1001
0000
,  // measure 29
1000
0001
0100
0010
0001
1000
0010
0000
,  // measure 30
1000
0010
0100
0001
0100
0001
0100
0000
,  // measure 31
0001
0100
0010
1000
0001
0010
0100
0000
,  // measure 32
1000
0100
0010
0001
0010
0100
1000
0000
,  // measure 33
0001
0100
0001
0100
1000
0100
1000
0100
,  // measure 34
1000
0001
1000
0001
1000
0001
1000
0001
,  // measure 35
0010
0100
0010
0100
0010
0100
0010
0100
,  // measure 36
0010
1000
0010
1000
0010
1000
0010
1000
,  // measure 37
0001
0100
0001
0100
0001
0100
0001
0100
,  // measure 38
0001
1000
0001
1000
0001
1000
0001
1000
,  // measure 39
0010
1000
0010
1000
0010
1000
0010
1000
,  // measure 40
0100
1000
0100
1000
0100
1000
0100
1000
,  // measure 41
1001
0110
1001
0000
,  // measure 42
1000
0010
0100
0000
0001
0100
0010
1000
,  // measure 43
0000
0001
1000
0100
0010
0001
1000
0000
,  // measure 44
0010
0000
0100
0001
0010
0100
1000
0010
,  // measure 45
0000
1000
0001
0010
0100
0000
1100
0000
,  // measure 46
1000
0000
0010
1000
0100
0010
0001
0100
,  // measure 47
0000
0010
1000
0001
0010
0100
1000
0000
,  // measure 48
0001
1000
0010
1000
0001
0010
0100
1000
,  // measure 49
1001
0110
1001
0110
,  // measure 50
1000
0010
0100
0000
0001
0000
0010
0100
,  // measure 51
0000
1000
0100
0000
0011
0000
1010
0000
,  // measure 52
1000
0010
0100
0000
0001
0000
0010
0100
,  // measure 53
0000
1000
0001
1000
0010
0000
0101
0000
,  // measure 54
1000
0010
0100
0001
0010
0000
0100
1000
,  // measure 55
0000
0001
1000
0010
1000
0000
1001
0000
,  // measure 56
0001
0010
0100
1000
0010
0000
0100
0001
,  // measure 57
0000
0100
0000
0100
0010
0000
1010
0000
,  // measure 58
0001
1000
0010
1000
0001
0010
0100
1000
,  // measure 59
0010
1000
0001
0010
0100
1000
0010
0100
,  // measure 60
0001
0100
0010
1000
0001
0010
0100
1000
,  // measure 61
0001
1000
0010
0100
0001
0010
0100
1000
,  // measure 62
1100
0000
0101
0000
1000
0010
1000
0010
,  // measure 63
1001
0000
1100
0000
0010
0001
0010
0001
,  // measure 64
0011
0000
1010
0000
1000
0100
1000
0100
,  // measure 65
2001
3002
2003
3002
,  // measure 66
1003
0010
1000
0010
1000
0010
1000
0000
,  // measure 67
0000
1001
1001
0000
,  // measure 68
1000
0001
1000
0001
1000
0001
1000
0000
,  // measure 69
0202
0000
0000
0303
,  // measure 70
0001
0100
0001
0100
0001
0100
0001
0000
,  // measure 71
0000
1010
1010
0000
,  // measure 72
1000
0010
1000
0010
1000
0010
1000
0000
,  // measure 73
0101
0000
0000
1010
0000
0000
2002
3003
,  // measure 74
0000
1000
0000
1010
0000
0001
0000
0011
,  // measure 75
0000
1000
0000
1100
0000
0101
0000
0000
,  // measure 76
0000
1000
0000
1001
0000
0001
0000
1001
,  // measure 77
0000
0110
0000
0000
0000
0100
0000
0110
,  // measure 78
0000
0010
0000
0011
0000
0001
0000
0101
,  // measure 79
0000
1000
0000
1100
0000
0101
0000
0000
,  // measure 80
0000
1000
0000
1010
0000
0001
0000
0011
,  // measure 81
1000
0001
1000
0001
1000
0001
1000
0000
,  // measure 82
2002
0000
0000
0000
,  // measure 83
0000
0000
0000
0000
,  // measure 84
3003
0000
0000
0000
;

//---------------dance-single - ----------------
#NOTES:
     dance-single:
     :
     Beginner:
     3:
     0.256,0.340,0.243,0.056,0.000:
2000
0000
0000
0000
,
3000
0000
0000
0000
,
0000
0000
0000
0000
,
0000
0000
0000
0000
,
0002
0000
0000
0000
,
0003
0000
0000
0000
,
0000
0000
0000
0000
,
0010
0000
0000
0000
,
0010
0000
0000
0000
,
1000
0000
1000
0000
,
1000
0000
1000
0000
,
0001
0000
0001
0000
,
0001
0000
0001
0000
,
0100
0000
0100
0000
,
0100
0000
0100
0000
,
0010
0000
0010
0000
,
0010
0000
0010
0000
,
1000
0000
1001
0000
,
1001
0000
0000
0000
,
0001
0000
1001
0000
,
1001
0000
0000
0000
,
0010
0000
0110
0000
,
0110
0000
0000
0000
,
0100
0000
0110
0000
,
0110
0000
0000
0000
,
1000
1000
1000
0000
,
0001
0001
0001
0000
,
0010
0010
0010
0000
,
0100
0100
0100
0000
,
0100
0100
0100
0000
,
1000
1000
1000
0000
,
0001
0001
0001
0000
,
0010
0010
0010
0000
,
0100
0000
0100
0000
,
1000
0000
1000
0000
,
0010
0000
0010
0000
,
0001
0000
0001
0000
,
0100
0000
0100
0000
,
1000
0000
1000
0000
,
0010
0000
0010
0000
,
0001
0001
0001
0000
,
0001
0000
1001
0000
,
1000
0000
1001
0000
,
0100
0000
0110
0000
,
0010
0000
0110
0000
,
0001
0000
1001
0000
,
1000
0000
1001
0000
,
0010
0000
0110
0000
,
0010
0010
0010
0000
,
1000
1000
1000
1000
,
1000
1000
1000
1000
,
0001
0001
0001
0001
,
0001
0001
0001
0001
,
1000
1000
1000
1000
,
1000
1000
1000
1000
,
0001
0001
0001
0001
,
0001
0001
0001
0001
,
0001
0000
1001
0000
,
1000
0000
1001
0000
,
0010
0000
0110
0000
,
0100
0000
0110
0000
,
1000
0000
1001
0000
,
0001
0000
1001
0000
,
0001
0001
0001
0001
,
0001
0000
0000
0000
,
1000
0001
1000
0000
,
1001
0000
0000
0000
,
0100
0010
0100
0000
,
0110
0000
0000
0000
,
0001
1000
0001
0000
,
0000
1001
0000
0000
,
0100
0010
0100
0000
,
0110
0000
0000
0000
,
2000
0000
0000
0000
,
0000
0000
0000
3000
,
0002
0000
0000
0000
,
0000
0000
0000
0003
,
0020
0000
0000
0000
,
0000
0000
0000
0030
,
0200
0000
0000
0000
,
0000
0000
0000
0300
,
1001
0000
0000
0000
;

//---------------dance-double - ----------------
#NOTES:
     dance-double:
     :
     Hard:
     7:
     0.351,0.308,0.345,0.000,0.000:
00010000
00001000
00010000
00000000
00011000
00000000
00010000
00001000
,
00000010
00001000
00000001
00000000
00000101
00000000
00001100
00000000
,
00000000
00000000
00000001
00000010
00000100
00001000
00000010
00000000
,
00001010
00000101
00000000
00000001
00000000
00000101
00000000
00000001
,
00000100
00000010
00001000
00000000
00000100
00000000
00010000
00000000
,
00001000
00010000
00001000
00000000
00010000
00000000
00100000
00000000
,
10000000
01000000
00010000
00000000
00100000
00000000
01000000
00000000
,
11000000
00000000
00000000
01010000
00000000
10000000
00100000
01000000
,
00010000
00000000
00011000
00000000
00010100
00000000
00000100
00001000
,
00000001
00000100
00000010
00000000
00001010
00000000
00001001
00000000
,
00001000
00000001
00000010
00000100
00001000
00000000
00000001
00000000
,
00000101
00000000
00000000
00001100
00000000
00000100
00001000
00000000
,
00000100
00010000
00000100
00000000
00010000
00000000
00011000
00000000
,
00001000
00010000
00001000
00000000
00010000
00000000
01010000
00000000
,
00100000
10000000
00010000
00000000
00100000
00010000
10000000
00000000
,
01000000
01000000
01000000
00000000
00100000
00100000
00100000
00000000
,
10000000
01000000
00100000
00010000
01000000
00000000
01010000
00000000
,
00001000
00010000
00001000
00000010
00000100
00000000
00000101
00000000
,
00000001
00000010
00000100
00000000
00001000
00000010
00000100
00000000
,
00001001
00001100
00000101
00000000
,
00000001
00000100
00000010
00000000
00001000
00000000
00000100
00010000
,
00001000
00010000
00001000
00000000
00011000
00000000
01010000
00000000
,
00000000
00000000
00100000
00000000
10000000
00000000
00000000
10000000
,
01000000
00010000
01000000
00000000
00000000
00000000
00000000
00000000
,
01000000
00010000
01000000
00000000
01010000
00000000
00011000
00000000
,
00010000
00000100
00010000
00000000
00000100
00000000
00000101
00000000
,
00000000
00000000
00001001
00000000
00000010
00000000
00000000
00000001
,
00000010
00000100
00001000
00000000
00000000
00000000
00000000
00000000
,
00001000
00000100
00001000
00000100
00001000
00000000
00000100
00010000
,
00000100
00010000
00000100
00000000
00001000
00010000
00001000
00010000
,
00000000
00011000
00000000
00000000
00011000
00000000
00000000
00001000
,
00010000
00100000
00000000
10000000
00000000
01000000
00000000
00010000
,
00100000
00000000
01000000
00000000
00100000
00000000
00010000
00100000
,
00010000
00100000
00010000
00000000
01000000
00010000
01000000
00001000
,
00010000
00001000
00011000
00000000
00001000
00000010
00001010
00000000
,
00001000
00000001
00000100
00000010
00000000
00001000
00000000
00000001
,
00001000
00000100
00001000
00000000
00000001
00000100
00000001
00000000
,
00001000
00000010
00000100
00000001
00000000
00000101
00000000
00001010
,
00001000
00000100
00010000
00001000
,
00001000
00010000
01000000
10000000
00000000
00100000
00000000
00010000
,
01000000
01010000
11000000
10100000
,
10000000
00100000
01000000
00010000
00000000
00001000
00000000
00010000
,
00001000
00000010
00000001
00000100
,
00001000
00000100
00000001
00000010
00000000
00000100
00000000
00001000
,
00001001
00000000
00000000
00000000
;

//---------------dance-double - ----------------
#NOTES:
     dance-double:
     :
     Medium:
     5:
     0.287,0.308,0.215,0.000,0.000:
00010000
00010000
00010000
00000000
00011000
00000000
00001000
00000000
,
00001000
00001000
00001000
00000000
00001000
00000000
00001001
00000000
,
00000000
00000000
00001000
00000001
00000100
00000010
00001000
00000000
,
00000001
00000001
00000000
00000000
00000000
00000000
00000000
00000001
,
00000010
00001100
00000000
00000000
,
00000100
00010000
00001000
00000000
00000000
00000000
00000000
00000000
,
00001000
00010000
00001000
00000000
00010000
00000000
01000000
00000000
,
00100000
00000000
00000000
10100000
00000000
00000000
10000000
00000000
,
00010000
00100000
01000000
00000000
00000000
00000000
00000000
00000000
,
01000000
00100000
00010000
00000000
00000000
00000000
00010000
00000000
,
00001000
00010000
00001000
00000100
,
00000101
00000000
00000000
00000101
00000000
00000001
00000100
00000000
,
00000010
00001000
00000010
00000000
00000000
00000000
00001000
00000000
,
00000100
00010000
00000100
00000000
00000000
00000000
00010000
00000000
,
00001000
00100000
10000000
01000000
,
00010000
00000000
00000000
00100000
,
10000000
00100000
10000000
00000000
00000000
00000000
01000000
00000000
,
00010000
01000000
00010000
00000000
00000000
00000000
00010000
00000000
,
00001000
00000010
00000100
00000001
,
00000101
00001100
00000101
00000000
,
00000001
00001000
00000010
00001000
,
00000100
00010000
00000000
00001000
00000000
00010000
00000000
00001000
,
00010000
00100000
10000000
01000000
,
00010000
00100000
00000000
00100000
00000000
01000000
00000000
01000000
,
00010000
00000000
01000000
00000000
00100000
00000000
10000000
01000000
,
00000000
00100000
00000000
00010000
00000000
00001000
00000000
00010000
,
00001000
00000010
00000100
00000001
,
00001000
00000001
00001000
00000000
00000000
00000000
00000000
00000000
,
00000100
00001000
00000100
00000000
00001100
00000000
00000100
00000001
,
00000100
00000000
00000101
00000000
00000010
00001000
00000100
00010000
,
00001000
00000000
00011000
00000000
00010000
00001000
00010000
00000000
,
00010000
01000000
00100000
00000000
10000000
00000000
10010000
00000000
,
10000000
01000000
10000000
00000000
01000000
00000000
11000000
00000000
,
00010000
01000000
00010000
00000000
01000000
00000000
01001000
00000000
,
00010000
00001000
00010000
00000000
00001000
00000000
00011000
00000000
,
00001000
00000010
00001000
00000010
00000000
00000100
00000000
00000001
,
00000100
00000010
00001000
00000100
,
00010000
00001000
00010000
00001000
00000000
00011000
00000000
01010000
,
01010000
00100000
10000000
01000000
,
00010000
00100000
01000000
00000000
00100000
00000000
00010000
00000000
,
00100000
00010000
00100000
00000000
00010000
00000000
00011000
00000000
,
00001000
00010000
00001000
00000000
00001000
00000000
00001010
00000000
,
00001000
00000000
00001001
00000000
00000100
00000001
00000100
00000000
,
00000010
00001000
00000010
00000000
00001000
00000000
00011000
00000000
,
00001000
00000000
00000000
00000000
;

//---------------dance-double - ----------------
#NOTES:
     dance-double:
     :
     Easy:
     3:
     0.189,0.226,0.093,0.037,0.000:
00010000
00010000
00010000
00000000
,
00001000
00001000
00001000
00000000
,
00000000
00010000
00001000
00010000
,
00011000
00000000
00000000
00000000
,
00000100
00000100
00000100
00000000
,
00001000
00001000
00001000
00000000
,
00000010
00000010
00000010
00000000
,
00000001
00000001
00000001
00000000
,
00001000
00001000
00001000
00000000
,
00000100
00000100
00000100
00000000
,
00010000
00010000
00010000
00000000
,
10000000
10000000
10000000
00000000
,
00200000
00000000
00000000
00300000
,
20000000
00000000
00000000
30000000
,
00020000
00000000
00000000
00030000
,
02000000
00000000
00000000
03000000
,
00001000
00001000
00001000
00000000
,
00010000
00010000
00010000
00000000
,
00001000
00000010
00000100
00000001
,
00001001
00001001
00001001
00000000
,
00000001
00000010
00000100
00001000
,
00000100
00010000
00001000
00010000
,
00000000
00011000
00011000
00000000
,
01000000
01000000
00000000
00000000
,
10000000
00100000
01000000
00010000
,
01000000
00010000
00001000
00010000
,
00000000
00011000
00011000
00000000
,
00000100
00000100
00000000
00000000
,
00000010
00000100
00000010
00000100
,
00000010
00000100
00000001
00001000
,
00000001
00000000
00001000
00000000
,
00000100
00010100
00000000
00000000
,
00010000
00001000
00010000
00001000
,
00010000
01000000
10000000
01000000
,
10010000
00000000
00100000
00000000
,
01000000
01000000
00000000
00000000
,
00100000
00010000
01000000
10000000
,
00100000
00000000
00010000
00001000
,
00001000
00000010
00000001
00000100
,
00001000
00000000
00001000
00000100
,
00010000
00100000
10000000
01000000
,
00010000
00100000
00000000
00010000
,
00001000
00000010
00000001
00000100
,
00001000
00000100
00000000
00010000
,
00001000
00000000
00000000
00000000
;
