#TITLE:SMS (Bangerz) (feat. Britney Spears);
#SUBTITLE:;
#ARTIST:Miley Cyrus;
#TITLETRANSLIT:;
#SUBTITLETRANSLIT:;
#ARTISTTRANSLIT:;
#GENRE:Pop;
#CREDIT:chewi;
#BANNER:SMS (Bangerz) (feat. Britney Spears).png;
#BACKGROUND:SMS (Bangerz) (feat. Britney Spears)-bg.png;
#LYRICSPATH:;
#CDTITLE:cdtitle.png;
#MUSIC:SMS (Bangerz) (feat. Britney Spears).ogg;
#OFFSET:-0.158000;
#SAMPLESTART:55.405998;
#SAMPLELENGTH:15.000000;
#SELECTABLE:YES;
#DISPLAYBPM:139.000000;
#BPMS:0.000000=139.000000
;
#STOPS:
;
#BGCHANGES:;
#KEYSOUNDS:;
#ATTACKS:;

//---------------dance-single - ----------------
#NOTES:
     dance-single:
     :
     Beginner:
     1:
     0.086414,0.140266,0.000000,0.070133,0.000000,69.000000,69.000000,0.000000,8.000000,0.000000,0.000000,0.086414,0.140266,0.000000,0.070133,0.000000,69.000000,69.000000,0.000000,8.000000,0.000000,0.000000:
// measure 0
0000
0000
0000
0000
,  // measure 1
0000
0000
0000
0000
,  // measure 2
0000
0000
0000
0000
,  // measure 3
0000
0000
0000
0000
,  // measure 4
1000
0000
0000
0000
,  // measure 5
0100
0000
0000
0000
,  // measure 6
0001
0000
0000
0000
,  // measure 7
0100
0000
0000
0000
,  // measure 8
2000
0000
0000
3000
,  // measure 9
1000
0000
0000
0000
,  // measure 10
0002
0000
0000
0003
,  // measure 11
0001
0000
0000
0000
,  // measure 12
0020
0000
0000
0030
,  // measure 13
0010
0000
0000
0000
,  // measure 14
0200
0000
0000
0300
,  // measure 15
0100
0000
0000
0000
,  // measure 16
1000
0000
0000
0000
,  // measure 17
0001
0000
0000
0000
,  // measure 18
0100
0000
0000
0000
,  // measure 19
0100
0000
0000
0000
,  // measure 20
1000
0000
0000
0000
,  // measure 21
0001
0000
0000
0000
,  // measure 22
0010
0000
0000
0000
,  // measure 23
0010
0000
0000
0000
,  // measure 24
2000
0000
0000
3000
,  // measure 25
1000
1000
1000
0000
,  // measure 26
0002
0000
0000
0003
,  // measure 27
0001
0001
0001
0000
,  // measure 28
0200
0000
0000
0300
,  // measure 29
0100
0100
0100
0000
,  // measure 30
0020
0000
0000
0030
,  // measure 31
0010
0010
0010
0000
,  // measure 32
0010
0000
0000
0000
,  // measure 33
0100
0000
0000
0000
,  // measure 34
0001
0000
0000
0000
,  // measure 35
1000
0000
0000
0000
,  // measure 36
0100
0000
0000
0000
,  // measure 37
0010
0000
0000
0000
,  // measure 38
0001
0000
0000
0000
,  // measure 39
1000
0000
0000
0000
,  // measure 40
0001
0000
0000
0000
,  // measure 41
0000
0001
0000
0000
,  // measure 42
0100
0000
0000
0000
,  // measure 43
1000
0000
0000
0000
,  // measure 44
0010
0000
0000
0000
,  // measure 45
1000
0000
0000
0000
,  // measure 46
0001
0000
0000
0000
,  // measure 47
0100
0000
0000
0000
,  // measure 48
0010
0000
0000
0000
,  // measure 49
0010
0000
0000
0000
,  // measure 50
0100
0000
0000
0000
,  // measure 51
0100
0000
0000
0000
,  // measure 52
1000
0000
0000
0000
,  // measure 53
0001
0000
0000
0000
,  // measure 54
1000
0000
0000
0000
,  // measure 55
0001
0000
0000
0000
,  // measure 56
0010
0000
0000
0000
,  // measure 57
0100
0000
0000
0000
,  // measure 58
1000
0000
0000
0000
,  // measure 59
0100
0000
0000
0000
,  // measure 60
0010
0000
0000
0000
,  // measure 61
0001
0000
0000
0000
,  // measure 62
1000
0000
0000
0000
,  // measure 63
0001
0000
0000
0000
,  // measure 64
0100
0000
0000
0000
;

//---------------dance-single - ----------------
#NOTES:
     dance-single:
     :
     Hard:
     11:
     0.439584,0.504958,0.262999,0.000000,0.048216,351.000000,321.000000,30.000000,0.000000,0.000000,0.000000,0.439584,0.504958,0.262999,0.000000,0.048216,351.000000,321.000000,30.000000,0.000000,0.000000,0.000000:
// measure 0
0000
0000
0000
0000
,  // measure 1
0000
0000
0000
0000
,  // measure 2
0000
0000
0000
0000
,  // measure 3
0000
0000
0000
0000
,  // measure 4
1001
0000
0001
1000
0000
0000
0000
0000
,  // measure 5
1001
0000
1000
0001
0000
0000
0000
0000
,  // measure 6
0110
0000
0010
0100
0000
0000
0000
0000
,  // measure 7
0110
0000
0100
0010
0000
0000
0000
0000
,  // measure 8
0001
0000
0010
0100
1000
0000
0001
0000
,  // measure 9
1000
0000
0100
1000
0010
0000
0100
0001
,  // measure 10
0010
0000
0001
1000
0001
0000
1000
0000
,  // measure 11
0001
0000
1000
0100
0010
0000
0001
0000
,  // measure 12
1000
0000
0100
0010
0001
0000
1000
0000
,  // measure 13
0001
0000
0010
0001
0100
0000
0010
1000
,  // measure 14
0100
0000
1000
0001
1000
0000
0001
0000
,  // measure 15
1001
0000
0000
0000
,  // measure 16
0100
0010
0100
0010
0000
1010
0000
0000
,  // measure 17
0001
0100
0001
0100
0000
0100
0110
0000
,  // measure 18
0100
0001
1000
0010
0000
1010
0000
0000
,  // measure 19
1000
0100
0010
0001
0000
1000
1001
0000
,  // measure 20
0001
0010
0001
0000
1000
0100
1000
0010
,  // measure 21
1000
0001
1000
0000
0001
1000
0010
0100
,  // measure 22
0001
0100
0001
0100
0001
0010
0001
0010
,  // measure 23
0100
1000
0010
0000
0100
0001
0010
0000
,  // measure 24
0010
0000
0001
1000
0100
0000
0010
0000
,  // measure 25
0100
0000
1000
0010
0001
0000
1000
0100
,  // measure 26
0001
0000
0010
0100
0010
0000
0100
0000
,  // measure 27
0010
0000
0100
1000
0001
0000
0010
0010
,  // measure 28
0100
0000
1000
0001
0010
0000
0100
0000
,  // measure 29
0010
0000
0001
0100
1000
0000
0001
0010
,  // measure 30
1000
0000
0100
0010
0100
0000
0010
0000
,  // measure 31
0100
0000
0010
0001
1000
0000
0010
0010
,  // measure 32
0100
0010
0100
0010
1000
0010
1000
0010
,  // measure 33
1000
0000
0001
1000
0001
0000
1000
0000
0001
0000
0100
0000
0010
0000
1000
0000
,  // measure 34
0001
0010
0001
0010
0100
1000
0100
1000
,  // measure 35
0010
0100
0001
1000
0010
1000
1001
0000
,  // measure 36
0010
0100
0010
0100
0001
0100
0001
0100
,  // measure 37
0001
0000
1000
0001
1000
0000
0001
0000
1000
0000
0010
0000
0100
0000
0001
0000
,  // measure 38
1000
0100
1000
0100
0010
0001
0010
0001
,  // measure 39
0100
0010
1000
0001
0100
0001
1001
0000
,  // measure 40
0110
0000
0000
0000
,  // measure 41
0001
0000
1000
0000
0100
0000
0010
0000
0100
0000
0000
0110
0000
0000
0000
0000
,  // measure 42
0100
1000
0001
0010
0001
0000
0000
0000
,  // measure 43
0001
0000
1000
0000
0001
1000
0010
0000
0100
0000
0000
0101
0000
0000
0000
0000
,  // measure 44
1000
0000
0001
1000
0000
0000
1001
0000
,  // measure 45
0100
0000
0010
0100
1000
0000
0001
0000
0010
0000
0000
0011
0000
0000
0000
0000
,  // measure 46
1000
0010
0100
0001
0100
0000
0000
0000
,  // measure 47
0010
0000
0100
0000
0001
1000
0010
0000
1000
0000
0000
1001
0000
0000
0000
0000
,  // measure 48
1001
0000
0000
0110
0000
0000
0000
0000
,  // measure 49
1010
0000
0010
0000
0000
0000
0101
0000
0000
0000
0010
0000
0000
0100
0000
0000
,  // measure 50
1100
0000
0000
0011
0000
0000
0000
0000
,  // measure 51
1001
0000
1000
0000
0000
0000
1001
0000
0000
0000
0001
0000
0000
0100
0000
0000
,  // measure 52
0101
0000
0100
0001
0000
0000
0000
0000
,  // measure 53
1010
0000
1000
0010
0000
0000
0000
0000
,  // measure 54
1001
0000
1000
0001
0000
0000
0000
0000
,  // measure 55
0110
0000
0010
0100
0000
0000
0000
0000
,  // measure 56
1000
0000
0001
0010
1000
0000
0001
0000
,  // measure 57
0100
0000
1000
0010
0001
0000
1000
0100
,  // measure 58
0001
0000
1000
1000
1000
0000
0001
0000
,  // measure 59
1000
0000
0001
0001
0001
0000
0010
0010
,  // measure 60
0001
0000
1000
0100
0001
0000
1000
0000
,  // measure 61
0010
0000
0001
0100
1000
0000
0001
0010
,  // measure 62
1000
0000
0001
0001
0001
0000
1000
0000
,  // measure 63
0001
0000
1000
1000
1000
0000
0001
1000
,  // measure 64
1001
0000
0000
0000
;

//---------------dance-single - ----------------
#NOTES:
     dance-single:
     :
     Easy:
     5:
     0.222923,0.252479,0.052600,0.035066,0.000000,178.000000,172.000000,6.000000,4.000000,0.000000,0.000000,0.222923,0.252479,0.052600,0.035066,0.000000,178.000000,172.000000,6.000000,4.000000,0.000000,0.000000:
// measure 0
0000
0000
0000
0000
,  // measure 1
0000
0000
0000
0000
,  // measure 2
0000
0000
0000
0000
,  // measure 3
0000
0000
0000
0000
,  // measure 4
1000
0000
0100
0000
,  // measure 5
1000
0100
0010
0000
,  // measure 6
0001
0000
0010
0000
,  // measure 7
0001
0010
0100
0000
,  // measure 8
1000
1000
1000
0000
,  // measure 9
0001
0001
0001
0000
,  // measure 10
0100
0100
0100
0000
,  // measure 11
0010
0010
0010
0000
,  // measure 12
1000
0010
1000
0000
,  // measure 13
0001
0100
0001
0000
,  // measure 14
1000
0100
1000
0000
,  // measure 15
0001
0010
0001
0000
,  // measure 16
0002
0000
1003
0000
,  // measure 17
2000
0000
3001
0000
,  // measure 18
0200
0000
0310
0000
,  // measure 19
0020
0000
0130
0000
,  // measure 20
0010
0000
0100
0000
,  // measure 21
0010
0100
0001
1000
,  // measure 22
0001
0000
1000
0000
,  // measure 23
0001
0010
0100
1000
,  // measure 24
0100
1000
0100
1000
,  // measure 25
0100
1000
0100
0000
,  // measure 26
0010
0001
0010
0001
,  // measure 27
0010
0001
0010
0000
,  // measure 28
0001
1000
0001
1000
,  // measure 29
0001
1000
0001
0000
,  // measure 30
0100
0010
0100
0010
,  // measure 31
0100
0010
0100
0000
,  // measure 32
0010
1000
0100
0001
,  // measure 33
0010
1000
0100
0001
,  // measure 34
0010
1000
0100
0001
,  // measure 35
0010
1000
0010
0000
,  // measure 36
1000
0010
0001
0100
,  // measure 37
1000
0010
0001
0100
,  // measure 38
1000
0010
0001
0100
,  // measure 39
1000
0100
0001
0000
,  // measure 40
1001
0000
0000
0000
,  // measure 41
0000
1000
1000
0000
,  // measure 42
0001
0001
0001
0000
,  // measure 43
0100
0010
0100
0000
,  // measure 44
0110
0000
0000
0000
,  // measure 45
0010
0010
0010
0000
,  // measure 46
0100
0100
0100
0000
,  // measure 47
0001
1000
0100
0000
,  // measure 48
0010
0010
0010
0000
,  // measure 49
0010
0100
1000
0000
,  // measure 50
0001
0001
0001
0000
,  // measure 51
1000
0010
0100
0000
,  // measure 52
0010
0010
0010
0000
,  // measure 53
0100
0100
0100
0000
,  // measure 54
0010
0010
0010
0000
,  // measure 55
0100
0100
0100
0000
,  // measure 56
0001
0000
0001
0000
,  // measure 57
0001
0000
1001
0000
,  // measure 58
1000
0000
1000
0000
,  // measure 59
1000
0000
1001
0000
,  // measure 60
0010
0000
0010
0000
,  // measure 61
0010
0000
0110
0000
,  // measure 62
0100
0000
0100
0000
,  // measure 63
0100
0000
0110
0000
,  // measure 64
0010
0000
0000
0000
;

//---------------dance-single - ----------------
#NOTES:
     dance-single:
     :
     Medium:
     8:
     0.310589,0.336638,0.078900,0.140266,0.000000,248.000000,239.000000,9.000000,16.000000,0.000000,0.000000,0.310589,0.336638,0.078900,0.140266,0.000000,248.000000,239.000000,9.000000,16.000000,0.000000,0.000000:
// measure 0
0000
0000
0000
0000
,  // measure 1
0000
0000
0000
0000
,  // measure 2
0000
0000
0000
0000
,  // measure 3
0000
0000
0000
0000
,  // measure 4
1000
0000
0001
1000
0000
0000
0000
0000
,  // measure 5
0001
0000
1000
0001
0000
0000
0000
0000
,  // measure 6
0010
0000
0100
0010
0000
0000
0000
0000
,  // measure 7
0100
0000
0010
0100
0000
0000
0000
0000
,  // measure 8
0010
1000
0010
0100
,  // measure 9
0010
1000
0010
0100
,  // measure 10
0001
0010
0100
0010
,  // measure 11
0001
0010
0100
1000
,  // measure 12
0100
1000
0100
0010
,  // measure 13
0100
1000
0100
0010
,  // measure 14
0100
1000
0001
0100
,  // measure 15
0010
0000
0000
0000
,  // measure 16
0100
0000
0000
0100
0000
0100
0000
0000
,  // measure 17
0010
0000
0000
0010
0000
0000
0010
0000
,  // measure 18
1000
0000
0000
1000
0000
1000
0000
0000
,  // measure 19
0001
0000
0000
0001
0000
0000
0001
0000
,  // measure 20
1000
1100
0001
0101
,  // measure 21
0100
0010
1000
0001
,  // measure 22
1000
1010
0001
0011
,  // measure 23
0010
0100
1000
0001
,  // measure 24
1000
0100
0010
0100
,  // measure 25
1000
0000
0100
0000
0010
0000
0100
1000
,  // measure 26
0001
1000
0100
1000
,  // measure 27
0001
0100
0010
0100
,  // measure 28
0001
0100
0010
0100
,  // measure 29
0001
0000
0100
0000
0010
0000
0100
0001
,  // measure 30
0010
0100
1000
0100
,  // measure 31
0010
0100
1000
0001
,  // measure 32
2000
3200
0320
0032
,  // measure 33
1003
0001
1000
0000
0001
1000
0001
0000
,  // measure 34
0002
0203
0320
2030
,  // measure 35
3100
0010
0100
0000
0010
0100
0010
0000
,  // measure 36
0200
2300
3002
0023
,  // measure 37
0031
1000
0001
0000
1000
0001
1000
0000
,  // measure 38
0020
2030
3002
0203
,  // measure 39
0301
1000
0001
0000
1000
0001
1000
0000
,  // measure 40
1001
0000
0000
0000
,  // measure 41
0000
0000
1100
0000
0010
0100
1000
0000
,  // measure 42
0001
0000
0010
0000
0100
0010
0001
0000
,  // measure 43
1000
0000
0001
0000
1000
0001
0100
0000
,  // measure 44
0110
0000
0000
0000
,  // measure 45
1001
0000
0010
0000
1000
0010
1000
0000
,  // measure 46
0100
0000
0010
0000
0001
0010
0001
0000
,  // measure 47
0010
0000
0100
0000
1000
0001
1000
0000
,  // measure 48
1000
0000
0001
1000
0000
0000
1000
0000
,  // measure 49
0010
0100
0010
0100
,  // measure 50
0010
0000
0100
0001
0000
0000
0001
0000
,  // measure 51
0100
0001
0010
0100
,  // measure 52
1000
0000
0001
1000
0000
0000
0000
0000
,  // measure 53
0001
0000
1000
0001
0000
0000
0000
0000
,  // measure 54
0010
0000
0100
0010
0000
0000
0000
0000
,  // measure 55
0100
0000
0010
0100
0000
0000
0000
0000
,  // measure 56
0100
0000
1000
0010
1000
0000
0010
0000
,  // measure 57
0010
0100
0001
0010
,  // measure 58
0001
0000
0001
0010
0001
0000
0010
0000
,  // measure 59
0100
1000
0001
1000
,  // measure 60
0001
0000
0001
1000
0001
0000
1000
0000
,  // measure 61
1000
0010
0100
0001
,  // measure 62
0100
0000
0100
0010
0100
0000
0001
0000
,  // measure 63
1000
0010
0100
0001
,  // measure 64
1001
0000
0000
0000
;
