#TITLE:SMOKE(Summer Contest Edit);
#SUBTITLE:;
#ARTIST:MR.ED JUMPS THE GUN;
#TITLETRANSLIT:;
#SUBTITLETRANSLIT:;
#ARTISTTRANSLIT:;
#GENRE:;
#CREDIT:Chewphoria~;
#MENUCOLOR:;
#METERTYPE:DDR;
#BANNER:DDR Edit - SMOKE.png;
#BACKGROUND:DDR Edit - SMOKE-bg.png;
#LYRICSPATH:;
#CDTITLE:./CDTITLES/Summer Contest 2010.PNG;
#MUSIC:DDR Edit - SMOKE.mp3;
#OFFSET:-0.973;
#SAMPLESTART:57.830;
#SAMPLELENGTH:12.000;
#SELECTABLE:YES;
#LISTSORT:;
#DISPLAYBPM:135.000;
#BPMS:0.000=135.000;
#STOPS:;
#BGCHANGES:16.000=genom=1.000=1=0=1,
36.000=boom=1.000=0=0=1,
40.000=pop2=1.000=0=0=1,
56.000=pop3=1.000=0=0=1,
72.000=boom=1.000=0=0=1,
80.000=genom=1.000=0=0=1,
88.000=pop3=1.000=0=0=1,
96.000=pop2=1.000=0=0=1,
104.000=space=1.000=0=0=1,
112.000=space2=1.600=0=0=1,
120.000=space=1.000=0=0=1,
128.000=street=1.000=0=0=1,
136.000=star2=1.000=0=0=1,
144.000=street=1.000=0=0=1,
152.000=star2=1.000=0=0=1,
160.000=trance6=1.000=0=0=1,
178.000=DDR Edit - SMOKE-bg.png=1.000=1=0=1,
99999=-nosongbg-=1.000=0=0=0 // don't automatically add -songbackground-
;
#ATTACKS:;

//---------------dance-single - ----------------
#NOTES:
     dance-single:
     :
     Easy:
     3:
     0.261,0.247,0.064,0.165,0.000:
0000
0000
0000
0000
,
0000
0000
0000
0000
,
0000
0000
0000
0000
,
0000
0000
0000
0000
,
1000
0100
1000
0100
,
0001
0100
0001
0100
,
1000
0010
1000
0010
,
0001
0010
0001
0010
,
0001
0001
0001
0001
,
2002
0000
0000
3003
,
0010
1000
0100
0001
,
0010
1000
0100
0001
,
0010
1000
0100
0001
,
0010
1000
0100
0001
,
0020
0000
0230
0000
,
0301
1000
0002
0000
,
1003
0100
0001
0100
,
1000
0100
0001
0010
,
1000
1000
1000
1000
,
2000
0000
0000
3000
,
0001
0001
0001
0001
,
0002
0000
0000
0003
,
0001
0010
1000
0010
,
0001
0001
1001
0000
,
1000
0100
0001
0100
,
1000
1001
1000
0000
,
0000
2002
0000
3003
,
0200
0000
0300
0000
,
0010
1000
0010
1000
,
0010
0001
0010
0001
,
0000
2002
0000
3003
,
0020
0000
0030
0000
,
0010
0100
0010
0100
,
0001
1000
0001
1000
,
0100
0010
0100
0010
,
0001
1000
0001
1000
,
0010
0100
0010
0100
,
0001
1000
0001
1000
,
0010
0100
0010
0100
,
1000
0001
1000
0001
,
0100
0001
0000
0100
,
0000
1000
0000
0010
,
0000
1000
0000
0100
,
0000
0001
0000
0000
;

//---------------dance-single - ----------------
#NOTES:
     dance-single:
     :
     Medium:
     5:
     0.399,0.385,0.432,0.102,0.000:
0000
0000
0000
0000
,
0000
0000
0000
0000
,
0000
0000
0000
0000
,
0000
0000
0000
0000
,
1000
0100
0001
0000
0100
0000
1100
0000
,
0001
0100
1000
0000
0100
0000
1100
0000
,
0001
1000
0001
0000
1000
0000
1001
0000
,
0200
0010
0010
0310
,
0020
0100
0100
0130
,
1001
0110
1001
0000
,
1000
1000
1000
0000
0001
0000
0101
0000
,
0001
0001
0001
0000
1000
0000
1100
0000
,
0001
0001
0001
0000
0100
0000
0101
0000
,
1000
1000
1000
0000
0100
0000
1100
0000
,
1001
0100
1001
0010
,
1010
0100
0101
0001
,
0001
0010
1000
0000
1000
0010
0001
0000
,
0001
0100
1000
0000
1000
0100
0001
0000
,
1000
1100
0001
0101
,
0100
0100
0100
0000
0200
0000
0300
0000
,
0010
1000
0010
0000
0100
0000
0001
0000
,
1000
1000
1000
0000
2000
0000
3000
0000
,
0001
0011
0001
0101
,
1000
0001
1000
0000
0001
0000
0001
0000
,
0010
0100
1000
0000
0010
0100
0001
0000
,
1001
0110
1001
0100
,
0002
1000
0100
0010
,
2003
0100
0001
0010
,
3010
0000
1000
0100
0010
0001
0100
0000
,
0001
0001
1000
1001
,
0010
0002
1000
0100
,
2003
0001
0100
3001
,
1000
0100
1000
0000
0001
0000
0101
0000
,
0001
0100
0001
0000
1001
0000
0110
0000
,
0001
0100
0001
0000
0010
1000
0010
0000
,
0100
0001
0100
0000
1000
0000
1001
0000
,
0001
1000
0001
0000
0010
0000
0110
0000
,
0010
0100
0010
0000
0010
0000
1000
0000
,
0001
0000
1001
0000
0001
0100
0001
0000
,
0100
0000
0010
0000
1000
0001
1000
0000
,
0010
1010
0000
0101
,
0000
1001
0000
1100
,
0000
0011
0000
1001
,
1000
0001
0000
0000
;

//---------------dance-single - ----------------
#NOTES:
     dance-single:
     :
     Hard:
     7:
     0.430,0.493,0.508,0.140,0.000:
0000
0000
0000
0000
,
0000
0000
0000
0000
,
0000
0000
0000
0000
,
0000
0000
0000
0000
,
1000
1100
0001
0101
,
1000
1001
1001
0000
,
0001
0011
1000
1010
,
0001
1001
1001
0100
,
0110
0110
0010
1000
,
1100
0101
1100
0000
,
0001
0010
0001
0100
0001
0010
0001
0100
,
0001
0010
0001
0100
0001
0010
0001
0100
,
0010
1000
0100
1000
0010
1000
0100
1000
,
0010
1000
0100
1000
0010
1000
0100
0010
,
0011
0100
1010
0100
,
1100
0101
1100
1001
,
0001
0010
0001
0000
1000
0010
1000
0000
,
0001
0100
1000
0100
0001
0000
1001
0000
,
0010
0010
0100
0100
0010
1000
0100
0001
,
0100
1000
0001
0000
0101
0000
1001
0000
,
1000
0010
0001
0010
1000
0100
0010
0001
,
0010
0010
0100
0100
1000
0001
1001
0100
,
0010
1000
0001
0010
0100
1000
0001
0000
,
1001
0010
0100
1000
0001
0000
1001
0000
,
1000
0010
0100
0001
0010
0100
1000
0001
,
1001
0110
1001
0000
,
0000
2020
0030
0001
,
0200
3000
0002
0000
,
0303
0000
0010
1000
0100
0001
0010
0000
,
1000
0100
1000
0100
,
0000
0012
0000
1000
,
0200
0000
0003
0000
2000
0000
0000
3300
,
1001
0000
1010
0000
1001
0000
0100
0001
,
0000
0001
0000
0001
0100
0010
1000
0001
,
0100
0000
0100
0000
0010
0000
0000
1010
,
0000
0202
0000
0000
0000
0000
0303
0000
,
0001
0000
0010
0000
0100
0000
1000
0100
,
0000
0001
0000
0100
0200
0000
0000
0000
,
0310
0000
1000
0000
0001
0000
0010
0001
,
0000
0002
0000
0000
0000
0000
0000
0000
,
1003
0000
1100
0000
0101
0000
0000
0100
,
0000
0100
0000
0010
0100
0000
0000
0000
,
0010
0000
0010
0000
1010
0000
0000
0011
,
0000
1100
0000
0000
0000
0000
0000
0000
;

//---------------dance-single - ----------------
#NOTES:
     dance-single:
     :
     Beginner:
     1:
     0.084,0.110,0.038,0.000,0.000:
0000
0000
0000
0000
,
0000
0000
0000
0000
,
0000
0000
0000
0000
,
0000
0000
0000
0000
,
1000
0000
0000
0000
,
0001
0000
0000
0000
,
1000
0000
0000
0000
,
0001
0000
0000
0000
,
0001
0000
0000
0000
,
1001
0000
0000
0000
,
0010
0000
0000
0000
,
0010
0000
0000
0000
,
0010
0000
0000
0000
,
0010
0000
0000
0000
,
0010
0000
0000
0000
,
0001
0000
0000
0000
,
1000
0000
0000
0000
,
1000
0000
0000
0000
,
1000
0000
0000
0000
,
1000
0000
0000
0000
,
0001
0000
0000
0000
,
0001
0000
0000
0000
,
0001
0000
0000
0000
,
0001
0000
0000
0000
,
1000
0000
0000
0000
,
1000
0000
0000
0000
,
1001
0000
0000
0000
,
0100
0000
0000
0000
,
0010
0000
0000
0000
,
0010
0000
0000
0000
,
1001
0000
0000
0000
,
0010
0000
0000
0000
,
0010
0000
0000
0000
,
0001
0000
0000
0000
,
0100
0000
0000
0000
,
0001
0000
0000
0000
,
0010
0000
0000
0000
,
0001
0000
0000
0000
,
0010
0000
0000
0000
,
1000
0000
0000
0000
,
0000
0001
0000
0100
,
0000
1000
0000
0010
,
0000
1000
0000
0100
,
0000
0001
0000
0000
;
