#TITLE:SKYLINE;
#SUBTITLE:;
#ARTIST:avid d.;
#TITLETRANSLIT:;
#SUBTITLETRANSLIT:;
#ARTISTTRANSLIT:;
#GENRE:;
#CREDIT:Chewi☆;
#MENUCOLOR:#FFFFFF;
#METERTYPE:DDR X;
#BANNER:SKYLINE.png;
#BACKGROUND:SKYLINE-bg.png;
#LYRICSPATH:;
#CDTITLE:./CDTITLES/DanceDanceRevolution skyMIX2 -FREEDOM-.png;
#MUSIC:SKYLINE.mp3;
#OFFSET:-0.025;
#SAMPLESTART:64.018;
#SAMPLELENGTH:15.000;
#SELECTABLE:YES;
#LISTSORT:;
#DISPLAYBPM:67.000:270.000;
#BPMS:0.000=135.000,80.000=270.001,144.000=67.500,160.000=135.000;
#STOPS:;
#BGCHANGES:;
#ATTACKS:;

//---------------dance-single - Chewi----------------
#NOTES:
     dance-single:
     Chewi:
     Beginner:
     1:
     0.085,0.120,0.000,0.108,0.000: // measure 1
0000
0000
0000
0000
,  // measure 2
0000
0000
0000
0000
,  // measure 3
0000
0000
0000
0000
,  // measure 4
0000
0000
0000
0000
,  // measure 5
1000
0000
0000
0000
,  // measure 6
0100
0000
0000
0000
,  // measure 7
0010
0000
0000
0000
,  // measure 8
0001
0000
0000
0000
,  // measure 9
0001
0000
0000
0000
,  // measure 10
0100
0000
0000
0000
,  // measure 11
0010
0000
0000
0000
,  // measure 12
1000
0000
0000
0000
,  // measure 13
0020
0000
0000
0030
,  // measure 14
0010
0000
0000
0000
,  // measure 15
0200
0000
0000
0300
,  // measure 16
0100
0000
0000
0000
,  // measure 17
2000
0000
0000
3000
,  // measure 18
1000
0000
0000
0000
,  // measure 19
0002
0000
0000
0003
,  // measure 20
0001
0000
0000
0000
,  // measure 21
0100
0000
0000
0000
,  // measure 22
0000
0000
0000
0000
,  // measure 23
0010
0000
0000
0000
,  // measure 24
0000
0000
0000
0000
,  // measure 25
0100
0000
0000
0000
,  // measure 26
0000
0000
0000
0000
,  // measure 27
0010
0000
0000
0000
,  // measure 28
0000
0000
0000
0000
,  // measure 29
1000
0000
0000
0000
,  // measure 30
0000
0000
0000
0000
,  // measure 31
0001
0000
0000
0000
,  // measure 32
0000
0000
0000
0000
,  // measure 33
1000
0000
0000
0000
,  // measure 34
0000
0000
0000
0000
,  // measure 35
0001
0000
0000
0000
,  // measure 36
0000
0000
0000
0000
,  // measure 37
0002
0000
0000
0003
,  // measure 38
0001
0000
0000
0000
,  // measure 39
2000
0000
0000
3000
,  // measure 40
1000
0000
0000
0000
,  // measure 41
0010
0000
0000
0000
,  // measure 42
1000
0000
0000
0000
,  // measure 43
0100
0000
0000
0000
,  // measure 44
0001
0000
0000
0000
,  // measure 45
0010
0000
0000
0000
,  // measure 46
0001
0000
0000
0000
,  // measure 47
0100
0000
0000
0000
,  // measure 48
1000
0000
0000
0000
,  // measure 49
0020
0000
0000
0030
,  // measure 50
0010
0000
0000
0000
,  // measure 51
2000
0000
0000
3000
,  // measure 52
1000
0000
0000
0000
,  // measure 53
0002
0000
0000
0003
,  // measure 54
0001
0000
0000
0000
,  // measure 55
0200
0000
0000
0300
,  // measure 56
0100
0000
0100
0000
;

//---------------dance-single - Chewi----------------
#NOTES:
     dance-single:
     Chewi:
     Easy:
     2:
     0.137,0.211,0.011,0.108,0.000:
0000
0000
0000
0000
,
0000
0000
0000
0000
,
0000
0000
0000
0000
,
0000
0000
0000
0000
,
1000
0000
1000
0000
,
0100
0000
0100
0000
,
1000
0000
1000
0000
,
0100
0000
0100
0000
,
0001
0000
0001
0000
,
0100
0000
0100
0000
,
0001
0000
0001
0000
,
0100
0000
0100
0000
,
0020
0000
0000
0000
,
0000
0000
0000
0030
,
0200
0000
0000
0000
,
0000
0000
0000
0300
,
0002
0000
0000
0000
,
0000
0000
0000
0003
,
2000
0000
0000
0000
,
0000
0000
0000
3000
,
1000
0000
0000
0000
,
0001
0000
0000
0000
,
1000
0000
0000
0000
,
0001
0000
0000
0000
,
1000
0000
0000
0000
,
0001
0000
0000
0000
,
1000
0000
0000
0000
,
0001
0000
0000
0000
,
0100
0000
0000
0000
,
0010
0000
0000
0000
,
0100
0000
0000
0000
,
0010
0000
0000
0000
,
0100
0000
0000
0000
,
0010
0000
0000
0000
,
0100
0000
0000
0000
,
0010
0000
0000
0000
,
0020
0000
0000
0030
,
1000
0000
0001
0000
,
0200
0000
0000
0300
,
0001
0000
1000
0000
,
0010
0010
0010
0000
,
0100
0000
0100
0000
,
0100
0100
0100
0000
,
0010
0000
0010
0000
,
1000
1000
1000
0000
,
1000
0000
0001
0000
,
0001
0001
0001
0000
,
0001
0000
1000
0000
,
2000
0000
0000
3000
,
0200
0000
0000
0300
,
2000
0000
0000
3000
,
0020
0000
0000
0030
,
0001
0100
0001
0000
,
1000
0100
1000
0000
,
0001
1000
0001
0000
,
1001
0000
0000
0000
1000
0001
0000
0000
;

//---------------dance-single - Chewi----------------
#NOTES:
     dance-single:
     Chewi:
     Medium:
     5:
     0.277,0.331,0.065,0.054,0.000:
0000
0000
0000
0000
,
0000
0000
0000
0000
,
0000
0000
0000
0000
,
0000
0000
0000
0000
,
1000
0100
0100
0100
,
0001
0100
0100
0100
,
0001
0010
0010
0010
,
1000
0010
0010
0010
,
0010
0100
0010
0100
,
0001
1000
0001
1000
,
0100
0010
0100
0010
,
0001
1000
0001
1000
,
0010
0001
0100
1000
,
0010
1000
0100
0001
,
0010
0100
1000
0001
,
0100
0010
1000
0001
,
0100
1000
0010
0001
,
0100
0001
0010
1000
,
0100
0010
0100
0010
,
0001
1000
0001
1000
,
1001
0000
0000
0000
,
0100
0000
0000
0000
,
0010
0000
0000
0000
,
1000
0000
0000
0000
,
0110
0000
0000
0000
,
0001
0000
0000
0000
,
0010
0000
0000
0000
,
1000
0000
0000
0000
,
1001
0000
0000
0000
,
0001
0000
0000
0000
,
1000
0000
0000
0000
,
0001
0000
0000
0000
,
0100
0000
0100
0000
,
0010
0000
0010
0000
,
1000
0000
1000
0000
,
0001
0000
0001
0000
,
0010
0000
0000
0010
0010
0000
1000
0000
,
0200
0000
0300
0100
0100
0000
0010
0000
,
0110
0000
0000
0100
0100
0000
0001
0000
,
0010
0000
0000
0000
0010
1000
0100
0001
,
0001
0010
1000
1000
,
0100
0001
0010
1000
,
1000
0010
0001
0001
,
0100
1000
0010
0001
,
0010
0100
0001
1000
,
0100
0010
0001
1000
,
0010
0100
0001
1000
,
0001
1001
1000
1001
,
2000
0000
3000
0000
0001
0001
0001
0000
,
0002
0000
0003
0000
1000
1000
1000
0000
,
0020
0000
0030
0000
0100
0100
0100
0000
,
0200
0000
0300
0000
0010
0010
0010
0000
,
1000
0000
0100
0000
1000
0100
1000
0000
,
0001
0000
0100
0000
0001
0100
0001
0000
,
0100
0000
0010
0000
0100
0010
0100
0000
,
0010
0000
0100
0000
0010
0010
0000
0000
;

//---------------dance-single - Chewi----------------
#NOTES:
     dance-single:
     Chewi:
     Hard:
     9:
     0.510,0.632,0.065,0.173,0.016:
0000
0000
0000
0000
,
0000
0000
0000
0000
,
0000
0000
0000
0000
,
0000
0000
0000
0000
,
1000
0100
0010
0100
1000
0100
0010
0100
,
1000
0001
1000
0001
0100
0010
0100
0010
,
0100
0001
0010
0100
0010
0001
0100
0010
,
0100
0010
0100
0010
1000
0001
1000
0001
,
1000
0100
0010
0001
1000
0100
1000
0100
,
0001
0100
0010
1000
0001
0100
0001
0100
,
0010
0100
0001
1000
0100
0010
0100
0010
,
0010
0100
1000
0001
0100
0010
0100
0010
,
2000
0100
3010
0200
0001
0310
2000
0001
,
3100
0020
0001
0130
0010
0001
0100
0010
,
2000
0010
3100
0002
0010
0103
0020
1000
,
0130
0020
0100
0031
0010
0100
1000
0001
,
0020
0001
0130
2000
0010
3100
0002
0100
,
0013
2000
0001
3010
0100
0010
0001
0100
,
0020
1000
0031
2000
0100
3010
0002
0010
,
0103
2000
0010
3100
0001
0001
1000
1000
,
1000
0000
0100
0000
,
0001
0000
0010
0000
,
1000
0000
0100
0000
,
0001
0000
0010
0000
,
1000
0000
1001
0000
,
0001
0000
1001
0000
,
0100
0000
0110
0000
,
0010
0000
0110
0000
,
0010
0000
0001
0000
,
0100
0000
1000
0000
,
0010
0000
0001
0000
,
0100
0000
1000
0000
,
0010
0000
1000
0000
,
0100
0000
0001
0000
,
0010
0000
1000
0000
,
0100
0000
0001
0000
,
0010
0000
0000
0000
0010
0000
0100
0000
0001
0000
0000
0001
0000
0000
0010
0000
,
0100
0000
1000
0000
0010
0000
1000
0000
0100
0000
0000
0100
0000
0000
0001
0000
,
0010
0000
1000
0000
0100
0000
0010
0000
0001
0000
0000
0001
0000
0000
0001
0000
,
0010
0000
0000
0000
1000
1100
0001
0101
,
0100
0010
1000
0100
1000
0010
1000
0100
,
0010
0001
0100
0010
0100
0001
0010
0100
,
0010
0001
0100
0010
1000
0001
0100
0010
,
1000
0001
0010
0100
1000
0001
0010
0100
,
1000
0010
1000
0100
1000
0010
1000
0100
,
1000
0010
0100
0001
0010
0001
0100
0001
,
0010
0001
0100
0001
0010
0001
0100
0010
,
1000
0001
1000
0001
0010
0100
0010
0100
,
0010
0001
0100
0000
0010
1000
0100
0010
,
0100
1000
0010
0000
0100
0001
0010
0100
,
0010
0001
0100
0000
0010
1000
0100
0010
,
0100
1000
0001
0100
0010
0010
0100
0100
,
0010
0100
0001
0010
0100
0100
0010
0010
,
0001
0100
0010
1000
0001
0001
1000
1000
,
0010
1000
0100
0010
0001
0001
0010
0010
,
0100
1000
0001
0100
0010
0010
0000
0000
;
