#TITLE:SILVER☆DREAM (Twinkle Mix);
#SUBTITLE:;
#ARTIST:jun;
#TITLETRANSLIT:;
#SUBTITLETRANSLIT:;
#ARTISTTRANSLIT:;
#GENRE:;
#CREDIT:Chewphoria~ & xRGTMx;
#MENUCOLOR:;
#METERTYPE:DDR;
#BANNER:SILVER DREAM (Twinkle Mix).png;
#BACKGROUND:SILVER DREAM (Twinkle Mix)-bg.png;
#LYRICSPATH:;
#CDTITLE:;
#MUSIC:SILVER DREAM (Twinkle Mix).mp3;
#OFFSET:-2.930;
#SAMPLESTART:34.245;
#SAMPLELENGTH:15.000;
#SELECTABLE:YES;
#LISTSORT:;
#BPMS:0.000=192.000,96.000=96.000,98.000=192.000,190.000=96.000,192.000=192.000;
#STOPS:;
#BGCHANGES:;
#ATTACKS:;

//---------------dance-single - xRGTMx----------------
#NOTES:
     dance-single:
     xRGTMx:
     Hard:
     15:
     0.851,0.897,0.472,0.324,0.329: // measure 1
0000
0000
0000
0000
,  // measure 2
0000
0000
0000
0000
,  // measure 3
0000
0000
0000
0000
,  // measure 4
0000
0000
0000
0000
,  // measure 5
0010
0000
1000
0000
1100
0000
0000
0010
0001
0000
0100
0000
0110
0000
0000
0000
,  // measure 6
0100
0000
0001
0000
0011
0000
0000
0100
1000
0000
0010
0000
0110
0000
0000
0000
,  // measure 7
0010
0000
1000
0000
0100
0000
0010
0001
0010
0000
0100
0000
1100
0000
0000
0000
,  // measure 8
1001
0000
1001
0000
1001
0000
0000
0000
0100
0010
0100
0010
0100
0000
0000
0000
,  // measure 9
0010
0000
1000
0000
0100
0000
0010
0200
0000
0000
1000
0000
1300
0000
0000
0000
,  // measure 10
0001
0000
1000
0000
0200
0000
0000
0310
0100
0010
0000
0000
0011
0000
0000
0000
,  // measure 11
0001
0000
0100
0000
0010
0000
1000
0200
0000
0000
0010
0000
0010
0000
0300
0000
,  // measure 12
0010
0000
0100
0000
1000
0000
0001
1000
0100
1000
0000
0000
1001
0000
0000
0000
,  // measure 13
1000
0000
0100
0000
0001
0000
0100
2000
0000
0000
0001
0000
3001
0000
0000
0000
,  // measure 14
1000
0000
0010
0000
0100
0000
0001
0010
0001
0010
0000
0000
0011
0000
0000
0000
,  // measure 15
0100
0000
1000
0000
0010
0000
0100
0002
0000
0000
1000
0000
1000
0000
1003
0000
,  // measure 16
1000
0000
0100
0000
0010
0001
0000
0001
1000
0000
0000
0000
1001
0000
0000
0000
,  // measure 17
1000
0000
0100
0000
1000
0000
0010
0000
0100
0001
0100
0000
0001
0000
0010
0000
,  // measure 18
0100
0000
1000
0000
0010
0000
0100
0010
0100
0000
0001
0000
0001
0000
1000
0000
,  // measure 19
1000
0000
0001
0000
0100
0000
0010
1000
0010
0000
0100
0000
0001
0000
1000
0000
,  // measure 20
0100
0000
0010
0000
0100
0000
1000
0100
1000
0100
1000
0000
1002
0000
0000
0000
,  // measure 21
0103
0000
0010
0000
0100
0000
0001
0000
0010
0100
0010
0000
0100
0000
1000
0000
,  // measure 22
0001
0000
0100
0000
0001
0000
1000
0001
1000
0000
0100
0000
1000
0000
0001
0000
,  // measure 23
0100
0000
0010
0000
1000
0000
0100
0000
0010
0001
0010
0000
0100
0000
1000
0000
,  // measure 24
0010
0100
0000
0110
1001
0000
0000
0000
,  // measure 25
0200
0000
0000
0000
0310
1000
0100
0010
,  // measure 26
0100
0000
1000
0000
0002
0000
0000
0000
1003
0100
1000
0000
0001
0100
0001
0000
,  // measure 27
1000
0010
1000
0000
0001
0010
0001
0000
1000
0000
0100
0000
0010
0000
0100
0000
,  // measure 28
1000
0010
0100
0001
1000
0100
0001
0100
,  // measure 29
1000
0001
1000
0001
1000
0000
0000
0000
0010
0000
1000
0000
0010
0000
0100
0001
,  // measure 30
0020
0000
0000
0000
0230
0000
0000
0000
0310
0000
0001
0000
0010
0000
0100
1000
,  // measure 31
0020
0000
0230
0000
0310
0000
1000
1100
,  // measure 32
0000
0100
0110
0000
0010
0001
0100
0010
,  // measure 33
1000
0001
1000
0001
2000
0000
0000
0000
3010
0000
1000
0000
0100
0000
0010
0001
,  // measure 34
0100
0000
0100
0000
0010
0000
1000
0000
0001
0000
0010
0000
0100
0000
1000
0010
,  // measure 35
0100
0100
0001
1000
0100
0001
0100
1000
,  // measure 36
0010
0001
0010
1000
0100
0010
0001
0100
,  // measure 37
0010
0000
1000
0000
2001
0000
0000
0000
3001
0000
0100
0000
0010
0000
1000
0100
,  // measure 38
0010
0000
0010
0000
0100
0000
1000
0000
0001
0000
0100
0000
0010
0000
0100
0001
,  // measure 39
1000
1000
0100
0010
0100
1000
0020
0000
,  // measure 40
0130
0000
0001
0000
0020
0000
0000
0000
0130
0000
1000
0100
1000
0000
0001
0100
,  // measure 41
0001
0000
1000
0000
1001
0000
0000
0000
0001
0000
1000
0000
0020
0000
0000
0130
,  // measure 42
0010
0000
0100
0000
0002
0000
0000
0000
1003
0000
0100
0000
0020
0000
0000
0130
,  // measure 43
0010
0100
2000
0000
3001
1000
0010
0000
,  // measure 44
1000
0001
0010
0000
0001
0100
0010
1000
,  // measure 45
0001
0000
0000
0000
1001
0000
0000
0000
1000
0000
0001
0000
0020
0000
0000
0130
,  // measure 46
0010
0000
0100
0000
2000
0000
0000
0000
3001
0000
0100
0000
0020
0000
0000
0130
,  // measure 47
0010
0100
0001
0010
0100
1000
2000
0100
,  // measure 48
0010
0000
0000
0000
0000
0000
0000
0000
0000
0000
0000
0000
0000
0000
0000
0000
0000
0000
0000
0000
0000
0000
0000
0000
3001
0000
0000
0000
0000
0000
0000
0000
0000
0000
0000
0000
0000
0000
0000
0000
0000
0000
0000
0000
0000
0000
0000
0000
0010
0000
0000
0000
0000
0000
0000
0000
0000
0000
0000
0000
0000
0000
0000
0000
0000
0000
0000
0000
0000
0000
0000
0000
0100
0000
0000
0000
0000
0000
0000
0000
0000
0000
0000
0000
0000
0000
0000
0000
0000
0000
0000
0000
0000
0000
0000
0000
0001
2000
0000
0000
0000
0000
0000
0000
0000
0000
0000
0000
0000
0000
0000
0000
0000
0000
0000
0000
0000
0000
0000
0000
0100
0000
0000
0000
0000
0000
0000
0000
0000
0000
0000
0000
0000
0000
0000
0000
0000
0000
0000
0000
0000
0000
0000
0000
0001
0000
0000
0000
0000
0000
0000
0000
0000
0000
0000
0000
0000
0000
0000
0000
0000
0000
0000
0000
0000
0000
0000
0000
0100
0000
0000
0000
0000
0000
0000
0000
0000
0000
0000
0000
0000
0000
0000
0000
0000
0000
0000
0000
0000
0000
0000
0000
,  // measure 49
3001
0000
0101
1001
0000
1100
0000
1001
,  // measure 50
0000
0000
1000
0100
1000
0000
0001
0000
0100
0000
0010
0000
1001
0000
0000
0000
,  // measure 51
0110
0000
1100
1100
0000
0101
0000
2001
,  // measure 52
0000
0010
3010
0010
0200
0000
0302
0000
,  // measure 53
1003
0100
1000
0100
1000
0000
0001
0000
0100
0000
0010
0000
1000
0000
1000
0000
,  // measure 54
0001
0100
0001
0100
0001
0000
1000
0000
0100
0000
0100
0000
0010
0000
0010
0000
,  // measure 55
0110
0100
1001
0100
,  // measure 56
0110
0000
0100
0000
0010
0000
0100
0000
0010
0001
0100
0010
1000
0100
0010
0001
,  // measure 57
0100
0000
0001
0000
0010
0000
0100
1000
0010
0000
0010
0000
0100
0000
0001
0000
,  // measure 58
1000
0000
0100
0000
0010
0000
0001
0100
0010
0000
0010
0000
1000
0000
0001
0000
,  // measure 59
0010
1000
0010
0001
0100
1000
0100
0001
,  // measure 60
0010
0100
1000
0010
0100
0001
1002
0000
,  // measure 61
1003
0000
0010
0000
0100
0000
0001
0010
0100
0000
0100
0000
0010
0000
0001
0000
,  // measure 62
1000
0000
0010
0000
0100
0000
0010
1000
0001
0000
0001
0000
0010
0000
0100
0000
,  // measure 63
0010
0001
0200
0000
0310
1000
0200
0000
,  // measure 64
0310
0000
0001
0010
0001
0000
1000
0010
1000
0000
0000
0000
1001
0000
0000
0000
,  // measure 65
1000
0100
0010
0100
1000
0100
0010
0001
,  // measure 66
0100
0010
1000
0010
0001
0010
1000
0010
,  // measure 67
0100
0001
0010
0100
1000
0010
0100
0001
,  // measure 68
1000
0100
0010
0001
0100
0010
1001
0000
,  // measure 69
1100
0000
0000
0000
0101
0000
0000
0000
0100
0010
0100
0000
0001
0000
0000
0000
,  // measure 70
1010
0000
0000
0000
0101
0000
0100
0010
0100
0000
0000
0000
1001
0000
0000
0000
,  // measure 71
1100
0000
0100
0010
0100
0000
0100
1000
0100
0000
0010
0001
0100
0001
0100
0000
,  // measure 72
0000
1100
1010
0101
0000
0011
1100
2002
,  // measure 73
0000
0000
0000
0000
,  // measure 74
3003
0000
0000
0000
;

//---------------dance-single - Chewphoria~----------------
#NOTES:
     dance-single:
     Chewphoria~:
     Medium:
     11:
     0.618,0.610,0.511,0.069,0.000: // measure 1
0000
0000
0000
0000
,  // measure 2
0000
0000
0000
0000
,  // measure 3
0000
0000
0000
0000
,  // measure 4
0000
0000
0000
0000
,  // measure 5
0001
0100
0010
0100
0001
0100
0010
0000
,  // measure 6
0110
0011
0101
0110
,  // measure 7
0010
0100
1000
0100
0010
0100
1000
0100
,  // measure 8
0110
1010
1100
0110
,  // measure 9
0002
0000
0100
0010
1000
0000
0013
0000
,  // measure 10
2000
0000
0100
0010
0001
0010
3010
0000
,  // measure 11
0020
0000
0100
1000
0100
1000
1030
0000
,  // measure 12
2000
0000
0100
0001
0010
0001
3001
0000
,  // measure 13
0001
0100
0010
1000
0001
0000
1100
0000
,  // measure 14
1000
0100
0010
0001
0010
0000
0011
0000
,  // measure 15
0001
1000
0001
0000
0100
0010
0100
0000
,  // measure 16
0101
1010
0011
0110
,  // measure 17
1000
0100
1000
0000
0001
0010
0001
0000
,  // measure 18
0010
0100
1000
0001
,  // measure 19
0100
0110
1000
1010
,  // measure 20
1001
0010
1001
0100
,  // measure 21
1000
0100
1000
0000
0001
0010
0001
0000
,  // measure 22
0010
0000
0100
1000
0010
0000
0100
0000
,  // measure 23
0001
0100
0001
0000
1000
0010
1000
0000
,  // measure 24
1001
0000
0010
0100
1000
0001
1000
0001
,  // measure 25
2000
0010
0001
0000
3001
0010
0001
0000
,  // measure 26
1000
0010
1000
0000
0110
0000
1001
0000
,  // measure 27
0110
0000
1001
0000
1000
0100
1000
0000
,  // measure 28
0001
0010
0001
0000
0010
0000
1000
0000
,  // measure 29
0100
0000
0001
0000
0100
0001
0100
0000
,  // measure 30
1000
0100
1000
0000
0010
1000
0010
0000
,  // measure 31
0010
0001
0010
0000
0001
0010
0100
1000
,  // measure 32
0001
1000
0100
0000
1001
0000
0000
0000
,  // measure 33
1000
0000
0001
0000
1000
0010
0100
0000
,  // measure 34
0001
0000
0101
0000
1000
0010
0100
0001
,  // measure 35
0100
0000
0101
0000
0001
0010
0001
0000
,  // measure 36
1000
0100
1000
0000
0001
0000
1100
0000
,  // measure 37
1000
0000
0101
0000
1000
0010
0100
0001
,  // measure 38
0100
0010
1001
0101
,  // measure 39
1100
0000
0110
0000
1001
0100
0010
0000
,  // measure 40
1001
0100
0010
0000
1000
0100
0010
0001
,  // measure 41
0010
0000
1100
0000
1000
0100
0001
0000
,  // measure 42
0010
0001
0010
0000
0001
0000
1000
0000
,  // measure 43
0010
0000
0100
0000
0001
0100
0100
0000
,  // measure 44
1000
0100
0100
0000
0010
0001
0100
1000
,  // measure 45
0100
0001
0010
0000
0101
0000
1100
0000
,  // measure 46
0010
0100
1000
0000
1010
0000
0011
0000
,  // measure 47
0010
0100
0001
0000
1000
0100
0001
0100
,  // measure 48
1000
0010
0001
0010
0200
0000
0001
0001
,  // measure 49
0301
0000
1000
0010
0000
1000
0000
0010
,  // measure 50
0000
0000
0000
0000
0000
1000
0100
1000
,  // measure 51
0001
0000
1000
0010
0000
0100
0000
0001
,  // measure 52
0000
0100
0010
0100
0010
0000
0100
0000
,  // measure 53
1010
0000
1000
0001
1000
0000
0100
0000
,  // measure 54
0010
0000
0001
0010
0100
0000
1000
0000
,  // measure 55
0001
1000
0001
0000
1000
0010
1000
0000
,  // measure 56
0101
0101
0101
0101
,  // measure 57
1000
0010
0100
0001
1000
0010
0100
0001
,  // measure 58
0100
0100
0101
0101
,  // measure 59
0001
0010
0100
1000
0001
0010
0100
1000
,  // measure 60
0100
0100
0100
0100
,  // measure 61
1000
0010
0100
1000
0010
0100
1000
0010
,  // measure 62
0100
0010
0100
0010
0100
0000
0001
0000
,  // measure 63
0100
0001
0010
0100
0010
0001
0100
0010
,  // measure 64
0100
0010
0100
0010
0100
0000
0110
0000
,  // measure 65
1000
0100
0010
0001
0010
0100
1000
0000
,  // measure 66
0001
0110
1001
0110
,  // measure 67
1000
0100
0010
0000
0001
0010
0100
0000
,  // measure 68
1000
0001
1000
0001
0100
0010
0100
0010
,  // measure 69
1000
0010
1000
0010
0100
0000
0001
0000
,  // measure 70
0100
0001
0100
0001
0100
0010
0100
0000
,  // measure 71
0010
1010
0010
0011
,  // measure 72
0000
1000
0010
0001
0000
0001
0010
1000
,  // measure 73
0200
0000
0000
0000
,  // measure 74
0300
0000
0000
0000
;

//---------------dance-single - Chewphoria~----------------
#NOTES:
     dance-single:
     Chewphoria~:
     Easy:
     8:
     0.409,0.502,0.256,0.049,0.000: // measure 1
0000
0000
0000
0000
,  // measure 2
0000
0000
0000
0000
,  // measure 3
0000
0000
0000
0000
,  // measure 4
0000
0000
0000
0000
,  // measure 5
1000
0010
0001
0010
,  // measure 6
1000
0100
0001
0100
,  // measure 7
0200
0010
0010
0310
,  // measure 8
0020
0100
0100
0130
,  // measure 9
1000
0100
0010
0000
,  // measure 10
0100
0010
0001
0000
,  // measure 11
0001
0100
0010
0000
,  // measure 12
1000
0010
0100
0000
,  // measure 13
0001
0100
0001
0000
0100
0000
0010
0000
,  // measure 14
1000
0010
1000
0000
,  // measure 15
1000
0100
1000
0000
0100
0000
0010
0000
,  // measure 16
0001
0010
0100
0000
,  // measure 17
0101
0000
1100
0000
,  // measure 18
1000
0001
0100
0010
,  // measure 19
1010
0000
0011
0000
,  // measure 20
1000
0001
0010
0100
,  // measure 21
0001
1000
0100
0100
,  // measure 22
0001
1000
0100
0100
,  // measure 23
0001
0100
1000
0100
,  // measure 24
0010
1000
0010
0001
,  // measure 25
0020
0000
0031
0010
,  // measure 26
0100
1000
0100
0010
,  // measure 27
0001
0010
1100
0010
,  // measure 28
0101
0010
0110
1001
,  // measure 29
0110
1001
1000
0100
,  // measure 30
0010
0001
1000
0010
,  // measure 31
0100
0001
0100
0010
,  // measure 32
1000
0001
0010
0010
,  // measure 33
0010
0010
0001
0010
,  // measure 34
0100
1000
1000
0010
,  // measure 35
0100
0001
1000
0100
,  // measure 36
0001
0010
1000
0100
,  // measure 37
0010
1000
0100
0001
,  // measure 38
0010
1000
0100
0001
,  // measure 39
0010
0100
0001
0101
,  // measure 40
1000
0000
1100
0000
0010
0100
0010
0000
,  // measure 41
0010
0000
0001
0010
,  // measure 42
0100
1000
1000
0010
,  // measure 43
0100
0001
0001
0100
,  // measure 44
0010
1000
0001
1000
,  // measure 45
0100
0010
1000
0010
,  // measure 46
0001
0100
1000
1000
,  // measure 47
0100
0001
0010
1000
,  // measure 48
0100
0010
0002
0000
,  // measure 49
1003
0100
0000
0000
,  // measure 50
0100
1000
0100
0000
1000
0000
0000
0000
,  // measure 51
0001
0100
0000
0000
,  // measure 52
0100
0010
0100
0000
0000
0000
0000
0000
,  // measure 53
0010
1000
0100
0001
,  // measure 54
0010
0001
0100
1000
,  // measure 55
0001
0101
1000
1100
,  // measure 56
0110
1001
1001
1000
,  // measure 57
1000
0100
0010
0001
,  // measure 58
1000
0100
0010
0001
,  // measure 59
0100
1000
0100
0001
,  // measure 60
0010
1000
0010
0001
,  // measure 61
0001
0100
0100
0100
,  // measure 62
1000
0100
0100
0100
,  // measure 63
0010
0011
1000
1010
,  // measure 64
0100
0110
0100
0101
,  // measure 65
0001
0100
0001
0000
1000
0000
1000
0000
,  // measure 66
1010
0001
0001
0001
,  // measure 67
1000
0100
1000
0000
0100
0000
0100
0000
,  // measure 68
0011
0011
1000
1000
,  // measure 69
0001
0100
0010
1000
,  // measure 70
0001
0010
0100
1000
,  // measure 71
0001
1100
1000
0101
,  // measure 72
0100
0100
0010
0010
,  // measure 73
0020
0000
0000
0000
,  // measure 74
0030
0000
0000
0000
;

//---------------dance-single - Chewphoria~----------------
#NOTES:
     dance-single:
     Chewphoria~:
     Beginner:
     4:
     0.274,0.354,0.069,0.108,0.000: // measure 1
0000
0000
0000
0000
,  // measure 2
0000
0000
0000
0000
,  // measure 3
0000
0000
0000
0000
,  // measure 4
0000
0000
0000
0000
,  // measure 5
1000
0000
0001
0000
,  // measure 6
1000
0001
1000
0000
,  // measure 7
0010
0000
0100
0000
,  // measure 8
0010
0100
0010
0000
,  // measure 9
2000
0000
3000
0000
,  // measure 10
0002
0000
0003
0000
,  // measure 11
0020
0000
0030
0000
,  // measure 12
0200
0000
0300
0000
,  // measure 13
0020
0000
0030
0000
,  // measure 14
0002
0000
0003
0000
,  // measure 15
2000
0000
3000
0000
,  // measure 16
0002
0000
0003
0000
,  // measure 17
1000
1000
1000
0000
,  // measure 18
0010
0010
0010
0000
,  // measure 19
0100
0100
0100
0000
,  // measure 20
0001
0001
0001
0000
,  // measure 21
0010
0010
0010
0000
,  // measure 22
1000
1000
1000
0000
,  // measure 23
0100
0100
0100
0000
,  // measure 24
0010
0010
0010
0000
,  // measure 25
1001
0000
1000
1000
,  // measure 26
1000
0000
0001
0001
,  // measure 27
0001
0000
1000
0000
,  // measure 28
0001
0000
0100
0010
,  // measure 29
0100
0010
0100
0000
,  // measure 30
0100
0000
0001
0000
,  // measure 31
0001
0000
0001
0000
,  // measure 32
1000
0000
1001
0000
,  // measure 33
1001
0000
1000
1000
,  // measure 34
1000
1000
1000
1000
,  // measure 35
1000
0000
1000
0001
,  // measure 36
1000
0001
1000
0001
,  // measure 37
1000
0000
0010
0010
,  // measure 38
0010
0010
0010
0010
,  // measure 39
0010
0000
0100
0010
,  // measure 40
0100
0010
0100
0010
,  // measure 41
0100
0000
0002
0000
,  // measure 42
0000
0003
1000
1000
,  // measure 43
1000
0000
2000
0000
,  // measure 44
0000
3000
0010
0010
,  // measure 45
0010
0000
0200
0000
,  // measure 46
0000
0300
0100
0100
,  // measure 47
0100
0000
0010
0000
,  // measure 48
1000
0000
1001
0000
,  // measure 49
0001
0000
0000
0000
,  // measure 50
1001
0000
0000
0000
,  // measure 51
1000
0001
1000
0000
,  // measure 52
0010
0000
0000
0000
,  // measure 53
0100
0100
0100
0000
,  // measure 54
0100
0000
0010
0000
,  // measure 55
1000
0000
0001
0000
,  // measure 56
1001
0000
0000
0000
,  // measure 57
1000
1000
1000
0000
,  // measure 58
0001
1000
0001
0000
,  // measure 59
0100
0100
0100
0000
,  // measure 60
0010
0100
0010
0000
,  // measure 61
0010
0010
0010
0000
,  // measure 62
0100
0010
0100
0000
,  // measure 63
1000
1000
1000
0000
,  // measure 64
0001
1000
0001
0000
,  // measure 65
1000
1000
1000
1000
,  // measure 66
1000
1000
1000
1000
,  // measure 67
0001
0001
0001
0001
,  // measure 68
0001
0001
0001
0001
,  // measure 69
0100
0100
0100
0100
,  // measure 70
0100
0100
0100
0100
,  // measure 71
0010
0010
0010
0010
,  // measure 72
0010
0010
0010
0010
,  // measure 73
1001
0000
0000
0000
;
