#TITLE:SHAKE THAT BRASS (Feat. 태연 (소녀시대));
#SUBTITLE:;
#ARTIST:엠버;
#TITLETRANSLIT:SHAKE THAT BRASS (Feat. Taeyeon (Girls' Generation));
#SUBTITLETRANSLIT:;
#ARTISTTRANSLIT:AMBER;
#GENRE:K-Pop;
#CREDIT:;
#BANNER:SHAKE THAT BRASS (Feat. Taeyeon (Girls' Generation)).png;
#BACKGROUND:SHAKE THAT BRASS (Feat. Taeyeon (Girls' Generation))-bg.png;
#LYRICSPATH:;
#CDTITLE:cdtitle.png;
#MUSIC:SHAKE THAT BRASS (Feat. Taeyeon (Girls' Generation)).ogg;
#OFFSET:-0.569000;
#SAMPLESTART:38.969002;
#SAMPLELENGTH:15.000000;
#SELECTABLE:YES;
#BPMS:0.000000=124.999992
;
#STOPS:
;
#BGCHANGES:-0.200=SHAKE THAT BRASS (Feat. Taeyeon (Girls' Generation)).avi=1.000=1=0=0=StretchNoLoop==CrossFade==,
99999=-nosongbg-=1.000=0=0=0 // don't automatically add -songbackground-
;
#KEYSOUNDS:;
#ATTACKS:;

//---------------dance-single - ----------------
#NOTES:
     dance-single:
     :
     Beginner:
     2:
     0.089370,0.127203,0.083412,0.033365,0.000000,61.000000,10.000000,4.000000,0.000000,0.000000,0.000000,0.089370,0.127203,0.083412,0.033365,0.000000,61.000000,10.000000,4.000000,0.000000,0.000000,0.000000:
// measure 0
0000
0000
0000
0000
,  // measure 1
0000
0000
0000
0000
,  // measure 2
0000
0000
0000
0000
,  // measure 3
0000
0000
0000
0000
,  // measure 4
1001
0000
0000
0000
,  // measure 5
1000
0000
0000
0000
,  // measure 6
0001
0000
0000
0000
,  // measure 7
0001
0000
0000
0000
,  // measure 8
0110
0000
0000
0000
,  // measure 9
0100
0000
0000
0000
,  // measure 10
0100
0000
0000
0000
,  // measure 11
0010
0000
0000
0000
,  // measure 12
2000
0000
0000
3000
,  // measure 13
1000
0000
0000
0000
,  // measure 14
0002
0000
0000
0003
,  // measure 15
0001
0000
0000
0000
,  // measure 16
0020
0000
0000
0030
,  // measure 17
0010
0000
0000
0000
,  // measure 18
0200
0000
0000
0300
,  // measure 19
0100
0000
0000
0000
,  // measure 20
0110
0000
0000
0000
,  // measure 21
0010
0000
0000
0000
,  // measure 22
0100
0000
0000
0000
,  // measure 23
0100
0000
0000
0000
,  // measure 24
1001
0000
0000
0000
,  // measure 25
1000
0000
0000
0000
,  // measure 26
0001
0000
0000
0000
,  // measure 27
1000
0000
0000
0000
,  // measure 28
0110
0000
0000
0000
,  // measure 29
0110
0000
0000
0000
,  // measure 30
1000
0000
0000
0000
,  // measure 31
0001
0000
0000
0000
,  // measure 32
0100
0000
0000
0000
,  // measure 33
1001
0000
0000
0000
,  // measure 34
0010
0000
0000
0000
,  // measure 35
1000
0000
0000
0000
,  // measure 36
0001
0000
0000
0000
,  // measure 37
0100
0000
0000
0000
,  // measure 38
0100
0000
0100
0000
,  // measure 39
0100
0000
0000
0000
,  // measure 40
0010
0000
0010
0000
,  // measure 41
0010
0000
0000
0000
,  // measure 42
0010
0000
0000
0000
,  // measure 43
1000
0000
0000
0000
,  // measure 44
1000
0000
0000
0000
,  // measure 45
0001
0000
0000
0000
,  // measure 46
0001
0000
0000
0000
,  // measure 47
1000
0000
0000
0000
,  // measure 48
1000
0000
0000
0000
,  // measure 49
1001
0000
0000
0000
,  // measure 50
1000
0000
0000
0000
,  // measure 51
0010
0000
0000
0000
,  // measure 52
1000
0000
0000
0000
,  // measure 53
1001
0000
0000
0000
,  // measure 54
0001
0000
0000
0000
,  // measure 55
0010
0000
0000
0000
,  // measure 56
0001
0000
0000
0000
,  // measure 57
1001
0000
0000
0000
,  // measure 58
0100
0000
0000
0000
,  // measure 59
0010
0000
0000
0000
,  // measure 60
0100
0000
0100
0000
,  // measure 61
0100
0000
0000
0000
;

//---------------dance-single - ----------------
#NOTES:
     dance-single:
     :
     Easy:
     4:
     0.168015,0.203525,0.100094,0.000000,0.000000,129.000000,12.000000,0.000000,0.000000,0.000000,0.000000,0.168015,0.203525,0.100094,0.000000,0.000000,129.000000,12.000000,0.000000,0.000000,0.000000,0.000000:
0000
0000
0000
0000
,
0000
0000
0000
0000
,
0000
0000
0000
0000
,
0000
0000
0000
0000
,
1000
0000
0000
0000
,
0100
0100
0100
0000
,
0001
0000
0000
0000
,
0010
0010
0010
0000
,
1000
0000
1000
0000
,
0001
0000
0001
0000
,
0100
0000
0100
0000
,
0010
0000
0010
0000
,
0110
0000
0000
0000
,
1000
0100
0010
0000
,
0110
0000
0000
0000
,
0100
0010
0001
0000
,
0001
0001
0001
0000
,
1000
0001
1000
0000
,
1000
1000
1000
0000
,
0001
1000
0001
0000
,
1001
0000
1000
0000
,
0001
1000
0100
0000
,
1000
0000
0001
0000
,
0100
0100
0100
0000
,
0110
0000
0100
0000
,
0100
0010
1000
0000
,
0001
0000
1000
0000
,
0100
0100
0100
0000
,
0110
0000
0000
0000
,
0010
0000
0010
0000
,
0100
0000
0100
0000
,
1000
0100
1000
0000
,
0001
0100
0001
0000
,
0001
0000
0001
0000
,
1000
0000
1000
0000
,
0001
1000
0010
0000
,
1000
0001
0010
0000
,
0110
0000
0000
0000
,
0010
0100
0010
0000
,
0100
1000
0001
0000
,
0010
0001
1000
0000
,
1001
0000
0000
0000
,
1001
0000
0000
0000
,
0110
0000
0000
0000
,
0110
0000
0000
0000
,
0100
0100
0100
0000
,
0010
0010
0010
0000
,
1000
0001
1000
0000
,
0001
1000
0001
0000
,
1001
0000
1000
0000
,
0001
1000
0100
0000
,
0010
0000
0100
0000
,
0010
0010
0010
0000
,
0110
0000
0100
0000
,
0010
0100
1000
0000
,
0001
0000
1000
0000
,
0001
0100
0010
1000
,
0010
0000
0000
0000
,
0100
0000
0000
0000
,
0001
0000
0000
0000
,
1000
0000
0000
0000
,
0001
0000
0000
0000
;

//---------------dance-single - ----------------
#NOTES:
     dance-single:
     :
     Medium:
     6:
     0.252619,0.305287,0.183506,0.016682,0.004171,188.000000,22.000000,2.000000,0.000000,0.000000,0.000000,0.252619,0.305287,0.183506,0.016682,0.004171,188.000000,22.000000,2.000000,0.000000,0.000000,0.000000:
0000
0000
0000
0000
,
0000
0000
0000
0000
,
0000
0000
0000
0000
,
0000
0000
0000
0000
,
1100
0000
0100
0000
,
0010
0001
0100
0001
,
0101
0000
0100
0000
,
0100
0010
1000
0001
,
1000
0100
0010
0100
,
1000
0001
0010
0100
,
0010
0001
1000
0100
,
1000
0000
0001
0000
0100
0100
0100
0000
,
0110
0010
0100
0000
,
0110
0100
0010
0000
,
1001
1000
0001
0000
,
1001
0001
1000
0000
,
1000
0100
0010
0001
,
1000
0000
0100
0000
1000
0001
1000
0000
,
0001
0100
0010
1000
,
0001
0000
0100
0000
0001
0100
0001
0000
,
1001
0000
0000
1000
0000
0000
0000
0000
,
1001
0000
0000
0001
0000
0000
0000
0000
,
0110
0000
0000
0010
0000
0000
0000
0000
,
0010
0100
0010
0100
,
1100
0000
0000
1000
0000
0000
0000
0000
,
0101
0000
0000
0001
0000
0000
0000
0000
,
1001
0000
0000
0000
0000
0000
0000
1000
0000
0000
0000
0000
0000
0000
0000
0000
,
0001
1000
0100
0100
,
0220
0000
0000
0330
,
0010
0000
0010
0000
,
0010
0000
0010
0001
,
0010
0100
1000
0001
,
0100
0000
0010
0000
0100
0100
0100
0000
,
0010
0000
0010
0000
,
0010
0000
0010
0000
,
0010
0000
0100
0000
0001
1000
0001
0000
,
1000
0000
0100
0000
0010
0100
0010
0000
,
0110
0000
0010
0000
,
0010
0100
1000
0001
,
1000
0100
0001
0100
,
1000
0010
0001
0010
,
0001
0000
0001
0000
0001
0001
0001
0000
,
1000
0000
1000
0000
1000
1000
1000
0000
,
0010
0000
0010
0000
0010
0010
0010
0000
,
0100
0000
0100
0000
0100
0100
0100
0000
,
0110
0000
0010
0000
,
0010
1000
0001
1000
,
1100
0000
0010
0000
,
0100
1000
0001
0010
,
0011
0000
0000
0001
0000
0000
0000
0000
,
1100
0000
0000
1000
0000
0000
0000
0000
,
1001
0000
0000
1000
0000
0000
0000
0000
,
0001
1000
0010
0100
,
0110
0000
0000
0100
0000
0000
0000
0000
,
0110
0000
0000
0010
0000
0000
0000
0000
,
1010
0000
0000
1000
0000
0000
0000
0000
,
0001
0100
1000
0010
,
0001
0000
1000
0000
,
0001
0000
1000
0001
,
0010
0000
0100
0000
,
0010
0000
0010
0000
0100
0010
0100
0010
,
0100
0000
0000
0000
;

//---------------dance-single - ----------------
#NOTES:
     dance-single:
     :
     Hard:
     10:
     0.405143,0.483372,0.150141,0.158483,0.066730,303.000000,18.000000,19.000000,0.000000,0.000000,0.000000,0.405143,0.483372,0.150141,0.158483,0.066730,303.000000,18.000000,19.000000,0.000000,0.000000,0.000000:
0000
0000
0000
0000
,
0000
0000
0000
0000
,
0000
0000
0000
0000
,
0000
0000
0000
0000
,
1000
0100
1000
0000
0100
0010
0100
0000
,
0010
0001
0010
0000
0001
0000
1001
0000
,
1000
0100
1000
0000
0001
0100
0001
0000
,
1000
0010
1000
0000
0001
0000
1001
0000
,
0010
0100
0010
0000
0100
1000
0010
0000
,
1000
0010
1000
0000
0001
0100
0010
0000
,
0010
0100
0001
1000
0200
0000
0310
0000
,
0100
0010
0001
1000
0020
0000
0130
0000
,
0002
0000
0103
0000
1000
0100
1000
0000
,
0200
0000
0310
0000
0001
1000
0100
0010
,
0002
0000
0013
0000
0100
1000
0001
0000
,
0200
0000
0310
0000
0100
0010
0100
0000
,
0001
0100
0001
0100
0000
0001
0001
0000
,
0100
0010
0100
0010
0000
1000
1000
0000
,
0010
1000
0001
0100
0000
0001
0001
0000
,
1000
0001
1000
0001
0000
0000
0000
0000
,
1001
0000
1000
0100
0000
0100
1000
0000
,
1001
0000
0001
0010
0000
0010
0001
0000
,
1001
0000
0100
0010
0000
0010
0100
0000
,
0001
0000
1000
0001
1000
0000
0001
1000
0001
0000
1000
0000
1000
0000
0000
0000
,
0110
0000
0100
0010
0000
0010
0100
0000
,
1001
0000
1000
0010
0000
0010
1000
0000
,
1001
0000
0001
0010
0000
0010
0001
0000
,
0010
0000
0100
0010
0100
0000
0010
0100
0010
0000
0100
0000
0100
0000
0000
0000
,
0220
0000
0000
0330
,
0001
0000
0000
0010
0000
0000
0100
0000
1000
0000
0000
0010
0000
0000
0100
0000
,
0001
0000
0000
1000
0000
0000
0100
0000
1000
0000
0000
0001
0000
0000
0100
0000
,
0200
0000
0001
0000
0010
0010
0310
0000
,
0020
0000
1000
0000
0100
0100
0130
0000
,
0100
0000
0000
0010
0000
0000
1000
0000
0001
0000
0000
0100
0000
0000
0010
0000
,
1000
0000
0000
0001
0000
0000
0010
0000
0100
0000
0000
1000
0000
0000
0001
0000
,
2000
0000
0100
0000
0001
0001
3001
0000
,
0002
0000
0010
0000
1000
1000
1003
0000
,
0001
0010
0001
0000
0010
0100
0010
0000
,
0100
1000
0100
0000
1000
0000
1001
0000
,
0001
0010
0001
0000
1000
0010
1000
0000
,
0001
0100
0001
0000
1000
0000
1001
0000
,
0100
0010
0100
0000
0010
0001
0100
0000
,
0001
0100
0001
0000
1000
0010
0100
0000
,
0100
0010
1000
0001
0020
0000
0130
0000
,
0010
0100
1000
0001
0200
0000
0310
0000
,
1000
0010
1000
0010
0000
1000
1000
0000
,
0010
0100
0010
0100
0000
0001
0001
0000
,
0100
0001
1000
0010
0000
1000
1000
0000
,
0001
1000
0001
1000
0000
0000
0000
0000
,
1001
0000
0001
0010
0000
0010
0001
0000
,
1001
0000
1000
0100
0000
0100
1000
0000
,
1001
0000
0010
0100
0000
0100
0010
0000
,
1000
0000
0001
1000
0001
0000
1000
0001
1000
0000
0001
0000
0001
0000
0000
0000
,
0110
0000
0010
0100
0000
0100
0010
0000
,
1001
0000
0001
0100
0000
0100
0001
0000
,
1001
0000
1000
0100
0000
0100
1000
0000
,
0100
0000
0010
0100
0010
0000
0100
0010
0100
0000
0010
0000
0010
0000
0000
0000
,
0220
0000
0000
0300
,
0002
0000
0000
0030
,
0200
0000
0000
0003
,
0020
0000
0000
0330
,
0100
0000
0000
0000
;
