#TITLE:SHAKE IT UP;
#SUBTITLE:;
#ARTIST:Selena Gomez & the Scene;
#TITLETRANSLIT:;
#SUBTITLETRANSLIT:;
#ARTISTTRANSLIT:;
#CREDIT:Chewi☆;
#BANNER:SHAKE IT UP.png;
#BACKGROUND:SHAKE IT UP-bg.png;
#LYRICSPATH:;
#CDTITLE:;
#MUSIC:SHAKE IT UP.mp3;
#OFFSET:-0.191;
#SAMPLESTART:22.425;
#SAMPLELENGTH:15.000;
#SELECTABLE:YES;
#BPMS:0.000=128.000;
#STOPS:;
#BGCHANGES:;
#MENUCOLOR:;
#METERTYPE:DDR X;

//---------------dance-single - Chewi----------------
#NOTES:
     dance-single:
     Chewi:
     Beginner:
     1:
     0.108,0.158,0.039,0.079,0.000:
0000
0000
0000
0000
,
0000
0000
0000
0000
,
0000
0000
0000
0000
,
0000
0000
0000
0000
,
1000
0000
0000
0000
,
0100
0000
0000
0000
,
0001
0000
0000
0000
,
0100
0000
0000
0000
,
1000
0000
0000
0000
,
0010
0000
0000
0000
,
0001
0000
0000
0000
,
0010
0000
0000
0000
,
0020
0000
0000
0030
,
0100
0000
0100
0000
,
0200
0000
0000
0300
,
0010
0000
0010
0000
,
2000
0000
0000
3000
,
0001
0000
0001
0000
,
0002
0000
0000
0003
,
1000
0000
1000
0000
,
1001
0000
0000
0000
,
0110
0000
0000
0000
,
1000
0000
0100
0000
,
0100
0000
0100
0000
,
0001
0000
0010
0000
,
0010
0000
0010
0000
,
0100
0000
0010
0000
,
1000
0000
0001
0000
,
0010
0000
0100
0000
,
1000
0000
0001
0000
,
2000
0000
0000
3000
,
0001
0000
0001
0000
,
0002
0000
0000
0003
,
1000
0000
1000
0000
,
0200
0000
0000
0300
,
0010
0000
0010
0000
,
0020
0000
0000
0030
,
0100
0000
0100
0000
,
1001
0000
0000
0000
,
1000
0000
0000
0000
,
0001
0000
0000
0000
,
1000
1000
1000
1000
,
1001
0000
0000
0000
,
0001
0000
0000
0000
,
1000
0000
0000
0000
,
0001
0001
0001
0001
,
0001
0000
0000
0000
;

//---------------dance-single - Chewi----------------
#NOTES:
     dance-single:
     Chewi:
     Easy:
     4:
     0.200,0.226,0.059,0.059,0.000:
0000
0000
0000
0000
,
0000
0000
0000
0000
,
0000
0000
0000
0000
,
0000
0000
0000
0000
,
1000
0000
0100
0000
,
1000
0100
1000
0000
,
0001
0000
0100
0000
,
0001
0100
0001
0000
,
1000
0000
0001
0000
,
1000
0001
1000
0000
,
0010
0000
0100
0000
,
0010
0100
0010
0000
,
1000
1000
0100
0000
,
0001
0001
0100
0000
,
0001
0100
0010
1000
,
0100
0001
0010
0000
,
0001
0001
0010
0000
,
1000
1000
0010
0000
,
1000
0010
0100
0001
,
0010
1000
0100
0010
,
0220
0000
0000
0330
,
0100
0100
0100
0100
,
0010
0100
0100
0010
,
1000
0001
1000
0000
,
0001
1000
1001
0000
,
0010
0100
0110
0000
,
0010
0001
0100
0010
,
0001
0100
1000
0100
,
0010
1000
0100
0010
,
1000
0100
0001
0100
,
0010
0010
0100
0000
,
0001
1000
0001
0000
,
1000
0100
0001
0010
,
1000
0010
0001
0100
,
1000
0001
1001
0000
,
0001
1000
1001
0000
,
1000
0100
0010
0001
,
0100
1000
0010
0001
,
0020
0000
0000
0030
,
0100
0010
0001
1000
,
0002
0000
0000
0003
,
0001
1000
0010
0100
,
0200
0000
0000
0300
,
0010
0100
0001
1000
,
2000
0000
0000
3000
,
1000
0100
0010
0001
,
0110
0000
0000
0000
;

//---------------dance-double - Chewi----------------
#NOTES:
     dance-double:
     Chewi:
     Easy:
     4:
     0.218,0.226,0.148,0.079,0.000: // measure 1
00000000
00000000
00000000
00000000
,  // measure 2
00000000
00000000
00000000
00000000
,  // measure 3
00000000
00000000
00000000
00000000
,  // measure 4
00000000
00000000
00000000
00000000
,  // measure 5
00100000
10000000
01000000
00000000
,  // measure 6
01000000
00010000
00100000
00000000
,  // measure 7
00100000
00001000
00000010
00000000
,  // measure 8
00000010
00000001
00000100
00000000
,  // measure 9
00000100
00001000
00000010
00000000
,  // measure 10
00000010
00001000
00010000
00000000
,  // measure 11
00010000
01000000
10000000
00000000
,  // measure 12
00100000
10000000
01000000
00000000
,  // measure 13
00100000
00100000
00100000
00000000
,  // measure 14
01000000
00100000
01010000
00000000
,  // measure 15
00010000
00001000
00000010
00000000
,  // measure 16
00000010
00000100
00000110
00000000
,  // measure 17
00000100
00000001
00001000
00000000
,  // measure 18
00000100
00001000
00001100
00000000
,  // measure 19
00001000
00010000
00100000
10000000
,  // measure 20
01000000
00100000
00010000
10000000
,  // measure 21
11000000
01000000
01000000
01000000
,  // measure 22
02000000
00000000
00000000
03000000
,  // measure 23
00100000
00010000
00001000
00000100
,  // measure 24
00000001
00000010
00001000
00000010
,  // measure 25
00000100
00000010
00000110
00000000
,  // measure 26
00000001
00001000
00001001
00000000
,  // measure 27
00000001
00001000
00000100
00010000
,  // measure 28
01000000
10000000
00100000
00010000
,  // measure 29
00100000
01000000
01100000
00000000
,  // measure 30
01000000
00100000
01100000
00000000
,  // measure 31
00010000
00010000
00100000
00000000
,  // measure 32
01000000
01000000
01100000
00000000
,  // measure 33
01000000
00010000
00100000
00001000
,  // measure 34
00000010
00000001
00000100
00000010
,  // measure 35
00001000
00000010
00001001
00000000
,  // measure 36
00000001
00000100
00001001
00000000
,  // measure 37
00001000
00000100
00010000
01000000
,  // measure 38
10000000
00100000
00010000
00100000
,  // measure 39
02200000
00000000
00000000
03300000
,  // measure 40
00100000
01000000
10000000
00010000
,  // measure 41
02020000
00000000
00000000
03030000
,  // measure 42
01000000
00010000
00001000
00000010
,  // measure 43
00002020
00000000
00000000
00003030
,  // measure 44
00000010
00001000
00000100
00000001
,  // measure 45
00000020
00000000
00000000
00000030
,  // measure 46
00000100
00001000
00010000
00001000
,  // measure 47
00011000
00000000
00000000
00000000
;

//---------------dance-single - Chewi----------------
#NOTES:
     dance-single:
     Chewi:
     Medium:
     7:
     0.280,0.317,0.187,0.118,0.000:
0000
0000
0000
0000
,
0000
0000
0000
0000
,
0000
0000
0000
0000
,
0000
0000
0000
0000
,
1000
1100
0001
0101
,
0001
0010
1000
0100
,
0001
0101
1000
1100
,
1000
0010
0001
0100
,
0020
0130
0020
0130
,
0010
1000
0100
0000
0010
0000
0001
0000
,
0200
0310
0200
0310
,
0100
1000
0010
0000
0010
1000
0100
0000
,
1002
0100
0013
0000
,
0100
0100
0100
0000
0100
0000
0000
0000
,
1000
0010
0001
0100
,
1000
0100
0001
0100
,
1002
0010
1003
0000
,
0100
0100
0100
0000
0100
0000
0000
0000
,
0010
1000
0100
0001
,
0010
0001
0100
1000
,
0010
0101
0010
1100
,
1000
0001
1000
0001
1000
0000
0000
0000
,
0001
0101
1000
1100
,
0001
0010
1000
0010
,
0001
1001
1000
1001
,
0010
0010
0010
0000
,
0100
0001
0010
1000
,
0100
1000
0010
0001
,
0100
0010
1000
0001
,
0010
0100
1000
0001
,
1002
0100
0013
0000
,
0010
0010
0010
0000
0100
0000
0000
0000
,
0100
1000
0010
0100
,
0001
0010
0100
1000
,
1002
0100
1003
0000
,
0010
0010
0010
0000
0010
0000
0000
0000
,
1000
0100
0001
0010
,
0010
0001
0100
1000
,
1020
0000
0100
1030
,
1002
0000
1000
0013
,
0001
0100
0010
1000
,
0001
1000
0001
0000
1000
0001
1000
0000
,
0201
0000
0010
0301
,
1020
0000
0100
1030
,
0001
0010
0100
1000
,
0001
1000
0001
0000
1000
0001
1000
0000
,
1001
0000
0000
0000
;

//---------------dance-double - Chewi----------------
#NOTES:
     dance-double:
     Chewi:
     Medium:
     8:
     0.288,0.317,0.157,0.020,0.000: // measure 1
00000000
00000000
00000000
00000000
,  // measure 2
00000000
00000000
00000000
00000000
,  // measure 3
00000000
00000000
00000000
00000000
,  // measure 4
00000000
00000000
00000000
00000000
,  // measure 5
10000000
11000000
00010000
00110000
,  // measure 6
00100000
01000000
00100000
00000000
01000000
00100000
01000000
00000000
,  // measure 7
00100000
00010000
00001000
00000010
,  // measure 8
00000001
00000100
00001000
00000100
,  // measure 9
00000001
00000101
00001000
00001100
,  // measure 10
00000010
00001000
00000010
00000000
00001000
00000100
00001000
00000000
,  // measure 11
00000100
00010000
01000000
10000000
,  // measure 12
00100000
00010000
00100000
00000000
,  // measure 13
00100000
10000000
00010000
00000000
00100000
00000000
01000000
00000000
,  // measure 14
00100000
00001000
00000010
00000001
,  // measure 15
00000100
00000001
00001000
00000000
00000100
00000000
00001000
00000000
,  // measure 16
00001001
00000110
00001001
00000110
,  // measure 17
00000010
00001000
00000100
00000000
00010000
00000000
00100000
00000000
,  // measure 18
10000000
01000000
00010000
00000000
00100000
00000000
01000000
00000000
,  // measure 19
00100000
00010000
01000000
00000000
10000000
00000000
00100000
00000000
,  // measure 20
00010000
10010000
10000000
10010000
,  // measure 21
00110000
00010000
00001000
00010000
,  // measure 22
00022000
00000000
00000000
00033000
,  // measure 23
00010000
00000010
00001000
00000010
,  // measure 24
00000100
00000010
00000100
00000000
00000010
00000100
00000010
00000000
,  // measure 25
00000001
00000100
00001000
00000100
,  // measure 26
00010000
01000000
10000000
00100000
,  // measure 27
00010000
00100000
10000000
00100000
,  // measure 28
00010000
00001000
00000010
00000001
,  // measure 29
00000100
00000010
00000100
00000000
00000010
00000100
00000010
00000000
,  // measure 30
00001000
00001100
00000011
00000101
,  // measure 31
00000001
00000100
00000001
00000000
00001000
00000000
00000000
00000000
,  // measure 32
00000100
00001000
00000100
00000000
00010000
00000000
00000000
00000000
,  // measure 33
00001000
00100000
01000000
10000000
,  // measure 34
00100000
01000000
00100000
00000000
01000000
00100000
01000000
00000000
,  // measure 35
00010000
01000000
00100000
00000000
,  // measure 36
10000000
01000000
00100000
00000000
,  // measure 37
00010000
10000000
00100000
01000000
,  // measure 38
00010000
00001000
00000010
00000001
,  // measure 39
00000100
00000000
00000010
00000000
00001000
00000001
00001000
00000000
,  // measure 40
00000001
00000000
00000100
00000000
00001000
00000100
00001000
00000000
,  // measure 41
00000100
00000000
00010000
00000000
01000000
00100000
01000000
00000000
,  // measure 42
00100000
00000000
10000000
00000000
01000000
00100000
01000000
00000000
,  // measure 43
00100000
00000000
00001000
00000000
00000010
00001000
00000010
00000000
,  // measure 44
00000100
00000000
00000001
00000000
00001000
00000001
00001000
00000000
,  // measure 45
00000001
00000100
00000010
00001000
,  // measure 46
00000100
00000100
00000100
00000000
00010000
00010000
00001000
00010000
,  // measure 47
00011000
00000000
00000000
00000000
;

//---------------dance-single - Chewi----------------
#NOTES:
     dance-single:
     Chewi:
     Hard:
     12:
     0.526,0.475,0.197,0.020,0.256:
0000
0000
0000
0000
,
0000
0000
0000
0000
,
0000
0000
0000
0000
,
0000
0000
0000
0000
,
1000
0010
0101
0000
0001
0010
1100
0000
,
1000
0001
0100
0010
1000
0001
0010
0100
,
1000
0001
0101
0000
0001
1000
1100
0000
,
0001
1000
0010
0100
0001
1000
0010
0100
,
0002
0000
0013
0100
2000
0000
3010
0100
,
0001
1000
0100
0010
0001
1000
0010
0000
,
0010
0100
0010
0100
0001
1000
0001
1000
,
0001
0010
0100
1000
0001
0010
0100
1000
,
0001
0000
0100
0000
0010
0000
1000
0000
0001
0000
0010
0001
0000
0001
0010
0000
,
0100
0000
1000
0000
0010
0000
0100
0000
0001
0000
0100
0001
0000
0001
0100
0000
,
0010
0000
1000
0000
0001
0000
0010
0000
0100
0000
0010
0100
0000
0100
0010
0000
,
0001
0000
0100
0000
0010
0000
1000
0000
0001
0000
1000
0001
0000
0001
1000
0000
,
0010
0000
0100
0000
0001
0000
0100
0000
0010
0000
1000
0100
0000
0100
1000
0000
,
0001
0000
0010
0000
0100
0000
1000
0000
0010
0000
0100
0010
0000
0010
0100
0000
,
0001
0000
0010
0000
0100
0000
1000
0000
0010
0000
0100
0001
0000
0001
0100
0000
,
0010
0000
1000
0000
0001
0000
0010
0000
0100
0000
0010
0001
0000
0001
0010
0000
,
0011
0101
1100
1010
,
0011
0000
1000
0000
0100
0000
0001
0000
0100
0000
1000
0000
0010
0100
0001
0000
,
0100
0000
0010
1000
0001
0000
0010
0000
0100
0000
1000
0001
1000
0000
0010
0000
,
0100
0100
0001
0010
0100
1000
1010
0100
,
0001
0000
0010
0001
0100
0000
0010
0000
1000
0000
0001
0010
0100
0000
1000
0000
,
0010
0100
0001
0100
1000
0100
0001
0100
,
1000
0000
0010
0000
0100
0000
0001
0010
0100
0000
1000
0000
0010
0000
0100
0000
,
0001
0000
0100
0000
0010
0000
1000
0001
0010
0000
0100
0000
1000
0000
0010
0000
,
0100
0000
0100
0000
0010
0000
0010
0000
1000
0000
0001
0010
0100
0000
1000
0000
,
0100
0010
0001
0100
0010
1000
0001
0010
,
0001
0000
0100
0000
0010
0000
1000
0000
0001
0000
0010
0001
0000
0001
0010
0000
,
0100
0000
1000
0000
0010
0000
0100
0000
0001
0000
0100
0001
0000
0001
0100
0000
,
0010
0000
1000
0000
0001
0000
0010
0000
0100
0000
0010
0100
0000
0100
0010
0000
,
0001
0000
0100
0000
0010
0000
1000
0000
0001
0000
1000
0001
0000
0001
1000
0000
,
0010
0000
0100
0000
0001
0000
0100
0000
0010
0000
1000
0100
0000
0100
1000
0000
,
0001
0000
0010
0000
0100
0000
1000
0000
0010
0000
0100
0010
0000
0010
0100
0000
,
0001
0000
0010
0000
0100
0000
1000
0000
0010
0000
0100
0001
0000
0001
0100
0000
,
0010
0000
1000
0000
0001
0000
0010
0000
0100
0000
0010
0001
0000
0001
0010
0000
,
1100
0000
0001
0000
0100
0000
0010
0000
1000
0000
0001
1000
0000
0001
1000
0000
,
1000
0000
0100
0000
0001
0000
0010
0000
0100
0000
1000
0100
0000
1000
0100
0000
,
1000
0000
0010
0000
0100
0000
0001
0000
0010
0000
0100
0010
0000
0100
0010
0000
,
0001
0011
0011
0000
1000
1100
1100
0000
,
0001
0000
0100
0000
0010
0000
1000
0000
0001
0000
0100
0001
0000
0100
0001
0000
,
0100
0000
0010
0000
1000
0000
0001
0000
0010
0000
0100
0010
0000
0100
0010
0000
,
0001
0000
0010
0000
0100
0000
1000
0000
0010
0000
0100
0001
0000
0100
0001
0000
,
0100
0110
1010
0000
1000
1100
1001
0000
,
0011
0000
0000
0000
;

//---------------dance-double - Chewi----------------
#NOTES:
     dance-double:
     Chewi:
     Hard:
     11:
     0.448,0.407,0.197,0.030,0.000: // measure 1
00000000
00000000
00000000
00000000
,  // measure 2
00000000
00000000
00000000
00000000
,  // measure 3
00000000
00000000
00000000
00000000
,  // measure 4
00000000
00000000
00000000
00000000
,  // measure 5
10000000
01000000
01010000
00000000
00010000
01000000
11000000
00000000
,  // measure 6
10000000
01000000
00100000
00010000
00001000
00000100
00000010
00000001
,  // measure 7
00001000
00000010
00001001
00000000
00000010
00000001
00001001
00000000
,  // measure 8
00000100
00000010
00001000
00000100
00010000
00100000
01000000
10000000
,  // measure 9
00200000
00000000
01300000
00100000
20000000
00000000
30010000
00100000
,  // measure 10
01000000
10000000
01000000
00100000
00010000
01000000
01000000
00000000
,  // measure 11
01000000
00010000
00100000
00001000
00010000
00000100
00001000
00000001
,  // measure 12
00000100
00000010
00001000
00000001
00000000
00000000
00000000
00000000
,  // measure 13
00000101
00000010
00001000
00000001
00000010
00000100
00000100
00000000
,  // measure 14
00001000
00000100
00010000
00001000
00100000
01000000
01000000
00000000
,  // measure 15
00100000
01000000
10000000
00100000
00010000
01000000
10000000
00000000
,  // measure 16
10000000
01000000
00010000
00100000
01000000
10000000
00100000
00000000
,  // measure 17
10000000
01000000
00100000
00010000
00001000
00000100
00001000
00000000
,  // measure 18
00001000
00000100
00000001
00000010
00001000
00000010
00000010
00000000
,  // measure 19
00000010
00000100
00000001
00000010
00000100
00001000
00000010
00001000
,  // measure 20
00000100
00010000
00001000
00100000
00010000
01000000
00100000
10000000
,  // measure 21
10100000
01010000
00110000
11000000
,  // measure 22
21000000
00000000
00010000
00000000
30100000
00000000
10000000
00100000
,  // measure 23
10100000
01000000
00100000
00010000
00001000
00000100
00000010
00000001
,  // measure 24
00001000
00000001
00001000
00000001
00000100
00000010
00000100
00000010
,  // measure 25
00001000
00000010
00001000
00000010
00001000
00000100
00001000
00000100
,  // measure 26
00010000
00000100
00010000
00000100
00010000
00001000
00010000
00001000
,  // measure 27
00001000
00010000
01000000
10000000
00100000
00010000
00100000
10000000
,  // measure 28
01000000
00100000
00010000
00001000
00000100
00000010
00000001
00000100
,  // measure 29
00000010
00001000
00000001
00000010
00000100
00001000
00000010
00000100
,  // measure 30
00000001
00000001
00000100
00000100
00000010
00001000
00000100
00010000
,  // measure 31
00001000
00100000
00010000
01000000
10100000
00000000
00000000
00000000
,  // measure 32
00010000
00100000
01000000
10000000
11000000
00000000
00000000
00000000
,  // measure 33
10000000
00010000
01000000
00100000
10000000
00010000
00100000
00001000
,  // measure 34
00010000
00000100
00001000
00000001
00000100
00000010
00001000
00000001
,  // measure 35
00000010
00000100
00001000
00000010
00000110
00000000
00000010
00000000
,  // measure 36
00000100
00000001
00000010
00000100
00001000
00000000
00001010
00000000
,  // measure 37
00000010
00001000
00000100
00010000
00001000
00100000
00010000
01000000
,  // measure 38
10000000
00100000
00010000
00100000
10000000
00100000
01000000
00010000
,  // measure 39
01010000
00000000
10100000
00000000
00010000
10000000
01000000
10000000
,  // measure 40
10010000
00000000
01010000
00000000
00100000
00010000
00001000
00000100
,  // measure 41
00000001
00000100
00001000
00000000
00001000
00000001
00000100
00001000
,  // measure 42
00000010
00000010
00000010
00000000
00000100
00000100
00000100
00000000
,  // measure 43
00000010
00001000
00000100
00010000
00001000
00100000
00010000
01000000
,  // measure 44
00010000
00100000
00010000
01000000
00010000
00100000
00001000
00010000
,  // measure 45
00000100
00001000
00000100
00001000
00000010
00001000
00000100
00001000
,  // measure 46
00000010
00000100
00000001
00000010
00000100
00001000
00000010
00000100
,  // measure 47
00000110
00000000
00000000
00000000
;
