#TITLE:SEXY PEOPLE (Static Revenger Remix);
#SUBTITLE:;
#ARTIST:LOLENE;
#TITLETRANSLIT:;
#SUBTITLETRANSLIT:;
#ARTISTTRANSLIT:;
#GENRE:;
#CREDIT:Chewi☆;
#MENUCOLOR:#FFFF00;
#METERTYPE:DDR X;
#BANNER:SEXY PEOPLE (Static Revenger Remix).png;
#BACKGROUND:SEXY PEOPLE (Static Revenger Remix)-bg.png;
#LYRICSPATH:;
#CDTITLE:;
#MUSIC:SEXY PEOPLE (Static Revenger Remix).mp3;
#OFFSET:-0.077;
#SAMPLESTART:38.483;
#SAMPLELENGTH:15.000;
#SELECTABLE:YES;
#LISTSORT:;
#DISPLAYBPM:125.000;
#BPMS:0.000=125.000;
#STOPS:76.000=1.420
;
#BGCHANGES:;
#ATTACKS:;

//---------------dance-single - Chewi----------------
#NOTES:
     dance-single:
     Chewi:
     Beginner:
     1:
     0.072,0.076,0.026,0.000,0.000:
0000
0000
0000
0000
,
0000
0000
0000
0000
,
0000
0000
0000
0000
,
0000
0000
0000
0000
,
1000
0000
0000
0000
,
0010
0000
0000
0000
,
0001
0000
0000
0000
,
0100
0000
0000
0000
,
0100
0000
0000
0000
,
1000
0000
0000
0000
,
0100
0000
0000
0000
,
0010
0000
0000
0000
,
0001
0000
0000
0000
,
0100
0000
0000
0000
,
1000
0000
0000
0000
,
0010
0000
0000
0000
,
0010
0000
0000
0000
,
1000
0000
0000
0000
,
0100
0000
0000
0000
,
0001
0001
0000
0000
,
0000
1000
0000
0000
,
0000
0100
0000
0000
,
0000
0010
0000
0000
,
0000
1000
0000
0000
,
0000
1000
0000
0000
,
0000
0100
0000
0000
,
0000
0010
0000
0000
,
0000
0001
0000
0000
,
0000
0001
0000
0000
,
0000
1000
0000
0000
,
0000
0001
0000
0000
,
0000
0100
0000
0000
,
0000
0100
0000
0000
,
0000
0100
0000
0000
,
0000
0010
0000
0000
,
0000
1001
0000
0000
,
0000
0001
0000
0000
,
0000
0110
0000
0000
,
0000
0100
0000
0000
,
0100
0000
0000
0000
;

//---------------dance-single - Chewi----------------
#NOTES:
     dance-single:
     Chewi:
     Easy:
     4:
     0.221,0.230,0.078,0.156,0.000:
0000
0000
0000
0000
,
0000
0000
0000
0000
,
0000
0000
0000
0000
,
0000
0000
0000
0000
,
1000
1000
1000
0000
,
0010
0001
0100
0000
,
0001
0001
0001
0000
,
0100
1000
0010
0000
,
0100
0100
0100
0000
,
1000
0001
0010
0000
,
0100
0100
0100
0000
,
0010
0001
1000
0000
,
0002
0003
0001
0001
,
0200
0300
0100
0100
,
2000
3000
1000
1000
,
0020
0000
0000
0030
,
0020
0030
0010
0010
,
2000
3000
1000
1000
,
0200
0300
0100
0100
,
0001
0001
0001
0001
,
0001
1000
1000
1000
,
1000
0100
0100
0100
,
0100
0010
0010
0010
,
0010
0001
0000
1001
,
0000
1000
0000
1001
,
0000
0100
0000
0110
,
0000
0010
0000
0110
,
0000
0001
0001
1000
,
1000
0001
1000
0001
,
1000
2000
0000
3000
,
0000
0002
0000
0003
,
0000
0100
0100
0010
,
0010
0100
0010
0100
,
0010
0200
0000
0300
,
0000
0020
0000
0030
,
0000
1001
1000
0001
,
0000
0001
1000
0001
,
0000
0110
0010
0100
,
0000
0100
0010
0100
,
0200
0300
0000
0000
;

//---------------dance-single - Chewi----------------
#NOTES:
     dance-single:
     Chewi:
     Medium:
     7:
     0.346,0.357,0.208,0.364,0.007:
0000
0000
0000
0000
,
0000
0000
0000
0000
,
0000
0000
0000
0000
,
0000
0000
0000
0000
,
2000
3100
0100
0010
,
0002
0103
0100
0010
,
2000
3010
0001
0010
,
0002
0013
1000
0010
,
0001
0010
0100
1001
,
1000
0010
0100
1001
,
0001
0010
1000
1010
,
1000
0100
0001
0101
,
1001
1000
0001
0000
2000
0000
3000
0000
,
0001
1000
0001
0000
0002
0000
0003
0000
,
0110
0010
0100
0000
0020
0000
0030
0000
,
0100
0010
0100
0000
0200
0000
0300
0000
,
0001
1000
0001
0000
2000
0000
3000
0000
,
1001
1000
0001
0000
0002
0000
0003
0000
,
0010
0100
0010
0000
0200
0000
0300
0000
,
0110
0020
0032
0203
,
2300
0000
3010
0100
0010
0000
0100
0000
,
0010
0000
0000
0000
0200
0000
0000
0000
0302
0000
0000
0000
0023
0000
0000
0030
,
2000
0000
0000
0000
0100
3000
0010
0000
0100
0000
0000
0000
0010
0000
0000
0000
,
0010
2000
3002
0023
,
0230
0000
0310
0100
0010
0000
0100
0000
,
0100
0002
0023
0230
,
2300
0000
3001
1000
0001
0000
1000
0000
,
1000
0101
1000
1100
,
0001
0000
1000
0100
1000
0000
0001
0010
,
0001
1000
1000
0001
,
0001
0100
0010
1000
,
0001
1000
1100
0001
,
0011
0000
0000
0000
0010
0000
0001
0000
0010
0000
0000
0000
0010
0000
0000
1000
,
0010
0010
0001
0100
,
1000
0010
1000
0100
,
0001
0000
1001
0000
0000
0001
0000
0000
,
0000
0000
0110
0000
0000
0010
0000
0000
,
0000
0000
1001
0000
0000
0001
0000
0000
,
0000
0000
0110
0000
0000
0100
0000
0000
,
0200
0300
0000
0000
;

//---------------dance-single - Chewi----------------
#NOTES:
     dance-single:
     Chewi:
     Hard:
     9:
     0.422,0.434,0.377,0.117,0.033:
0000
0000
0000
0000
,
0000
0000
0000
0000
,
0000
0000
0000
0000
,
0000
0000
0000
0000
,
1000
0100
0010
0000
0100
0000
1100
0000
,
0001
0100
0010
0000
0100
0000
0101
0000
,
1000
0001
0100
0000
0010
0000
0100
0000
,
0001
1000
0100
0000
0010
0000
0100
0000
,
1000
0100
0010
0000
0001
0000
0011
0000
,
0001
0100
0010
0000
1000
0000
1010
0000
,
0001
1000
0100
0000
0010
0000
0100
0000
,
1000
0001
0010
0000
0100
0000
0010
0000
,
0001
1000
0010
0100
0020
0000
0230
0000
,
0301
0100
0010
1000
2000
0000
3002
0000
,
1003
0100
0010
0000
0100
0000
0110
0000
,
0001
0100
1000
0010
,
0001
0010
0100
1000
0020
0000
0230
0000
,
0310
1000
0001
0010
0200
0000
0320
0000
,
0031
0010
0100
1000
0001
1000
0100
0000
,
1001
0101
0011
0101
,
1100
1010
1100
1001
,
0110
0000
0001
0100
1000
0000
1000
0010
,
0001
0000
0001
0010
1000
0000
1000
0100
,
0001
0101
1100
1001
,
0110
1010
0011
1001
,
0110
0000
0001
0010
0100
0000
1000
0010
,
0100
0000
0001
1000
0001
1000
0100
0010
,
0100
0010
0001
0000
1100
0000
1000
0100
,
1000
0000
1000
0001
1000
0001
0100
0010
,
0100
0010
1000
0000
1010
0000
0001
0010
,
0001
0000
0001
0010
0001
0010
0100
1000
,
0100
1000
0001
0000
0011
0000
0010
0100
,
1000
0000
1000
0100
0001
0100
1000
0100
,
0001
0100
0010
0000
0100
0000
0010
0100
,
0001
0000
0010
0000
0100
0000
0010
0100
,
1000
0000
0000
0000
1001
0000
0000
1000
0000
0000
1000
0000
0000
0000
0000
0000
,
0100
0000
0000
0000
1001
0000
0000
0001
0000
0000
0001
0000
0000
0000
0000
0000
,
0100
0000
0000
0000
0110
0000
0000
0010
0000
0000
0010
0000
0000
0000
0000
0000
,
0001
0000
0000
0000
1001
0000
0000
1000
0000
0000
1000
0000
0000
1000
0000
0000
,
2000
3000
0000
0000
;

//---------------dance-double - Chewi----------------
#NOTES:
     dance-double:
     Chewi:
     Hard:
     9:
     0.426,0.434,0.195,0.130,0.065:
00000000
00000000
00000000
00000000
,
00000000
00000000
00000000
00000000
,
00000000
00000000
00000000
00000000
,
00000000
00000000
00000000
00000000
,
00000000
00000000
10000000
00000000
00100000
01000000
00010000
00100000
,
01000000
00000000
00100000
00000000
00010000
00100000
00001000
00010000
,
00000100
00000000
00001000
00000000
00000010
00000100
00000001
00000010
,
00000100
00000000
00000000
00000100
00000000
00000000
00000100
00000000
00000000
00000010
00000000
00000000
00000010
00000000
00000000
00000000
,
00000000
00000000
00000100
00000000
00000010
00001000
00000001
00000010
,
00000100
00000000
00010000
00000000
00000100
00010000
00001000
00100000
,
00010000
00000000
00100000
00000000
01000000
00100000
00010000
10000000
,
01000000
00000000
00000000
00000000
00000000
00000000
00100000
00000000
00010000
00000000
00100000
00000000
01000000
00000000
00000000
10000000
00000000
00000000
00100000
00000000
00000000
00000000
00000000
00000000
,
10000000
01000000
00100000
00010000
00200000
00000000
00320000
00000000
,
01030000
00100000
01000000
00010000
00200000
00000000
00320000
00000000
,
00130000
00100000
00001000
00010000
00000200
00000000
00000320
00000000
,
00000130
00000100
00000010
00000010
00001000
00000001
00000010
00000000
,
00000100
00000010
00000001
00001000
00001010
00000000
00001001
00000000
,
00000001
00000100
00000010
00001000
00010100
00000000
00011000
00000000
,
00001000
00010000
01000000
10000000
01100000
00010000
10010000
00000000
,
00000000
00000000
10000000
00010000
01000000
00100000
10000000
10000000
,
00010000
00010000
00000000
00000000
00000000
00000000
00010000
00100000
,
01000000
00100000
00010000
00001000
00000100
00000001
00000100
00001000
,
00000010
00000010
00000000
00000100
00000000
00000110
00000000
00000100
,
00000010
00000001
00000010
00000000
00000100
00001000
00000010
00001000
,
00000100
00000100
00000000
00000000
00000000
00000000
00000100
00001000
,
00000010
00000100
00000001
00001000
00000100
00010000
00001000
00100000
,
00010000
01000000
00100000
00000000
10000000
00000000
01000000
00000000
,
00010000
00000000
00000000
00000000
11000000
00000000
00000000
00000000
01010000
00000000
00000000
00000000
00100000
00000000
00000000
01000000
,
00000000
00000000
10000000
10000000
00010000
00010000
10000000
01000000
,
00100000
00000000
00020000
00000000
01030000
00000000
00010000
00100000
,
00001000
00000000
00020000
00000000
00030100
00000000
00000100
00001000
,
00000001
00000000
00000101
00000000
00001010
00000000
00000001
00000001
,
00001000
00000000
00000010
00000010
00000100
00000100
00000010
00001000
,
00000100
00000000
00001000
00000100
00010000
00001000
00010000
00000100
,
00001000
00000001
00000100
00001000
00010000
01000000
10000000
00100000
,
10000000
00000000
00010000
00000000
00100000
00000000
00000000
00100000
00000000
00000000
00100000
00000000
00000000
00000000
00000000
00000000
,
10010000
00000000
00000000
00000000
01000000
00000000
00000000
01000000
00000000
00000000
01000000
00000000
00000000
00000000
00000000
00000000
,
01100000
00000000
00000000
00000000
10000000
00000000
00000000
00010000
00000000
00000000
10000000
00000000
00000000
00000000
00000000
00000000
,
10010000
00000000
00000000
00000000
00010000
00000000
00000000
00001000
00000000
00000000
00010000
00000000
00000000
00001000
00000000
00000000
,
00022000
00033000
00000000
00000000
;

//---------------dance-double - Chewi----------------
#NOTES:
     dance-double:
     Chewi:
     Medium:
     6:
     0.282,0.306,0.195,0.143,0.000: // measure 1
00000000
00000000
00000000
00000000
,  // measure 2
00000000
00000000
00000000
00000000
,  // measure 3
00000000
00000000
00000000
00000000
,  // measure 4
00000000
00000000
00000000
00000000
,  // measure 5
00000000
10000000
00010000
00100000
,  // measure 6
01000000
00100000
00010000
00001000
,  // measure 7
00000010
00000100
00000010
00001000
,  // measure 8
00000002
00000000
00002003
00000000
,  // measure 9
00003001
00001000
00000010
00000100
,  // measure 10
00001000
00000100
00000001
00000010
,  // measure 11
00001000
00010000
01000000
10000000
,  // measure 12
02000000
00000000
03200000
00000000
,  // measure 13
00310000
10000000
10010000
00000000
,  // measure 14
01000000
00010000
00110000
00000000
,  // measure 15
00100000
00010000
00001000
00000100
,  // measure 16
00001000
00001001
00000001
00001001
,  // measure 17
00000010
00000100
00000110
00000000
,  // measure 18
00001000
00000100
00001100
00000000
,  // measure 19
00000100
00001000
00010000
00100000
,  // measure 20
01100000
00000000
01000000
10000000
01000000
00000000
10000000
00000000
,  // measure 21
00000000
00010000
00000000
00000000
00000000
00000000
01000000
00000000
,  // measure 22
00010000
00000000
00100000
00001000
00100000
00000000
00001000
00000000
,  // measure 23
00000000
00010000
00000000
00001000
00000000
00000010
00000000
00001000
,  // measure 24
00000000
00000010
00000100
00000000
00000001
00000000
00001000
00000000
,  // measure 25
00000001
00001000
00000000
00000000
00000000
00000000
00000001
00000000
,  // measure 26
00000010
00000000
00000100
00000000
00001000
00000000
00000010
00001000
,  // measure 27
00000100
00010000
00000000
00000000
00001000
00000000
00001000
00000000
,  // measure 28
00001000
00011000
00011000
00010000
,  // measure 29
01000000
00000000
00100000
10000000
00010000
00000000
00100000
00010000
,  // measure 30
10000000
02000000
00000000
03000000
,  // measure 31
00100000
00200000
00000000
00300000
,  // measure 32
00000000
00000000
00110000
00000000
01010000
00000000
01000000
00010000
,  // measure 33
00100000
00000000
00100000
00001000
00010000
00000000
00001000
00000000
,  // measure 34
00001010
00002000
00000000
00003000
,  // measure 35
00000001
00000010
00000002
00000000
00000000
00000000
00000003
00000000
,  // measure 36
00000000
00001000
00000100
00000001
,  // measure 37
00001001
00000001
00000100
00001000
,  // measure 38
00011000
00001000
00010000
01000000
,  // measure 39
01010000
00000000
00200000
00000000
00000000
00320000
00000000
00000000
,  // measure 40
20030000
30000000
00000000
00000000
;

//---------------dance-double - Chewi----------------
#NOTES:
     dance-double:
     Chewi:
     Easy:
     4:
     0.188,0.204,0.065,0.130,0.000: // measure 1
00000000
00000000
00000000
00000000
,  // measure 2
00000000
00000000
00000000
00000000
,  // measure 3
00000000
00000000
00000000
00000000
,  // measure 4
00000000
00000000
00000000
00000000
,  // measure 5
00000000
00000000
00010000
00000000
,  // measure 6
01000000
00000000
00010000
00000000
,  // measure 7
00000010
00000000
00000010
00000000
,  // measure 8
00000002
00000000
00002003
00000000
,  // measure 9
00003000
00001000
00000000
00000100
,  // measure 10
00000000
00000100
00000000
00000010
,  // measure 11
00000000
00010000
00000000
01000000
,  // measure 12
02000000
00000000
03200000
00000000
,  // measure 13
00310000
10000000
00010000
00000000
,  // measure 14
01000000
00010000
00100000
00000000
,  // measure 15
00100000
00010000
00001000
00000000
,  // measure 16
00001000
00000001
00000001
00001000
,  // measure 17
00000010
00000100
00000010
00000000
,  // measure 18
00001000
00000100
00001000
00000000
,  // measure 19
00000100
00001000
00010000
00000000
,  // measure 20
01100000
01000000
01000000
10000000
,  // measure 21
00000000
00010000
00000000
01000000
,  // measure 22
00010000
00100000
00000000
00001000
,  // measure 23
00000000
00000000
00000000
00001000
,  // measure 24
00000010
00000100
00000000
00001000
,  // measure 25
00000001
00001000
00000000
00000001
,  // measure 26
00000010
00000100
00000000
00000010
,  // measure 27
00000100
00000000
00001000
00010000
,  // measure 28
00000000
00011000
00000000
00010000
,  // measure 29
00000000
00100000
00010000
00100000
,  // measure 30
10000000
02000000
00000000
03000000
,  // measure 31
00100000
00200000
00000000
00300000
,  // measure 32
00000000
00100000
00010000
01000000
,  // measure 33
00100000
00100000
00010000
00001000
,  // measure 34
00000010
00002000
00000000
00003000
,  // measure 35
00000000
00000002
00000000
00000003
,  // measure 36
00000000
00001000
00000000
00000000
,  // measure 37
00001001
00000001
00000000
00000000
,  // measure 38
00011000
00010000
00000000
00000000
,  // measure 39
10010000
00200000
00000000
02300000
,  // measure 40
00000000
03000000
00000000
00000000
;
