#TITLE:SCREAM;
#SUBTITLE:;
#ARTIST:2NE1;
#TITLETRANSLIT:;
#SUBTITLETRANSLIT:;
#ARTISTTRANSLIT:;
#GENRE:;
#CREDIT:Chewi☆;
#BANNER:SCREAM.png;
#BACKGROUND:SCREAM-bg.png;
#LYRICSPATH:;
#CDTITLE:;
#MUSIC:SCREAM.mp3;
#OFFSET:-2.187;
#SAMPLESTART:61.689;
#SAMPLELENGTH:15.000;
#SELECTABLE:YES;
#DISPLAYBPM:128.000;
#BPMS:0.000=128.000;
#STOPS:;
#BGCHANGES:;

//---------------dance-single - Chewi----------------
#NOTES:
     dance-single:
     Chewi:
     Beginner:
     1:
     0.086,0.123,0.063,0.000,0.000:
0000
0000
0000
0000
,
0000
0000
0000
0000
,
0000
0000
0000
0000
,
0000
0000
0000
0000
,
1000
0000
0000
0000
,
0001
0000
0000
0000
,
0100
0000
0100
0000
,
0100
0000
0000
0000
,
0010
0000
0000
0000
,
1000
0000
0000
0000
,
0100
0000
0000
0000
,
0100
0000
0000
0000
,
0010
0000
0000
0000
,
0001
0000
0000
0000
,
0100
0000
0000
0000
,
0100
0000
0000
0000
,
1000
0000
0000
0000
,
0001
0000
0000
0000
,
1000
0000
1000
0000
,
0001
0000
0001
0000
,
0100
0000
0000
0000
,
0010
0000
0000
0000
,
0100
0000
0100
0000
,
0010
0000
0010
0000
,
1000
0000
0000
0000
,
1000
0000
0000
0000
,
0001
0000
0000
0000
,
0001
0000
0000
0000
,
0100
0000
0000
0000
,
0100
0000
0000
0000
,
0010
0000
0000
0000
,
0010
0000
0000
0000
,
1001
0000
0000
0000
,
0100
0000
0000
0000
,
1000
0000
1000
0000
,
1000
0000
0000
0000
,
1001
0000
0000
0000
,
0010
0000
0000
0000
,
0001
0000
0001
0000
,
0001
0000
0000
0000
,
1001
0000
0000
0000
,
1000
0000
0000
0000
,
0110
0000
0000
0000
,
0010
0000
0000
0000
,
1001
0000
0000
0000
,
0001
0000
0000
0000
,
0110
0000
0000
0000
,
0100
0000
0000
0000
;

//---------------dance-single - Chewi----------------
#NOTES:
     dance-single:
     Chewi:
     Easy:
     4:
     0.168,0.200,0.042,0.168,0.000:
0000
0000
0000
0000
,
0000
0000
0000
0000
,
0000
0000
0000
0000
,
0000
0000
0000
0000
,
0020
0000
0000
0030
,
0010
0010
0010
0000
,
0200
0000
0000
0300
,
0100
0100
0100
0000
,
0010
0000
0100
0000
,
0001
0000
1000
0000
,
0100
0000
0100
0000
,
0010
0000
0010
0000
,
1000
0000
0001
0000
,
0010
0000
0100
0000
,
0100
0000
0100
0000
,
1000
0000
1000
0000
,
2002
0000
0000
3003
,
0200
0000
0000
0300
,
0010
0000
1000
0000
,
0010
0000
0001
0000
,
2002
0000
0000
3003
,
0200
0000
0000
0300
,
1000
0000
0100
0000
,
0010
0000
0100
0000
,
0010
0010
0010
0000
,
1000
0010
0001
0010
,
1000
1000
1000
0000
,
1000
0100
0010
0100
,
1000
0000
0100
0000
,
0001
0010
1000
0100
,
0010
0000
0001
0000
,
2002
0000
0000
3003
,
1000
0000
0100
0000
,
0001
0000
0010
0000
,
1000
0100
0001
0000
,
0001
0100
1000
0000
,
0001
0000
0100
0000
,
1000
0000
0010
0000
,
0001
0000
1000
0000
,
2002
0000
0000
3003
,
0020
0000
0000
0030
,
0010
0010
0010
0000
,
0200
0000
0000
0300
,
0100
0100
0100
0000
,
2000
0000
0000
3000
,
1000
1000
1000
0000
,
0002
0000
0000
0003
,
0001
0001
0001
0000
;

//---------------dance-single - Chewi----------------
#NOTES:
     dance-single:
     Chewi:
     Medium:
     8:
     0.342,0.401,0.357,0.063,0.000:
0000
0000
0000
0000
,
0000
0000
0000
0000
,
0000
0000
0000
0000
,
0000
0000
0000
0000
,
1001
0000
0000
0000
1000
1000
1000
0000
,
0000
0000
0001
0001
0001
0000
1001
0000
,
2000
3200
0320
0230
,
1300
0100
1000
0000
0001
0100
0001
0000
,
1000
0000
0100
0000
0010
0000
0001
1000
,
0100
0000
1000
0000
0001
0001
0000
0000
,
0001
0000
0100
0000
0010
0000
1000
0100
,
0010
0000
0001
0000
1000
1000
0000
0000
,
0001
0010
0100
0000
1000
0000
0100
0000
,
1000
0010
0100
0000
0001
0000
0100
0000
,
1000
1100
0001
0101
,
0100
1000
0010
0001
,
0000
0010
0010
0000
1000
0000
0000
0100
,
0000
0010
0010
0000
0001
0000
0000
1000
,
0000
0001
1000
0000
0100
0000
1100
0000
,
0100
1000
0010
0000
1010
0000
0000
0101
,
0000
0100
0100
0000
0001
0000
0000
0010
,
0000
0100
0100
0000
1000
0000
0000
0001
,
0000
1000
0001
0000
0010
0000
0011
0000
,
0010
0001
0100
0000
0101
0000
0000
1010
,
0000
0000
1000
1000
1000
0000
0000
0000
,
0100
0010
0001
0000
0011
0000
1100
0000
,
0000
0000
0001
0001
0001
0000
0000
0000
,
0001
1000
0010
0000
1010
0000
0101
0000
,
0000
1000
0100
0000
0010
0001
0100
0000
,
0100
0110
0010
1010
,
1000
0010
1000
0000
0001
0100
0001
0000
,
2002
0000
0000
3003
,
0001
0100
1000
0010
,
0001
0100
0101
0000
,
1000
0001
0010
0000
0001
1000
0010
0000
,
1010
0101
0011
1100
,
1000
0100
0001
0010
,
1000
0100
1001
0000
,
1000
0010
0001
0000
0001
0010
1000
0000
,
1100
1010
1001
0101
,
1001
0000
0000
0000
1000
0001
1000
0000
,
0000
0000
0001
0000
1000
0100
0010
0000
,
0011
0000
0000
0000
0001
0010
0001
0000
,
0000
0000
0010
0000
0100
1000
0010
0000
,
1001
0000
0000
0000
0100
0010
0100
0000
,
0000
0000
0001
0000
1000
0100
0010
0000
,
0011
0011
1100
1100
,
1000
1000
1000
0000
0001
0001
0001
0000
;

//---------------dance-single - Chewi----------------
#NOTES:
     dance-single:
     Chewi:
     Hard:
     11:
     0.431,0.402,0.252,0.074,0.005: // measure 1
0000
0000
0000
0000
,  // measure 2
0000
0000
0000
0000
,  // measure 3
0000
0000
0000
0000
,  // measure 4
0000
0000
0000
0000
,  // measure 5
1001
0000
0000
1000
0100
0010
0100
0000
,  // measure 6
0000
1000
0010
0000
0001
0100
1000
0000
,  // measure 7
1010
1010
1001
1001
,  // measure 8
0001
1000
0100
0000
1000
0001
0100
0001
,  // measure 9
0010
0100
2000
0000
3200
0000
1300
0001
,  // measure 10
0010
0000
0100
0000
0010
0010
0100
0010
,  // measure 11
0001
0100
0010
1000
0002
0000
1003
0010
,  // measure 12
0100
0001
1000
0100
0010
0100
1000
0001
,  // measure 13
0000
0010
0100
1000
0002
0000
1003
0100
,  // measure 14
0000
0010
0100
1000
0020
0000
1030
0010
,  // measure 15
0100
0001
0000
0001
1000
0100
0010
0001
,  // measure 16
0011
1100
0101
1010
,  // measure 17
0000
0010
0001
0010
0100
0000
1000
0010
,  // measure 18
0000
1000
0100
0010
0001
0000
1000
0100
,  // measure 19
0000
1000
0001
0100
0010
0100
0010
1000
,  // measure 20
0010
1000
0100
1000
0010
0000
1000
0100
,  // measure 21
0000
0010
0100
1000
0001
0000
1000
0100
,  // measure 22
0000
1000
0001
0100
0010
0000
0100
0001
,  // measure 23
0000
0100
0010
1000
0001
0010
0100
1000
,  // measure 24
0010
1000
0100
0010
0001
0000
0100
0001
,  // measure 25
0000
0000
0010
0010
0010
0000
0001
0010
,  // measure 26
0100
1000
0010
1000
1100
0000
1010
0000
,  // measure 27
0000
0000
1000
1000
1000
0000
1000
0010
,  // measure 28
0100
0010
1000
0001
0011
0000
0000
1100
,  // measure 29
0000
0001
0010
0100
1000
0001
0010
0100
,  // measure 30
0000
1000
0100
0000
0000
0100
0010
0001
,  // measure 31
1000
0000
0000
0000
0010
0000
1000
0000
0001
0000
0000
2000
0000
0000
0002
0000
,  // measure 32
0000
0000
0000
3003
,  // measure 33
1000
0100
0001
0000
0100
0001
0100
0000
,  // measure 34
0001
0010
1000
0000
0010
1000
0010
0000
,  // measure 35
1000
0100
0010
0100
1000
0000
1100
0000
,  // measure 36
0001
0100
0010
0100
0001
0000
0101
0000
,  // measure 37
0001
0010
1000
0000
0010
1000
0010
0000
,  // measure 38
1000
0100
0001
0000
0100
0001
0100
0000
,  // measure 39
0001
0010
0100
0010
0001
0000
0011
0000
,  // measure 40
1000
0010
0100
0010
1000
0000
1010
0000
,  // measure 41
1001
0000
0000
0001
0010
0100
1000
0000
,  // measure 42
0000
0100
0010
0000
0100
1000
0010
0100
,  // measure 43
0101
0000
0000
0100
0010
0100
0001
0000
,  // measure 44
0000
0010
1000
0000
0100
0001
0100
1000
,  // measure 45
1100
0000
0000
0100
0010
0100
1000
0000
,  // measure 46
0000
0010
0100
0000
0001
0100
0010
1000
,  // measure 47
1010
1100
0011
0101
,  // measure 48
0010
1000
0100
1000
0010
0100
0001
0010
;
