#TITLE:SCREAM SQUAD;
#SUBTITLE:;
#ARTIST:CALF;
#TITLETRANSLIT:;
#SUBTITLETRANSLIT:;
#ARTISTTRANSLIT:;
#GENRE:;
#CREDIT:Chewphoria~;
#MENUCOLOR:;
#METERTYPE:DDR;
#BANNER:SCREAM SQUAD.png;
#BACKGROUND:SCREAM SQUAD-bg.png;
#LYRICSPATH:;
#CDTITLE:;
#MUSIC:SCREAM SQUAD.mp3;
#OFFSET:-0.376;
#SAMPLESTART:17.806;
#SAMPLELENGTH:15.000;
#SELECTABLE:YES;
#LISTSORT:;
#BPMS:0.000=110.000,32.000=220.000,99.000=440.000,115.000=220.000,141.000=440.000,149.000=220.000,256.000=440.000,272.000=220.000;
#STOPS:96.000=0.273
,96.500=1.637
,97.000=0.273
,97.500=1.637
,98.000=0.273
,98.500=1.650
,127.000=0.136
,127.500=0.136
,128.000=0.136
,128.500=0.136
,253.000=0.273
,253.500=1.637
,254.000=0.273
,254.500=1.637
,255.000=0.273
,255.500=1.637
;
#BGCHANGES:;
#ATTACKS:;

//---------------dance-single - Chewphoria~----------------
#NOTES:
     dance-single:
     Chewphoria~:
     Hard:
     14:
     0.723,0.954,0.206,0.188,0.067: // measure 1
1000
0100
0001
0010
2000
0000
3100
0000
,  // measure 2
1000
0100
0001
0010
2000
0000
3010
0000
,  // measure 3
0010
0000
0010
0000
0010
0000
0000
0100
0000
0010
0000
0000
1100
0000
0010
0000
,  // measure 4
0100
0000
0100
0000
0100
0000
0000
0010
0000
0100
0000
0000
0101
0000
0010
0000
,  // measure 5
1000
1000
0001
0001
2000
0000
3001
0000
,  // measure 6
0001
0001
1000
1000
0002
0000
1003
0000
,  // measure 7
1000
0010
1000
0010
1000
0010
1000
0100
1000
0100
1000
0100
,  // measure 8
1100
0010
0101
0100
0011
1000
1100
0001
,  // measure 9
0100
0001
0100
0001
0100
0001
0100
0001
,  // measure 10
0100
1000
0100
1000
0100
1000
0100
0000
,  // measure 11
1001
0000
1000
0100
0010
0001
1000
0100
,  // measure 12
0000
1000
0100
0010
0001
1000
0100
0000
,  // measure 13
0001
0000
0001
0100
0010
1000
0001
0100
,  // measure 14
0000
0001
0100
0010
1000
0001
0100
0000
,  // measure 15
0010
1000
0010
1000
0010
1000
0010
0001
,  // measure 16
0010
0001
0010
0001
0010
0001
0010
0000
,  // measure 17
0001
0001
0010
0010
0100
0100
1000
1000
,  // measure 18
0010
0010
0100
0100
0001
0001
1000
1000
,  // measure 19
1001
0000
1000
0100
1000
0001
1000
0000
,  // measure 20
0001
0000
1000
0100
1000
0001
1000
0000
,  // measure 21
1100
0000
0001
0010
0001
0010
0001
0000
,  // measure 22
0100
0000
0001
0010
0001
0010
0001
0000
,  // measure 23
0101
0000
1000
0010
1000
0010
1000
0000
,  // measure 24
0001
0000
1000
0010
1000
0010
1000
0000
,  // measure 25
2000
3020
0230
0302
2003
3200
0310
0000
,  // measure 26
0000
0001
0000
0010
,  // measure 27
0000
0001
0000
1100
,  // measure 28
0000
1100
0000
0101
,  // measure 29
0000
0000
0101
0000
0000
0000
0100
0100
,  // measure 30
0010
0010
1000
1000
0001
0001
0010
0010
,  // measure 31
1000
0100
0001
0100
1000
1000
1000
1000
,  // measure 32
0100
0000
0000
0100
0000
0000
0010
0000
0000
0010
0000
0000
0001
0000
0000
0001
0000
0000
0010
0000
0001
0010
0000
1000
,  // measure 33
0010
0000
0001
0010
0000
0000
0100
0000
0000
0100
0000
0000
0010
0000
0000
0010
0000
0000
1000
0000
0000
1000
0000
0000
,  // measure 34
0001
0001
0010
0010
1000
0100
0001
0100
,  // measure 35
1000
1000
1000
1000
0100
0100
0010
0010
,  // measure 36
0001
0001
0010
0000
0100
0000
1000
0000
,  // measure 37
0010
0100
0001
0100
,  // measure 38
0010
0000
1000
0000
0100
0000
1000
0100
,  // measure 39
1000
0000
0001
0000
0100
0000
0001
0100
,  // measure 40
0001
0000
0010
0000
0100
0000
0010
0100
,  // measure 41
0010
0000
0010
1000
0100
0001
0010
0100
,  // measure 42
0010
0000
0001
0000
0010
0000
0001
0010
,  // measure 43
0001
0000
1000
0000
0100
0000
1000
0100
,  // measure 44
1000
0000
0001
0000
1000
0000
0010
0100
,  // measure 45
0001
0200
0310
0002
,  // measure 46
1003
0000
0010
1000
0100
1000
0010
1000
,  // measure 47
0100
0000
0010
1000
0100
1000
0010
1000
,  // measure 48
0100
0000
0010
0001
0100
0001
0010
0001
,  // measure 49
0100
0000
0010
0001
0100
0001
0010
0001
,  // measure 50
0100
0000
0100
0010
1000
0100
0010
0100
,  // measure 51
0010
0000
0100
0010
0001
0100
0010
0100
,  // measure 52
0001
0000
0100
0010
1000
0100
0010
0100
,  // measure 53
1000
0000
0100
0010
0001
0100
0010
0100
,  // measure 54
0001
0000
0010
1000
0100
0001
0010
0100
,  // measure 55
0010
0000
0010
1000
0100
0001
0010
0100
,  // measure 56
0010
0000
1000
0100
0001
0100
1000
0100
,  // measure 57
0001
0000
0001
0100
1000
0100
0001
0100
,  // measure 58
1000
0000
1000
0010
0001
0010
1000
0010
,  // measure 59
0001
0000
0001
0010
1000
0010
0001
0010
,  // measure 60
1000
0000
0010
1000
0100
1000
0010
1000
,  // measure 61
0100
0000
0010
1000
0100
1000
0010
1000
,  // measure 62
0100
0220
0000
0000
,  // measure 63
0000
0000
0000
0330
,  // measure 64
0000
0000
0002
0203
0320
2030
3002
0023
,  // measure 65
0130
0000
1000
0000
,  // measure 66
0100
0000
1000
0000
,  // measure 67
0011
0000
0011
0000
,  // measure 68
1010
0000
1010
0000
,  // measure 69
0010
0010
0100
0100
0001
0001
1000
1000
,  // measure 70
0100
0100
0001
0010
1000
0010
0001
0000
,  // measure 71
1001
0000
0001
0010
0100
1000
0001
0010
,  // measure 72
0000
0001
0010
0100
1000
0001
0010
0000
,  // measure 73
1000
0000
1000
0010
0100
0001
1000
0010
,  // measure 74
0000
1000
0010
0100
0001
1000
0010
0000
,  // measure 75
0100
0001
0100
0001
0100
0001
0100
1000
,  // measure 76
0100
1000
0100
1000
0100
1000
0100
0000
,  // measure 77
1000
1000
0100
0100
0010
0010
0001
0001
,  // measure 78
0100
0100
0010
0010
1000
1000
0001
0001
,  // measure 79
1001
0000
0001
0010
0001
1000
0001
0000
,  // measure 80
1000
0000
0001
0010
0001
1000
0001
0000
,  // measure 81
0011
0000
1000
0100
1000
0100
1000
0000
,  // measure 82
0010
0000
1000
0100
1000
0100
1000
0000
,  // measure 83
1010
0000
0001
0100
0001
0100
0001
0000
,  // measure 84
1000
0000
0001
0100
0001
0100
0001
0000
,  // measure 85
0200
0000
0000
0000
,  // measure 86
0300
0000
0000
0000
;

//---------------dance-single - Chewphoria~----------------
#NOTES:
     dance-single:
     Chewphoria~:
     Medium:
     11:
     0.455,0.534,0.171,0.135,0.013: // measure 1
0000
1000
0000
0100
0000
0000
0100
0000
,  // measure 2
0000
0100
0000
0001
0000
0000
0001
0000
,  // measure 3
0010
1010
0000
1000
,  // measure 4
0000
1001
0000
0001
,  // measure 5
0000
0001
0000
0100
0000
0000
0100
0000
,  // measure 6
0000
0100
0000
1000
0000
0000
1000
0000
,  // measure 7
1000
0000
0010
0100
0000
0100
0001
0000
0001
0100
0000
0000
,  // measure 8
1000
0001
1000
0000
0001
1000
0001
0000
,  // measure 9
0100
0100
0100
0100
,  // measure 10
0010
0010
0010
0010
,  // measure 11
1000
0000
0010
0000
0000
1000
0010
0000
,  // measure 12
0001
0000
0100
0000
0000
0001
0100
0000
,  // measure 13
1000
0000
0100
0000
0000
1000
0100
0000
,  // measure 14
0001
0000
0010
0000
0000
0001
0010
0000
,  // measure 15
1000
0100
0001
0100
,  // measure 16
1000
0100
0001
0100
,  // measure 17
0010
0100
0010
0000
0010
0000
0010
0000
,  // measure 18
0010
0010
1010
0000
,  // measure 19
1000
0010
1000
0000
0100
0000
1000
0000
,  // measure 20
0100
1000
0100
0000
0100
0000
0010
0000
,  // measure 21
0001
0010
0001
0000
0010
0000
0001
0000
,  // measure 22
0100
0001
0100
0000
0010
0000
0100
0000
,  // measure 23
0101
0010
0100
1000
,  // measure 24
1100
0010
0100
0001
,  // measure 25
0200
0320
2030
3020
2030
3002
1003
0000
,  // measure 26
0000
0000
0000
1000
,  // measure 27
0000
0000
0000
0001
,  // measure 28
0000
0000
0000
0001
,  // measure 29
0000
0000
0000
1000
,  // measure 30
0100
0010
0001
1000
,  // measure 31
0100
0000
0010
0000
0001
0000
1000
0001
,  // measure 32
1000
0000
0001
1000
0001
0000
0101
0000
,  // measure 33
1001
1000
0010
0100
,  // measure 34
0001
1000
0010
0100
,  // measure 35
0001
1000
0100
0001
,  // measure 36
0100
1010
0000
0000
,  // measure 37
0000
0010
0000
0000
,  // measure 38
0000
0000
0000
0000
1000
0000
0000
0100
,  // measure 39
1000
0000
0000
0000
0001
0000
0000
0100
,  // measure 40
0001
0000
0000
0000
0100
0000
0000
0010
,  // measure 41
0100
0000
0000
0000
0010
0000
0000
1000
,  // measure 42
0010
0000
1000
0100
,  // measure 43
0010
0001
1000
0100
,  // measure 44
0010
0001
1000
0010
,  // measure 45
0100
0000
0001
0001
0001
0000
1000
1000
,  // measure 46
1000
0010
1000
0100
,  // measure 47
0001
0010
0001
0100
,  // measure 48
1000
0010
1000
0100
,  // measure 49
0001
0010
0001
0100
,  // measure 50
1000
0000
0010
0100
0010
0000
0100
0000
,  // measure 51
0100
0000
0100
0010
0100
0000
0100
0000
,  // measure 52
0100
0000
0001
0100
0001
0000
0100
0000
,  // measure 53
0100
0000
1000
0100
1000
0000
0100
0000
,  // measure 54
0100
1000
0100
0001
,  // measure 55
0010
1000
0100
0001
,  // measure 56
0010
1000
0010
0001
,  // measure 57
0100
1000
0010
0001
,  // measure 58
0100
0000
1000
0100
1000
0000
0100
0000
,  // measure 59
0100
0000
0001
0100
0001
0000
0100
0000
,  // measure 60
0100
0000
0010
0000
0100
0000
0001
1000
,  // measure 61
0001
0000
1000
0000
0001
0000
1000
0001
,  // measure 62
1000
2002
0000
0000
,  // measure 63
0000
0000
0000
3003
,  // measure 64
0000
0000
0020
0230
0302
0203
0302
2003
,  // measure 65
3001
0000
0000
0000
,  // measure 66
0001
0000
0000
0000
,  // measure 67
1000
0000
0000
0000
,  // measure 68
1000
0000
0000
0000
,  // measure 69
0001
0010
0100
1000
,  // measure 70
0001
0010
0100
1000
,  // measure 71
0001
1000
0001
0000
1000
0001
1000
0000
,  // measure 72
1010
1001
0001
0100
,  // measure 73
0010
1000
0001
0100
,  // measure 74
1010
1001
0001
0010
,  // measure 75
1000
0010
0101
1001
,  // measure 76
0001
0100
1010
0100
,  // measure 77
0010
0100
0010
0000
0010
0000
0010
0000
,  // measure 78
0010
0010
1010
0000
,  // measure 79
1000
0010
1000
0000
0100
0000
1000
0000
,  // measure 80
0100
1000
0100
0000
0100
0000
0010
0000
,  // measure 81
0001
0010
0001
0000
0010
0000
0001
0000
,  // measure 82
0100
0001
0100
0000
0010
0000
0100
0000
,  // measure 83
0101
0010
0100
1000
,  // measure 84
1100
0010
0100
0001
,  // measure 85
0002
0000
0000
0000
,  // measure 86
0003
0000
0000
0000
;

//---------------dance-single - Chewphoria~----------------
#NOTES:
     dance-single:
     Chewphoria~:
     Easy:
     8:
     0.381,0.496,0.090,0.009,0.000: // measure 1
1000
0001
0000
0100
,  // measure 2
1000
0001
0000
0010
,  // measure 3
0010
0010
0000
1100
,  // measure 4
0100
0100
0000
0101
,  // measure 5
1000
0001
0000
0001
,  // measure 6
0001
1000
0000
1000
,  // measure 7
1000
0010
1000
0100
,  // measure 8
1100
0101
0011
1100
,  // measure 9
0100
0100
0100
0100
,  // measure 10
0100
0100
0100
0100
,  // measure 11
0000
1000
0010
1000
,  // measure 12
0000
0100
0001
0100
,  // measure 13
0001
0001
0010
0001
,  // measure 14
0000
0100
1000
0100
,  // measure 15
0010
0010
0010
0010
,  // measure 16
0010
0010
0010
0010
,  // measure 17
0001
0010
0100
1000
,  // measure 18
0010
0100
0001
1000
,  // measure 19
1001
1000
1000
1000
,  // measure 20
0001
1000
1000
1000
,  // measure 21
0100
0001
0001
0001
,  // measure 22
0100
0001
0001
0001
,  // measure 23
0001
1000
1000
1000
,  // measure 24
0001
1000
1000
1000
,  // measure 25
1000
0001
0100
0010
,  // measure 26
0000
0000
0000
0010
,  // measure 27
0000
0000
0000
1000
,  // measure 28
0000
0000
0000
1000
,  // measure 29
0000
0000
0000
0100
,  // measure 30
0010
1000
0001
0010
,  // measure 31
1000
0001
1000
1000
,  // measure 32
0100
0010
0001
0010
,  // measure 33
0010
0100
0010
1000
,  // measure 34
0001
0010
1000
0001
,  // measure 35
1000
1000
0100
0010
,  // measure 36
0001
0010
0000
0000
,  // measure 37
0000
0010
0000
0000
,  // measure 38
0000
1000
0100
1000
,  // measure 39
1000
0001
0100
0001
,  // measure 40
0001
0010
0100
0010
,  // measure 41
0010
0010
0100
0010
,  // measure 42
0010
0001
0010
0001
,  // measure 43
0001
1000
0100
1000
,  // measure 44
1000
0001
1000
0010
,  // measure 45
0001
0001
0000
1001
,  // measure 46
0000
0010
0100
0010
,  // measure 47
0100
0010
0100
0010
,  // measure 48
0100
0010
0100
0010
,  // measure 49
0100
0010
0100
0010
,  // measure 50
0100
0100
1000
0010
,  // measure 51
0010
0100
0001
0010
,  // measure 52
0001
0100
1000
0010
,  // measure 53
1000
0100
0001
0010
,  // measure 54
0001
0010
0100
0010
,  // measure 55
0010
0010
0100
0010
,  // measure 56
0010
1000
0001
1000
,  // measure 57
0001
0001
1000
0001
,  // measure 58
1000
1000
0001
1000
,  // measure 59
0001
0001
1000
0001
,  // measure 60
1000
0010
0100
0010
,  // measure 61
0100
0010
0100
0010
,  // measure 62
0100
0000
0000
0000
,  // measure 63
0000
0000
0000
0000
,  // measure 64
0000
0001
0100
1000
,  // measure 65
0100
0000
0000
0000
,  // measure 66
0100
0000
0000
0000
,  // measure 67
0001
0000
0000
0000
,  // measure 68
0001
0000
0000
0000
,  // measure 69
0010
0100
0001
1000
,  // measure 70
0100
0001
1000
0001
,  // measure 71
1001
0001
0100
0001
,  // measure 72
0000
0010
1000
0010
,  // measure 73
1000
1000
0100
1000
,  // measure 74
0000
0010
0001
0010
,  // measure 75
0100
0100
0100
0100
,  // measure 76
0100
0100
0100
0100
,  // measure 77
1000
0100
0010
0001
,  // measure 78
0100
0010
1000
0001
,  // measure 79
1001
0001
0001
0001
,  // measure 80
1000
0001
0001
0001
,  // measure 81
0010
1000
1000
1000
,  // measure 82
0010
1000
1000
1000
,  // measure 83
1000
0001
0001
0001
,  // measure 84
1000
0001
0001
0001
,  // measure 85
0002
0000
0000
0000
,  // measure 86
0003
0000
0000
0000
;

//---------------dance-single - Chewphoria~----------------
#NOTES:
     dance-single:
     Chewphoria~:
     Beginner:
     3:
     0.178,0.264,0.027,0.000,0.000: // measure 1
1000
0000
0000
0000
,  // measure 2
0001
0000
0000
0000
,  // measure 3
1000
0000
1000
0000
,  // measure 4
1000
0000
1000
0000
,  // measure 5
0001
0000
0000
0000
,  // measure 6
1000
0000
0000
0000
,  // measure 7
0010
0000
0010
0000
,  // measure 8
0010
0000
0010
0000
,  // measure 9
0010
0000
0000
0000
,  // measure 10
1000
0000
0000
0000
,  // measure 11
1000
0000
0000
0000
,  // measure 12
0001
0000
0000
0000
,  // measure 13
1000
0000
0000
0000
,  // measure 14
0001
0000
0000
0000
,  // measure 15
0010
0000
0000
0000
,  // measure 16
0100
0000
0000
0000
,  // measure 17
0010
0000
0000
0000
,  // measure 18
0010
0000
0000
0000
,  // measure 19
0100
0000
0100
0000
,  // measure 20
0100
0000
0000
0000
,  // measure 21
1000
0000
1000
0000
,  // measure 22
1000
0000
0000
0000
,  // measure 23
0001
0000
0001
0000
,  // measure 24
0001
0000
0000
0000
,  // measure 25
1000
1000
1000
1000
,  // measure 26
0000
0000
0000
1000
,  // measure 27
0000
0000
0000
0010
,  // measure 28
0000
0000
0000
0010
,  // measure 29
0000
0000
0000
0100
,  // measure 30
0000
0000
0000
0100
,  // measure 31
0000
0000
0000
0001
,  // measure 32
0000
0000
0000
0001
,  // measure 33
0001
0001
0000
0000
,  // measure 34
0000
0010
0000
0000
,  // measure 35
0000
1000
0000
0000
,  // measure 36
0000
0100
0000
0000
,  // measure 37
0000
0100
0000
0000
,  // measure 38
0000
0100
0000
0000
,  // measure 39
0000
1000
0000
0000
,  // measure 40
0000
0001
0000
0000
,  // measure 41
0000
0100
0000
0000
,  // measure 42
0000
0010
0000
0010
,  // measure 43
0000
0010
0000
0010
,  // measure 44
0000
0100
0000
0100
,  // measure 45
0000
0100
0000
0100
,  // measure 46
0000
1000
1000
1000
,  // measure 47
0000
1000
0000
0000
,  // measure 48
0000
0001
0001
0001
,  // measure 49
0000
0001
0000
0000
,  // measure 50
0000
0010
0010
0010
,  // measure 51
0000
0010
0000
0000
,  // measure 52
0000
0100
0100
0100
,  // measure 53
0000
0100
0000
0000
,  // measure 54
0000
1000
0000
0001
,  // measure 55
0000
1000
0000
0001
,  // measure 56
0000
0010
0000
0100
,  // measure 57
0000
0010
0000
0100
,  // measure 58
0000
0100
0100
0100
,  // measure 59
0000
0100
0000
0100
,  // measure 60
0000
0010
0010
0010
,  // measure 61
0000
0010
0000
0010
,  // measure 62
0000
1001
0000
0000
,  // measure 63
0000
0000
0000
0000
,  // measure 64
0000
1000
1000
1000
,  // measure 65
1000
0000
0000
0000
,  // measure 66
0010
0000
0000
0000
,  // measure 67
0010
0000
0000
0000
,  // measure 68
0000
0000
0000
0000
,  // measure 69
0100
0000
0100
0000
,  // measure 70
0100
0000
0100
0000
,  // measure 71
1000
0000
0001
0000
,  // measure 72
1000
0000
0001
0000
,  // measure 73
0010
0000
0100
0000
,  // measure 74
0010
0000
0100
0000
,  // measure 75
0001
0000
0001
0000
,  // measure 76
1000
0000
1000
0000
,  // measure 77
0010
0010
0010
0000
,  // measure 78
0100
0000
0110
0000
,  // measure 79
0100
0000
0100
0000
,  // measure 80
0010
0000
0010
0000
,  // measure 81
1000
0000
1000
0000
,  // measure 82
0001
0000
0001
0000
,  // measure 83
1000
1000
1000
0000
,  // measure 84
1000
0000
0001
0000
,  // measure 85
1001
0000
0000
0000
;
