#TITLE:SCARY MONSTERS AND NICE SPRITES;
#SUBTITLE:;
#ARTIST:SKRILLEX;
#TITLETRANSLIT:;
#SUBTITLETRANSLIT:;
#ARTISTTRANSLIT:;
#GENRE:;
#CREDIT:Chewphoria~;
#MENUCOLOR:#FFFF00;
#METERTYPE:DDR X;
#BANNER:SCARY MONSTERS AND NICE SPRITES.png;
#BACKGROUND:SCARY MONSTERS AND NICE SPRITES-bg.png;
#LYRICSPATH:;
#CDTITLE:;
#MUSIC:SCARY MONSTERS AND NICE SPRITES.mp3;
#OFFSET:-0.145;
#SAMPLESTART:39.563;
#SAMPLELENGTH:16.700;
#SELECTABLE:YES;
#LISTSORT:;
#DISPLAYBPM:70.000:140.000;
#BPMS:0.000=140.060,64.000=70.030,78.000=140.060,182.000=70.010;
#STOPS:78.000=1.714
;
#BGCHANGES:;
#ATTACKS:;

//---------------dance-single - Chewi----------------
#NOTES:
     dance-single:
     Chewi:
     Beginner:
     3:
     0.172,0.219,0.208,0.000,0.005:
0000
0000
0000
0000
,
0000
0000
0000
0000
,
0000
0000
0000
0000
,
0000
0000
0000
0000
,
1000
0000
1000
0000
,
1000
0000
1000
0000
,
0001
0000
0001
0000
,
0001
0000
0001
0000
,
0100
0000
0100
0000
,
0100
0000
0100
0000
,
0010
0000
0010
0000
,
0010
0000
0010
0000
,
1000
0000
1000
0000
,
1000
0000
1000
0000
,
0001
0000
0001
0000
,
0001
0000
0001
0000
,
1001
0000
0000
0000
,
0110
0000
0000
0000
,
1001
0000
0000
0000
,
0010
0000
0000
0000
0000
0000
0000
0000
0000
0000
0000
0000
0000
0000
0000
0000
0010
0000
0000
0000
0000
0000
0000
0000
0000
0000
0000
0000
0000
0000
0000
0000
0010
1001
0000
0000
0000
0000
0000
0000
0000
0000
0000
0000
0000
0000
0000
0000
0000
0000
0000
0000
0000
0000
0000
0000
0000
0000
0000
0000
0000
0000
0000
0000
,
1001
0000
1000
1000
,
1000
0000
1001
0000
,
1001
0000
0001
0001
,
0001
0000
0110
0000
,
0110
0000
0010
0010
,
0010
0000
0010
0000
,
1000
0000
1001
0000
,
1001
0000
1000
0000
,
0100
0000
0001
0000
,
0100
0000
0100
0000
,
0010
0000
0010
0000
,
0001
0000
1000
0000
,
1001
0000
0001
0000
,
0001
0000
0001
0001
,
0001
0000
1000
0000
,
1001
0000
0010
0010
,
0010
0000
0110
0000
,
0100
0000
1000
1000
,
1000
0000
0001
0000
,
1001
0000
1000
1000
,
1000
0000
0001
0000
,
1001
0000
0100
0100
,
0100
0000
0010
0000
,
0100
0000
0010
0010
,
0010
0000
1000
0000
,
0001
0001
1001
1001
,
0000
0000
0110
0110
;

//---------------dance-single - Chewi----------------
#NOTES:
     dance-single:
     Chewi:
     Easy:
     6:
     0.297,0.413,0.385,0.104,0.005:
0000
0000
0000
0000
,
0000
0000
0000
0000
,
0000
0000
0000
0000
,
0000
0000
0000
0000
,
1000
0000
1100
0000
,
0001
0000
0101
0000
,
0010
0000
0110
0000
,
0100
0000
0110
0000
,
1000
0100
0010
0001
,
1000
0010
0100
0001
,
1000
0100
0010
0001
,
1000
0010
0100
0001
,
0001
0100
0010
1000
,
0001
0010
0100
1000
,
0001
0100
0001
0010
,
0100
1000
0010
1000
,
1002
0000
0100
0000
1000
1000
1003
0000
,
1000
1001
0110
1001
,
1002
0000
0100
0000
1000
1000
1003
0000
,
1100
0000
0000
0000
0000
0000
0000
0000
0000
0000
0000
0000
0000
0000
0000
0000
0010
0000
0000
0000
0000
0000
0000
0000
0001
0000
0000
0000
0000
0000
0000
0000
1001
0110
0000
0000
0000
0000
0000
0000
0000
0000
0000
0000
0000
0000
0000
0000
0000
0000
0000
0000
0000
0000
0000
0000
0000
0000
0000
0000
0000
0000
0000
0000
,
0110
0010
1010
0000
,
0101
0000
1000
0100
,
0011
0001
1001
0000
,
0110
0000
0010
1000
,
1001
0010
1100
0000
,
0011
0000
0001
0100
,
1000
0010
0001
0010
,
1000
0100
0001
1000
,
1100
0000
1001
0000
,
0110
0000
1000
0010
,
0101
1000
1100
0000
,
0011
1100
0001
0100
,
1100
0010
1001
0010
,
0101
0000
0001
1000
,
0010
0100
1000
0010
,
0100
0001
1001
0100
,
0010
0100
1001
0010
,
0100
0100
0100
0000
0011
0000
0001
0000
,
1000
0100
0010
1000
,
0010
0100
0001
1000
,
0100
0010
0001
1000
,
1010
0101
2002
3000
,
0020
0000
0003
0001
,
0001
0001
0032
2003
,
3020
0230
0002
0000
,
0000
0000
0303
0000
0001
0100
1000
0000
,
0100
0000
0001
0000
0001
0010
1000
0000
;

//---------------dance-single - Chewi----------------
#NOTES:
     dance-single:
     Chewi:
     Medium:
     9:
     0.382,0.558,0.395,0.270,0.010:
0000
0000
0000
0000
,
0000
0000
0000
0000
,
0000
0000
0000
0000
,
0000
0000
0000
0000
,
1000
0000
0100
0010
0001
0000
0001
0000
,
1100
0000
0001
0100
0010
0000
1000
0000
,
0001
0000
0010
0100
1000
0000
0010
0000
,
0100
0001
0100
0000
0100
1000
0100
0000
,
0001
0000
0010
0100
1000
0000
0010
0100
,
0001
1000
1100
0001
,
0100
0000
0010
1000
0100
0000
0010
0001
,
0100
1010
0011
1100
,
0001
0000
1000
0100
1000
0000
0001
0000
,
1000
0000
0001
0100
0001
0000
0100
0000
,
0010
0101
0010
1100
,
0001
1000
0010
0000
0100
0000
0001
0000
,
2002
3000
0020
0000
0003
0001
0001
0001
,
0032
0203
0320
1030
2020
0000
0000
0030
,
0002
3000
0020
0003
0001
0001
0032
0203
,
0320
0000
0000
0000
0000
0000
0000
0000
2030
0000
0000
0000
0000
0000
0000
0000
3002
0000
0000
0000
0000
0000
0000
0000
0023
0000
0000
0000
0000
0000
0000
0000
0130
0110
0000
0000
0000
0000
0000
0000
0000
0000
0000
0000
0000
0000
0000
0000
0000
0000
0000
0000
0000
0000
0000
0000
0000
0000
0000
0000
0000
0000
0000
0000
,
0011
0000
0001
0100
1000
0000
0000
0000
,
1001
0000
1000
0000
,
1100
0000
1000
0100
0001
0000
0000
0000
,
0011
1000
1001
0110
,
1001
0000
1000
0010
0001
0000
0000
0001
,
0010
1000
0100
0000
0102
0000
0010
0000
,
1000
0000
0100
0100
0100
0000
1000
0000
,
0010
1003
0100
0000
,
1100
0000
0001
0010
1000
0000
0000
0000
,
1010
0001
0100
0000
,
1100
0000
0001
0100
1000
0000
0000
0000
,
1010
0011
1100
0101
,
0010
0000
1000
0100
0011
0000
0100
0010
,
1000
0000
0001
0010
2100
0000
0010
0000
,
0100
0000
0001
0010
0100
0000
0001
0000
,
0010
3001
0102
0010
,
0100
0000
1000
0100
0010
1000
0100
0000
,
0010
0000
1003
0000
1100
0000
0001
1000
,
0001
0000
0100
0010
1000
0000
0001
0000
,
1100
0000
1000
0000
0001
0000
0100
0010
,
1000
0001
0011
1000
,
1010
0000
0101
0000
2002
0000
0000
3000
,
0020
0000
0000
0003
0001
0000
0001
0001
,
0001
0001
0032
0100
,
1000
0010
2000
0000
,
0000
3003
1010
0202
,
0000
0000
0000
0000
0303
0000
0010
0000
1010
0000
0000
1001
0000
0000
0000
0000
;

//---------------dance-single - Chewi----------------
#NOTES:
     dance-single:
     Chewi:
     Hard:
     13:
     0.581,0.860,0.530,0.395,0.250: // measure 1
0000
0000
0000
0000
,  // measure 2
0000
0000
0000
0000
,  // measure 3
0000
0000
0000
0000
,  // measure 4
0000
0000
0000
0000
,  // measure 5
1000
0000
0000
0100
1100
0000
0000
0000
,  // measure 6
0011
0101
1100
1010
,  // measure 7
0001
0000
0000
0001
0011
0000
0000
0000
,  // measure 8
0011
1010
1100
0101
,  // measure 9
1001
1000
0010
0100
0002
0000
0013
0010
,  // measure 10
0100
1000
0200
0000
0310
0001
0100
0010
,  // measure 11
0100
0001
0010
0100
1000
0010
1000
0100
,  // measure 12
1000
0010
0100
0001
0010
0100
1000
0001
,  // measure 13
1000
0010
0100
0001
2000
0000
3001
0010
,  // measure 14
0100
1000
0020
0000
1030
0010
0100
0001
,  // measure 15
0010
0100
1000
0001
1000
0010
0100
0001
,  // measure 16
1000
1000
0100
0100
1000
1000
0001
0001
,  // measure 17
1010
0000
0000
0000
0000
0000
0000
0000
0101
0000
0000
0000
1100
0000
0000
0000
0011
0000
0000
0000
1000
0000
0100
0010
0001
0000
0010
0000
0100
1000
0010
1000
,  // measure 18
0010
0000
0101
0010
0100
1000
0010
0100
0100
0001
0100
1000
0100
0100
0010
0100
,  // measure 19
1100
0000
0000
0000
0010
0000
0100
0000
0101
0000
0000
0000
0001
0000
0010
0000
1100
0000
0000
0000
0010
0001
0100
0010
0100
0000
0010
0001
0010
0000
0100
0000
,  // measure 20
1000
0000
0010
0000
0100
0000
0001
0000
0010
0000
0100
0000
0010
1000
0100
1000
2002
0000
0000
0000
0000
0000
0000
0000
3003
0000
0000
0000
0000
0000
0000
0000
,  // measure 21
1010
0000
0000
0000
1000
0001
0010
0000
0202
0000
0000
0000
0303
0000
0000
0000
,  // measure 22
1002
0000
0023
0000
0130
1000
1100
0000
,  // measure 23
1200
0000
0000
0000
1300
0001
0100
0000
0022
0000
0000
0000
0033
0000
0100
0000
,  // measure 24
0010
0000
1000
0000
0001
0000
0010
0000
1100
0000
0010
0001
0011
0000
0000
0000
,  // measure 25
0102
0000
0000
0000
0103
0010
0100
0000
2002
0000
0000
0000
3003
0000
0000
0000
,  // measure 26
0010
1100
0010
0000
1000
0010
0100
0010
,  // measure 27
2000
0000
3100
0010
0001
0100
0002
0000
,  // measure 28
0013
0100
0010
0001
0100
0010
1000
0000
,  // measure 29
2200
0000
0000
3300
0001
1000
0010
0000
0202
0000
0000
0000
0303
0000
0000
0000
,  // measure 30
0101
0000
0010
0000
1000
0000
1100
0000
0001
0000
0010
0001
0011
0000
0000
0000
,  // measure 31
1100
0000
0000
0000
0001
1000
0010
0000
2200
0000
0000
0000
3300
0000
0001
0000
,  // measure 32
0100
0010
1000
0010
0102
0000
0013
0000
,  // measure 33
1100
0000
0000
0000
0000
0000
0001
0000
1000
0000
0001
0000
1100
0000
0000
0000
0000
0000
1000
0001
0000
0000
1000
0000
,  // measure 34
0101
0000
0010
1000
0100
1000
0010
1000
,  // measure 35
0200
0000
0310
0001
0100
0001
0020
0000
,  // measure 36
0130
1000
0001
0100
1000
0100
0001
0100
,  // measure 37
2000
0000
3010
0100
0001
0010
0100
1000
,  // measure 38
0010
1000
0010
0000
0100
0001
0100
0000
0100
0000
0001
0000
0010
0000
0001
0000
,  // measure 39
0200
0000
0310
1000
0100
1000
0020
0000
,  // measure 40
1030
0100
0010
0001
0100
0010
0100
0001
,  // measure 41
0010
0100
1000
0010
0101
0010
1100
0010
,  // measure 42
1000
0001
0010
0100
2200
0000
0300
0000
,  // measure 43
0020
0000
0000
0000
3000
0000
0000
0000
0100
0000
0000
0000
1030
0000
0010
1000
,  // measure 44
0010
0000
0100
0000
0010
0001
0010
0100
1000
0000
0000
0000
0101
0000
0001
0000
,  // measure 45
0010
0010
1100
0220
0000
0000
0000
0000
,  // measure 46
0000
0000
0000
0000
0000
0000
0000
0000
0000
0000
0000
0000
0330
0000
0000
0000
0000
0000
0000
0000
0000
0000
0000
0000
1001
0000
0000
0000
1010
0000
0000
0000
0000
0202
0000
0000
0000
0000
0000
0000
0000
0000
0000
0000
0000
0000
0000
0000
,  // measure 47
0000
0000
0000
0000
0000
0000
0000
0000
0000
0000
0000
0000
0303
0000
0000
0000
0000
0000
1000
0000
0000
0100
0000
0000
0010
0000
0000
0001
0000
0000
0000
0000
0000
0000
0020
0000
0000
0000
0000
0000
0000
0000
0000
0000
0000
0000
0000
0000
,  // measure 48
0000
0030
0000
0000
;

//---------------dance-single - not Chewi----------------
#NOTES:
     dance-single:
     not Chewi:
     Challenge:
     15:
     0.731,0.982,0.499,0.686,0.525:
0000
0000
0000
0000
,
0000
0000
0000
0000
,
0000
0000
0000
0000
,
0000
0000
0000
0000
,
1000
0100
0010
0100
2000
0000
3001
0010
,
0100
1000
0020
0000
0130
0001
0010
0100
,
1000
0001
0100
1000
0200
0000
0301
0010
,
0100
0000
1000
0010
0000
0000
0100
0000
0101
0000
0000
0000
1001
0000
0000
0000
,
2001
3002
0100
0203
0020
0300
0100
0230
,
0010
0310
2000
0000
3002
1000
2003
0001
,
3002
0010
0203
0010
0320
0000
1030
0010
,
1000
0000
0001
0010
0000
0001
1000
0000
0110
0000
0000
0000
1001
0000
1000
0000
,
1002
2003
0010
3020
0200
0030
0010
0320
,
0100
0130
0002
0000
2003
0001
3002
1000
,
2003
0100
3020
0100
0230
0000
0301
0100
,
1000
0000
0100
0010
0000
1000
0001
0000
0110
0000
0000
0000
1001
0000
0001
0000
,
1000
0000
0100
0000
0010
0000
0001
0000
0200
0000
0000
0000
0310
0000
1000
0000
0100
0000
0010
0000
0001
0000
0100
0010
0100
0000
0001
0000
1000
0000
0100
0010
,
0200
0000
0000
0000
0000
0000
1000
0000
0000
2300
0000
0000
0010
0000
0000
3020
0000
0000
0100
0000
0000
0230
0000
0000
0302
0000
0000
2003
0000
0000
3002
0000
0000
0013
0100
0000
0020
0000
0000
0000
0000
0000
0000
0000
0000
0000
0000
0000
,
0031
0000
0100
0000
0010
0000
1000
0000
0200
0000
0000
0000
0310
0000
0100
0000
1000
0000
0001
0000
0100
0000
0010
0100
0010
0000
0100
0000
0001
0000
1000
0100
,
2000
0000
0100
0000
3002
0000
0100
0000
2003
0000
0010
0000
3001
0010
0100
1000
0001
0000
0000
0000
0000
0000
0000
0000
0010
0000
0100
0000
1000
0000
0001
0000
,
2000
0000
0000
0000
0000
0000
0000
0000
3001
0000
0000
0000
1000
0000
0000
0000
0010
0000
0000
0000
1000
0000
0000
0000
0100
0000
0000
0000
0000
0000
0000
0010
,
0100
0000
0000
0000
1100
0000
0000
0000
2010
0000
0010
0000
3010
1000
0100
0010
,
0001
0000
0000
0000
0000
0000
0000
0000
0101
0000
0000
0000
1001
0000
0000
0000
1001
0000
0000
0000
1000
0000
0000
0000
0100
0000
0000
0000
0010
0000
0000
0010
,
0002
0000
0000
0000
1000
0000
0000
0000
1003
0000
0000
0000
0100
1000
0010
0100
,
0002
0000
0000
0003
0011
0000
1100
0000
0001
0010
0100
0010
0001
1000
0010
0100
,
0001
0000
0000
1001
0000
0110
0000
0010
2000
0000
0100
0000
0001
0000
0010
0000
,
3002
0000
0013
0100
1100
0110
0021
0000
,
0031
0000
1000
0000
0110
0000
1001
0000
1000
0200
0000
0320
0031
0000
0000
0000
,
1200
0000
0000
0000
0310
0000
0100
0000
1000
0001
0010
0100
1000
0010
0100
0001
,
2000
0001
3001
0000
0210
0000
0310
0100
,
2002
0000
0000
3003
1001
0000
1001
0000
1000
0010
1000
0001
0010
0001
1000
0100
,
0002
0000
0000
0000
0000
0000
0000
0000
0103
0000
0000
0000
1000
0000
0000
0000
0010
0000
0000
0000
0000
0000
0000
0010
0100
0000
0000
0000
0000
0000
0000
0000
,
1001
0000
0000
0000
0000
0000
0110
0000
0010
0000
0100
0000
0110
0000
0000
0101
0000
0000
1001
0000
0000
1001
0000
0000
,
1000
0000
0000
0100
0000
0000
0010
0000
0000
1000
0000
0000
0010
0000
0000
0000
0001
0000
0000
0000
0011
0000
0000
0000
0110
0000
0000
0000
0000
0000
0100
0000
0000
0000
0000
0000
1000
0000
0000
0100
0000
0000
1000
0000
0000
0100
0000
0000
,
0010
0000
0001
0000
0100
0001
0100
0010
1000
0000
0001
0000
0010
0100
1000
0001
,
2000
0000
0000
3000
1001
0000
0110
0000
0010
0100
0010
0000
0100
0001
1000
0100
,
0020
0000
0000
0000
0130
0000
1000
0000
1000
0000
0100
0010
0000
0100
1000
0000
,
1010
0000
0000
0000
0101
0000
0001
0000
0010
0000
0100
0000
0001
0100
1000
0001
,
0200
0000
0000
0000
0310
0000
0000
0000
0110
0000
0100
0000
0001
0100
1000
0100
,
0002
0000
0000
0000
1003
0000
1000
0000
0100
0000
0010
0000
0001
0010
1000
0010
,
0002
0000
0000
0000
1003
0000
1000
0000
0010
0100
0000
0010
0100
0000
0110
0000
,
1001
0000
0100
0000
0010
0000
1001
0000
0100
0000
0010
0000
1001
0000
0000
0100
0000
0000
0010
0000
0000
0001
0000
0000
,
0200
0000
0000
0000
0310
0000
0100
0000
0001
0000
0010
0000
0100
0000
1000
0001
,
1000
0000
0010
0000
0100
0001
0010
0100
0020
0000
0001
0000
0032
0000
0100
0000
,
0203
0000
0010
0000
0320
0000
1000
0000
1030
0000
1000
0100
0000
0010
0001
0000
,
1100
0000
0000
0000
0000
0000
0000
0000
0000
0000
0000
0000
0010
0000
0000
0001
0000
0000
1000
0000
0000
0000
0000
0000
1001
0000
0000
0000
1010
0000
0000
0000
0000
0202
0000
0000
0000
0000
0000
0000
0000
0000
0000
0000
0000
0000
0000
0000
,
0000
0000
0000
0000
0000
0000
0000
0000
0000
0000
0000
0000
0303
0000
0000
0000
0000
0000
1000
0000
0000
0100
0000
0000
0010
0000
0000
0001
0000
0000
0000
0000
0000
0000
0020
0000
0000
0000
0000
0000
0000
0000
0000
0000
0000
0000
0000
0000
,
0000
0030
0000
0000
;
