#TITLE:SCARY MONSTERS AND NICE SPRITES (NOISIA remix);
#SUBTITLE:;
#ARTIST:SKRILLEX;
#TITLETRANSLIT:;
#SUBTITLETRANSLIT:;
#ARTISTTRANSLIT:;
#GENRE:;
#CREDIT:Chewi☆;
#MENUCOLOR:#FFFFFF;
#METERTYPE:DDR X;
#BANNER:SCARY MONSTERS AND NICE SPRITES (NOISIA remix).png;
#BACKGROUND:SCARY MONSTERS AND NICE SPRITES (NOISIA remix)-bg.png;
#LYRICSPATH:;
#CDTITLE:./CDTITLES/DanceDanceRevolution skyMIX3 -breeze-.png;
#MUSIC:SCARY MONSTERS AND NICE SPRITES (NOISIA remix).mp3;
#OFFSET:-0.525;
#SAMPLESTART:14.239;
#SAMPLELENGTH:15.000;
#SELECTABLE:YES;
#LISTSORT:;
#DISPLAYBPM:70.000:280.000;
#BPMS:0.000=140.000,24.000=280.000,32.000=70.000,34.000=140.000,62.000=280.000,70.000=140.000,169.000=280.000,171.000=140.000,174.000=280.000,176.000=140.000,179.000=280.000,181.000=140.000,188.000=280.000,190.000=140.000,193.000=280.000,195.000=140.000;
#STOPS:;
#BGCHANGES:;
#ATTACKS:;

//---------------dance-single - Chewi----------------
#NOTES:
     dance-single:
     Chewi:
     Beginner:
     3:
     0.151,0.204,0.041,0.010,0.000: // measure 1
0000
0000
0000
0000
,  // measure 2
0000
0000
0000
0000
,  // measure 3
0000
0000
0000
0000
,  // measure 4
0000
0000
0000
0000
,  // measure 5
1000
0000
0010
0000
,  // measure 6
0001
0000
0100
0000
,  // measure 7
0010
0000
0000
0000
,  // measure 8
0100
0000
0000
0000
,  // measure 9
1001
0000
1000
0000
,  // measure 10
1000
0000
0010
0000
,  // measure 11
0010
0000
0001
0000
,  // measure 12
1000
0000
1000
0000
,  // measure 13
0001
0000
0001
0000
,  // measure 14
0100
0000
1000
0000
,  // measure 15
0010
0000
0010
0000
,  // measure 16
0001
0000
0200
0000
,  // measure 17
0000
0000
0000
0000
,  // measure 18
0000
0300
0100
0000
,  // measure 19
0001
0000
0100
0000
,  // measure 20
1000
0000
0010
0000
,  // measure 21
1000
0000
0100
0000
,  // measure 22
0001
0000
0010
0000
,  // measure 23
0001
0000
0100
0000
,  // measure 24
1000
0000
0001
0000
,  // measure 25
0100
0000
0010
0000
,  // measure 26
1000
0000
0010
0000
,  // measure 27
1001
0000
0100
0000
,  // measure 28
1001
0000
0010
0000
,  // measure 29
0010
0000
0001
0000
,  // measure 30
0010
0000
1000
0000
,  // measure 31
0010
0000
0100
0000
,  // measure 32
0001
0000
0100
0000
,  // measure 33
1000
0000
0010
0000
,  // measure 34
0001
0000
1000
0000
,  // measure 35
0010
0000
0001
0000
,  // measure 36
0010
0000
1000
0000
,  // measure 37
0001
0000
0001
0000
,  // measure 38
1000
0000
1000
0000
,  // measure 39
0100
0000
0001
0000
,  // measure 40
0010
0000
1000
0000
,  // measure 41
0100
0000
0100
0000
,  // measure 42
0010
0000
0100
0000
,  // measure 43
0000
0010
0000
1000
,  // measure 44
0000
0000
0001
0000
,  // measure 45
1000
0000
0000
0010
,  // measure 46
0000
0010
0000
0100
,  // measure 47
0000
0010
0000
0000
,  // measure 48
0010
0000
0100
0000
,  // measure 49
0000
0010
0000
1000
,  // measure 50
0000
0010
0000
0010
,  // measure 51
0000
0100
0000
0010
,  // measure 52
0000
0010
0000
1000
,  // measure 53
0000
0001
0000
1000
,  // measure 54
0000
0000
0000
0001
,  // measure 55
0000
0100
0000
0001
,  // measure 56
0000
0010
0000
0110
,  // measure 57
0000
0000
0100
0000
;

//---------------dance-single - Chewi----------------
#NOTES:
     dance-single:
     Chewi:
     Easy:
     7:
     0.322,0.390,0.279,0.321,0.000: // measure 1
0000
0000
0000
0000
,  // measure 2
0000
0000
0000
0000
,  // measure 3
0000
0000
0000
0000
,  // measure 4
0000
0000
0000
0000
,  // measure 5
2000
0000
3020
0000
,  // measure 6
0032
0000
0203
0000
,  // measure 7
0310
0000
0010
0000
,  // measure 8
0100
0000
0100
0000
,  // measure 9
2002
3003
1000
0000
,  // measure 10
1100
0000
0010
0000
,  // measure 11
0011
0000
0001
0000
,  // measure 12
1001
0000
1000
0000
,  // measure 13
1001
0000
0001
0000
,  // measure 14
0101
0000
1000
0000
,  // measure 15
1010
0000
0010
0100
,  // measure 16
0001
1000
0200
0000
,  // measure 17
0000
0000
0000
0000
,  // measure 18
0000
0000
0310
0000
,  // measure 19
0001
0010
0100
0000
,  // measure 20
1000
0110
0010
0000
,  // measure 21
1000
0010
0100
0000
,  // measure 22
0001
0000
0010
0000
,  // measure 23
0001
0011
0100
0000
,  // measure 24
1000
0000
0002
1000
,  // measure 25
0103
2000
0010
3010
,  // measure 26
2000
0100
3010
0100
,  // measure 27
1001
0000
0100
0010
,  // measure 28
1001
0000
1000
0100
,  // measure 29
0011
0000
0001
0100
,  // measure 30
1010
0000
1000
0001
,  // measure 31
0010
0010
0100
0010
,  // measure 32
0001
0001
0100
0010
,  // measure 33
1000
1000
0010
0100
,  // measure 34
0001
0001
1000
0001
,  // measure 35
0010
0110
0001
0100
,  // measure 36
0010
0110
1000
0100
,  // measure 37
0001
1001
0001
0010
,  // measure 38
1000
1001
1000
0010
,  // measure 39
0100
0101
0001
0100
,  // measure 40
0010
1010
2000
0001
,  // measure 41
3100
0002
0100
1003
,  // measure 42
0020
0100
0130
0010
,  // measure 43
0100
0220
0330
1000
,  // measure 44
0010
1000
2002
3003
,  // measure 45
1000
0100
0010
0022
,  // measure 46
0033
0001
0010
0100
,  // measure 47
1000
0100
1000
0010
,  // measure 48
2020
3030
0100
0001
,  // measure 49
0100
0220
0330
2000
,  // measure 50
0001
3010
0200
0010
,  // measure 51
0301
0200
0010
0310
,  // measure 52
0000
0110
0000
1000
,  // measure 53
0000
1001
0000
2000
,  // measure 54
0100
3010
0002
1000
,  // measure 55
0013
0200
1000
0301
,  // measure 56
1000
0010
0100
0120
,  // measure 57
0000
0000
0200
0000
,  // measure 58
0000
0000
0000
0000
,  // measure 59
0330
0000
0000
0000
;

//---------------dance-single - Chewi----------------
#NOTES:
     dance-single:
     Chewi:
     Medium:
     9:
     0.394,0.420,0.372,0.248,0.000: // measure 1
0000
0000
0000
0000
,  // measure 2
0000
0000
0000
0000
,  // measure 3
0000
0000
0000
0000
,  // measure 4
0000
0000
0000
0000
,  // measure 5
1000
0100
0010
0001
,  // measure 6
1000
0100
0010
0001
,  // measure 7
0010
0001
0010
0001
,  // measure 8
0010
0100
0010
0100
,  // measure 9
0220
0000
0000
0330
0001
0000
0000
0000
,  // measure 10
0102
0000
2003
0000
,  // measure 11
3010
0110
0210
0000
,  // measure 12
0302
0000
0013
0011
,  // measure 13
1100
0101
1002
0000
,  // measure 14
2003
0000
3010
0110
,  // measure 15
1001
0000
0110
0000
0001
0010
0100
1000
,  // measure 16
0001
0000
2002
0000
,  // measure 17
0000
0000
0000
0000
,  // measure 18
0000
0000
0000
3003
1010
0000
0000
0000
,  // measure 19
0101
0000
1000
0100
0010
0000
0000
0000
,  // measure 20
0101
0010
0100
0010
,  // measure 21
0101
0100
0010
1000
,  // measure 22
1001
0011
2100
0000
,  // measure 23
3020
0000
0000
0000
0130
0001
0010
0000
,  // measure 24
0110
0000
1001
0000
0010
1000
0100
0000
,  // measure 25
0010
0000
0100
0010
0001
0000
0100
0000
,  // measure 26
0010
0100
0001
0000
1000
0000
0100
0000
,  // measure 27
0011
0000
0100
1000
,  // measure 28
1010
0101
0100
0010
,  // measure 29
1001
0000
1000
0100
,  // measure 30
0011
1010
0001
0100
,  // measure 31
1010
1001
1000
0100
,  // measure 32
0011
0101
0001
0100
,  // measure 33
1000
0010
0001
0010
,  // measure 34
1000
0000
0100
0000
0001
0010
0001
0000
,  // measure 35
0100
0000
0100
0000
1000
0010
1000
0000
,  // measure 36
0100
0000
0100
0000
0010
0100
0010
0000
,  // measure 37
0001
0000
1000
0000
1000
0001
1000
0000
,  // measure 38
0001
0000
0100
0000
1000
0010
0001
0000
,  // measure 39
0010
0000
0100
0000
1000
0100
0001
0000
,  // measure 40
0100
0000
0010
0000
1000
0010
0100
0001
,  // measure 41
0010
0100
0010
0001
,  // measure 42
1000
0100
0010
0001
,  // measure 43
1000
0000
2020
0000
0000
3030
0100
0000
,  // measure 44
0001
0000
0100
0000
0220
0000
0000
0330
,  // measure 45
1000
0001
0010
0220
,  // measure 46
0000
0330
0010
0000
0001
0000
0010
0100
,  // measure 47
1000
0010
0100
0000
0001
0000
0100
0000
,  // measure 48
2020
0000
0000
3030
0100
0000
0001
0000
,  // measure 49
0010
0000
0220
0000
0000
0330
0010
0000
,  // measure 50
0001
1000
0100
0000
1000
0000
0010
0000
,  // measure 51
1000
0000
0001
0010
0100
0000
1000
0000
,  // measure 52
0100
0000
0010
0001
0100
0000
0010
0000
,  // measure 53
0100
0000
0001
1000
0001
0000
1000
0000
,  // measure 54
0100
0000
0010
0001
0100
0000
0010
0000
,  // measure 55
0100
0000
0001
0100
0010
0000
1000
0000
,  // measure 56
0100
0000
0010
0001
1000
0100
0020
0000
,  // measure 57
0000
0000
0002
0000
,  // measure 58
0000
0000
0000
0000
,  // measure 59
0033
0000
0000
0000
;

//---------------dance-single - Chewi----------------
#NOTES:
     dance-single:
     Chewi:
     Hard:
     14:
     0.647,0.750,0.496,0.600,0.181: // measure 1
0000
0000
0000
0000
,  // measure 2
0000
0000
0000
0000
,  // measure 3
0000
0000
0000
0000
,  // measure 4
0000
0000
0000
0000
,  // measure 5
1000
0100
0010
0100
2000
0000
3001
0100
,  // measure 6
0010
0100
0002
0000
0013
0010
0100
1000
,  // measure 7
1001
0001
0100
1000
,  // measure 8
1010
0100
0001
0100
,  // measure 9
1010
0000
0000
0000
0000
0000
0000
0000
0000
1000
0000
0000
0000
0000
0001
0000
0000
0000
1000
0000
0000
0000
0000
0000
1002
0000
0000
0000
0000
0000
0000
0000
0000
0000
0000
0000
1000
0000
0000
0000
0000
0000
0000
0000
0000
0000
0000
0000
,  // measure 10
0203
0000
0010
0000
0310
1000
0100
0001
,  // measure 11
0100
1000
0010
0001
0102
0000
0100
0000
,  // measure 12
0023
0000
1000
0000
1030
0100
0001
0100
,  // measure 13
1000
0001
0100
0010
2010
0000
0010
0000
,  // measure 14
3200
0000
1000
0000
0301
0010
0100
1000
,  // measure 15
0010
0100
0001
0100
0010
0010
0100
0001
,  // measure 16
1000
0100
0010
0001
0022
0000
0000
0000
,  // measure 17
0000
0000
0000
0000
,  // measure 18
0000
0033
2001
0100
,  // measure 19
3020
0000
1000
0000
0130
1000
0010
1000
,  // measure 20
0100
1001
2010
0001
,  // measure 21
3002
0000
1000
0000
1003
0100
0010
0001
,  // measure 22
1000
0100
0010
0001
2100
0000
0010
0000
,  // measure 23
3020
0000
1000
0000
0130
0010
1000
0001
,  // measure 24
0010
0100
1100
0000
0200
0320
0230
0302
,  // measure 25
0023
0000
0230
2300
3020
2030
3200
0000
,  // measure 26
2300
0000
3200
0000
0320
0000
0032
0000
0023
0000
0000
0001
0030
0000
0000
0000
,  // measure 27
0011
0000
0000
1100
0000
0000
0000
0000
0102
0000
0000
0100
0003
0000
0000
0000
,  // measure 28
1010
0000
0000
0101
0000
0000
0000
0000
2000
0000
0000
0001
3000
0000
0000
0000
,  // measure 29
0110
0000
0000
1001
0000
0000
0000
0000
2010
0000
0000
0010
3000
0000
0000
0000
,  // measure 30
0101
0000
0000
1010
0000
0000
0101
0000
0001
0000
0010
0000
0100
0000
1000
0000
,  // measure 31
0010
0000
1000
0100
1000
0100
1000
0000
0010
0000
0001
0000
0100
0000
0010
0000
,  // measure 32
0100
0000
0001
0010
0001
0010
0001
0000
0100
0000
1000
0000
0001
0000
1000
0000
,  // measure 33
0010
0000
0100
0010
0100
0010
0100
0000
0010
0000
0100
0000
1000
0000
0001
0000
,  // measure 34
1000
0100
1000
0100
1000
0100
1000
0000
0101
0000
0010
0000
0100
0000
1000
0000
,  // measure 35
0010
1000
0100
1000
0010
0000
0000
0000
0101
0000
0001
0000
0010
0000
0001
0000
,  // measure 36
0100
0001
0010
0001
0100
0000
0000
0000
0110
0000
1000
0000
0001
0000
0010
0000
,  // measure 37
0100
0010
0001
0010
0100
0000
0000
0000
1001
0000
0010
0000
0100
0000
0010
0000
,  // measure 38
1000
0010
0100
0010
1000
0000
0010
0000
1000
0000
0010
0000
1000
0000
0100
0000
,  // measure 39
1010
0000
0000
0101
0000
0000
0100
0000
1000
0000
0001
0000
0100
0000
0010
0000
,  // measure 40
0101
0000
0000
0110
0000
0000
0010
0000
0100
0000
0001
0000
0100
0000
0010
0000
,  // measure 41
2002
0003
3001
0010
0100
1000
2020
3000
,  // measure 42
1030
0000
0100
0000
0010
0000
0001
0000
0100
0000
0000
0101
0000
0000
1000
0000
,  // measure 43
0100
0000
0010
0000
0022
0000
0000
0000
0000
0000
0000
0033
1000
0000
0000
1010
,  // measure 44
0000
0000
0010
0000
0100
0000
0001
0000
0202
0000
0000
0000
0000
0000
0000
0303
,  // measure 45
0010
0000
0000
1001
0000
0000
0001
0000
0010
0000
0100
0000
2200
0000
0000
0000
,  // measure 46
0000
0000
0000
3300
0010
0000
0000
0011
0000
0000
0010
0000
0100
0000
1000
0000
,  // measure 47
0010
0000
0100
0000
0001
0000
0000
0110
0000
0000
0010
0000
1000
0000
0001
0000
,  // measure 48
2002
0000
0000
0000
0000
0000
0000
3003
1000
0000
0000
1010
0000
0000
0100
0000
,  // measure 49
0001
0000
0100
0000
0202
0000
0000
0000
0000
0000
0000
0303
0010
0000
1000
0000
,  // measure 50
0100
1000
2020
3000
1030
0100
0010
0001
,  // measure 51
0022
0003
0031
0010
0100
1000
0010
0001
,  // measure 52
0100
1000
0100
0001
0100
1000
0001
0100
,  // measure 53
1000
0100
0001
0010
1000
0010
0001
0100
,  // measure 54
0010
0100
0022
0030
0013
0100
1000
0010
,  // measure 55
2200
0300
3100
0010
0001
1000
0010
0001
,  // measure 56
0010
1000
0100
0010
0001
0010
0200
0000
,  // measure 57
0000
0000
0020
0000
,  // measure 58
0000
0000
0000
0000
,  // measure 59
0330
0000
0000
0000
;
