#TITLE:サヨナラ*ヘヴン;
#SUBTITLE:;
#ARTIST:猫又Master;
#TITLETRANSLIT:SAYONARA HEAVEN;
#SUBTITLETRANSLIT:;
#ARTISTTRANSLIT:NEKOMATA Master;
#GENRE:;
#CREDIT:Chewi☆;
#MENUCOLOR:#00FF00;
#METERTYPE:DDR X;
#BANNER:SAYONARA HEAVEN.png;
#BACKGROUND:SAYONARA HEAVEN-bg.png;
#LYRICSPATH:;
#CDTITLE:;
#MUSIC:SAYONARA HEAVEN.mp3;
#OFFSET:-0.973;
#SAMPLESTART:69.629;
#SAMPLELENGTH:15.000;
#SELECTABLE:YES;
#LISTSORT:;
#DISPLAYBPM:111.000;
#BPMS:0.000=111.000;
#STOPS:;
#BGCHANGES:;
#ATTACKS:;

//---------------dance-single - Chewi----------------
#NOTES:
     dance-single:
     Chewi:
     Beginner:
     1:
     0.059,0.066,0.000,0.072,0.000: // measure 1
0000
0000
0000
0000
,  // measure 2
0000
0000
0000
0000
,  // measure 3
0000
0000
0000
0000
,  // measure 4
0000
0000
0000
0000
,  // measure 5
1000
0000
0000
0000
,  // measure 6
1000
0000
0000
0000
,  // measure 7
0001
0000
0000
0000
,  // measure 8
0001
0000
0000
0000
,  // measure 9
0100
0000
0000
0000
,  // measure 10
1000
0000
0000
0000
,  // measure 11
0010
0000
0000
0000
,  // measure 12
0001
0000
0000
0000
,  // measure 13
0010
0000
0000
0000
,  // measure 14
0100
0000
0000
0000
,  // measure 15
0001
0000
0000
0000
,  // measure 16
2000
0000
0000
0000
,  // measure 17
3000
0000
0000
0000
,  // measure 18
0200
0000
0000
0000
,  // measure 19
0300
0000
0000
0000
,  // measure 20
2000
0000
0000
0000
,  // measure 21
3000
0000
0000
0000
,  // measure 22
0200
0000
0000
0000
,  // measure 23
0300
0000
0000
0000
,  // measure 24
0002
0000
0000
0000
,  // measure 25
0003
0000
0000
0000
,  // measure 26
0020
0000
0000
0000
,  // measure 27
0030
0000
0000
0000
,  // measure 28
2000
0000
0000
0000
,  // measure 29
3000
0000
0000
0000
,  // measure 30
0020
0000
0000
0000
,  // measure 31
0030
0000
0000
0000
,  // measure 32
0100
0000
0000
0000
,  // measure 33
0010
0000
0000
0000
,  // measure 34
0001
0000
0000
0000
,  // measure 35
1000
0000
0000
0000
,  // measure 36
0001
0000
0000
0000
,  // measure 37
1000
0000
0000
0000
,  // measure 38
0001
0000
0000
0000
,  // measure 39
0001
0000
0000
0000
,  // measure 40
1000
0000
0000
0000
,  // measure 41
1000
0000
0000
0000
,  // measure 42
1000
0000
0000
0000
,  // measure 43
0001
0000
0000
0000
,  // measure 44
0001
0000
0000
0000
,  // measure 45
0010
0000
0000
0000
,  // measure 46
0010
0000
0000
0000
,  // measure 47
0100
0000
0000
0000
,  // measure 48
0100
0000
0000
0000
,  // measure 49
0100
0000
0000
0000
,  // measure 50
0010
0000
0000
0000
,  // measure 51
0100
0000
0000
0000
,  // measure 52
1000
0000
0000
0000
,  // measure 53
0010
0000
0000
0000
,  // measure 54
0010
0000
0000
0000
,  // measure 55
0200
0000
0000
0300
;

//---------------dance-single - Chewi----------------
#NOTES:
     dance-single:
     Chewi:
     Easy:
     3:
     0.157,0.175,0.000,0.112,0.000: // measure 1
0000
0000
0000
0000
,  // measure 2
0000
0000
0000
0000
,  // measure 3
0000
0000
0000
0000
,  // measure 4
0000
0000
0000
0000
,  // measure 5
1000
0000
1000
0000
,  // measure 6
1000
1000
1000
0000
,  // measure 7
0001
0000
0001
0000
,  // measure 8
0001
0001
0001
0000
,  // measure 9
0100
0010
0100
0000
,  // measure 10
1000
1000
1000
0000
,  // measure 11
0010
0100
0010
0000
,  // measure 12
0001
0100
0010
0000
,  // measure 13
0010
0001
0100
0000
,  // measure 14
0100
0010
0001
0000
,  // measure 15
0001
1000
0001
0000
,  // measure 16
2000
0000
0000
3000
,  // measure 17
0010
0100
0010
0000
,  // measure 18
0200
0000
0000
0300
,  // measure 19
0001
1000
0001
0000
,  // measure 20
2000
0000
0000
3000
,  // measure 21
0100
1000
0010
0000
,  // measure 22
0200
0000
0000
0300
,  // measure 23
0100
0001
0010
0000
,  // measure 24
0002
0000
0000
0003
,  // measure 25
2000
0000
0000
3000
,  // measure 26
0020
0000
0000
0030
,  // measure 27
0100
0001
0010
1000
,  // measure 28
2000
0000
0000
3000
,  // measure 29
0002
0000
0000
0003
,  // measure 30
0020
0000
0000
0030
,  // measure 31
0001
0100
1000
0010
,  // measure 32
0200
0000
0310
0000
,  // measure 33
0010
0000
1000
0000
,  // measure 34
0001
1000
0001
0000
,  // measure 35
1000
0000
0100
0000
,  // measure 36
0001
1000
0001
0000
,  // measure 37
1000
0000
0010
0000
,  // measure 38
0001
0010
0001
0000
,  // measure 39
0001
0000
0010
0000
,  // measure 40
1000
0010
1000
0000
,  // measure 41
1000
0000
0100
0000
,  // measure 42
1000
0001
1000
0000
,  // measure 43
0001
0000
0100
0000
,  // measure 44
0001
0100
0001
0000
,  // measure 45
0010
0000
1000
0000
,  // measure 46
0010
1000
0010
0000
,  // measure 47
0100
0000
0001
0000
,  // measure 48
0100
0001
0100
1000
,  // measure 49
0100
0001
0200
0000
,  // measure 50
0310
0000
0020
0000
,  // measure 51
0130
0100
0100
0000
,  // measure 52
1000
0000
0100
1000
,  // measure 53
0010
0000
0100
0001
,  // measure 54
0010
0000
0100
0010
,  // measure 55
0200
0000
0300
0100
;

//---------------dance-single - Chewi----------------
#NOTES:
     dance-single:
     Chewi:
     Medium:
     5:
     0.272,0.328,0.136,0.176,0.000: // measure 1
0000
0000
0000
0000
,  // measure 2
0000
0000
0000
0000
,  // measure 3
0000
0000
0000
0000
,  // measure 4
0000
0000
0000
1000
,  // measure 5
0020
0100
0000
0100
,  // measure 6
2030
0100
0000
0100
,  // measure 7
3002
0100
0000
0100
,  // measure 8
0103
0010
1000
0001
,  // measure 9
0010
0100
2000
3200
,  // measure 10
2300
3010
0200
0302
,  // measure 11
0023
0031
1001
1000
,  // measure 12
0010
0100
0002
2003
,  // measure 13
3020
1030
0002
0023
,  // measure 14
0230
1300
0020
0032
,  // measure 15
0203
1300
0010
0100
,  // measure 16
0001
0100
0010
1010
,  // measure 17
1000
0100
0010
0001
,  // measure 18
0001
0100
0010
0110
,  // measure 19
1000
0100
0010
0001
,  // measure 20
1000
0100
0001
0101
,  // measure 21
0001
0100
0010
0001
,  // measure 22
0100
0010
0001
1001
,  // measure 23
1000
0000
0010
0000
0001
0000
0010
1000
,  // measure 24
2000
0000
0100
0000
,  // measure 25
3010
0100
0001
0000
,  // measure 26
0002
0000
0100
0000
,  // measure 27
1003
0100
0010
0001
,  // measure 28
2000
0000
0010
0000
,  // measure 29
3010
0100
0001
1000
,  // measure 30
0002
0000
1000
0000
,  // measure 31
0013
0100
1000
0001
,  // measure 32
1000
0001
0000
0001
1000
0000
0010
0100
,  // measure 33
0010
0100
0100
0001
,  // measure 34
0010
1000
0010
0100
,  // measure 35
0001
0010
1000
0100
,  // measure 36
0010
0000
0001
0000
1001
0000
1000
0001
,  // measure 37
1000
0010
0001
0100
,  // measure 38
1000
0100
0010
0001
,  // measure 39
0100
0010
0100
0001
,  // measure 40
1000
0000
0100
0000
1001
0000
0010
0001
,  // measure 41
0010
0100
1000
0010
,  // measure 42
0100
1000
0010
0100
,  // measure 43
0001
0010
0100
0001
,  // measure 44
0010
0000
0100
0000
1001
0000
0100
0010
,  // measure 45
0100
0001
0100
1000
,  // measure 46
0010
0001
0100
0010
,  // measure 47
0001
0010
1000
0010
,  // measure 48
0110
1000
0110
0001
,  // measure 49
0101
0001
1100
1000
,  // measure 50
0010
0001
0100
1000
,  // measure 51
1000
0100
0001
0010
,  // measure 52
0110
1000
0110
0001
,  // measure 53
1001
0001
1001
1000
,  // measure 54
0001
0100
0010
1000
,  // measure 55
0001
1000
0001
1001
;

//---------------dance-single - Chewi----------------
#NOTES:
     dance-single:
     Chewi:
     Hard:
     9:
     0.355,0.350,0.144,0.080,0.036: // measure 1
0000
0000
0000
0000
,  // measure 2
0000
0000
0000
0000
,  // measure 3
0000
0000
0000
0000
,  // measure 4
0000
0000
0000
0000
0000
0000
1000
0010
,  // measure 5
0100
0000
0001
0010
1000
0000
1000
0100
,  // measure 6
0001
0000
0001
1000
0010
0000
0100
0010
,  // measure 7
1000
0000
0100
0010
0001
0100
0010
1000
,  // measure 8
0002
0010
0100
1003
,  // measure 9
2000
0010
0100
3010
,  // measure 10
0001
0000
0000
0001
0010
0000
0000
0000
1000
0000
0000
1000
0100
0000
0000
0000
,  // measure 11
0001
0000
0000
0001
0100
0000
0000
0000
1000
0000
0000
1000
0010
0000
0000
0000
,  // measure 12
0100
0001
0100
0000
0001
0010
0001
0000
,  // measure 13
0010
1000
0010
0000
1000
0100
1000
0000
,  // measure 14
0200
1000
0010
1300
,  // measure 15
2000
0010
0001
3100
,  // measure 16
0001
0000
1001
0000
0100
0100
0100
0000
,  // measure 17
0010
1000
0100
0001
,  // measure 18
0010
0000
0011
0000
0010
1000
0010
0000
,  // measure 19
1000
0001
0100
0010
,  // measure 20
1000
0000
1100
0000
0100
0010
0100
0000
,  // measure 21
0010
0001
0100
0010
,  // measure 22
0001
0000
0101
0000
1000
1000
1000
0000
,  // measure 23
0010
1000
0100
0010
,  // measure 24
2000
0000
0010
0000
3100
0000
0001
1000
,  // measure 25
0020
0000
0100
0000
1030
0000
1000
0100
,  // measure 26
0020
0001
0100
0001
,  // measure 27
0032
0100
0010
1003
,  // measure 28
0020
0000
0100
0000
1030
0100
1000
0000
,  // measure 29
2000
0000
0010
0000
3001
0010
0001
0000
,  // measure 30
1100
0010
0101
0010
,  // measure 31
1000
0001
1000
0000
0001
1000
0001
0000
,  // measure 32
0001
0000
0010
0000
0100
0000
0000
0000
1000
0000
0100
0000
0010
0000
0000
0000
0000
0000
0001
0000
0000
0100
0000
0000
,  // measure 33
0010
0000
0001
0010
0001
0000
0100
1000
,  // measure 34
1000
0100
0001
0100
1000
0000
1000
0010
,  // measure 35
1000
0000
0100
0001
0010
1000
1000
0100
,  // measure 36
0001
0100
1000
0010
0100
0000
0100
0001
,  // measure 37
0100
0000
0100
0001
0010
0000
0100
1000
,  // measure 38
0010
0000
0100
0010
1000
0000
0001
1000
,  // measure 39
0100
0000
0001
0010
0001
0010
0100
1000
,  // measure 40
0010
0001
0010
1000
0001
0000
1000
0100
,  // measure 41
0010
0000
0001
0010
0100
0000
1000
0001
,  // measure 42
0100
0000
0010
0010
0010
0000
0100
0001
,  // measure 43
0010
0000
0010
1000
0100
0100
0010
0001
,  // measure 44
0010
0100
1000
0010
0100
0000
0001
0100
,  // measure 45
0010
0000
1000
0100
0010
0000
0001
1000
,  // measure 46
0010
0000
0100
0010
1000
0000
0001
0010
,  // measure 47
0100
0000
1000
0010
0001
0010
1000
0100
,  // measure 48
0010
0001
0010
0000
0100
0000
1001
0000
,  // measure 49
0100
0010
0100
0000
0101
0000
0011
0000
,  // measure 50
1010
1000
1100
0101
,  // measure 51
1000
0001
1000
0001
1000
0000
0010
0100
,  // measure 52
0001
0000
0010
0100
1100
0000
1010
0000
,  // measure 53
0011
0001
0101
1100
,  // measure 54
0101
0000
0000
0000
0001
0100
1000
0100
,  // measure 55
0001
0000
0001
0000
0010
0000
0010
0000
0100
0000
0000
0100
0010
0000
0000
0000
;
