#TITLE:SAMBA de ASPEL;
#SUBTITLE:;
#ARTIST:Anemo=Aspel by MLREC.;
#TITLETRANSLIT:;
#SUBTITLETRANSLIT:;
#ARTISTTRANSLIT:;
#GENRE:;
#CREDIT:Chewi☆;
#MENUCOLOR:;
#METERTYPE:DDR X;
#BANNER:SAMBA de ASPEL.png;
#BACKGROUND:SAMBA de ASPEL-bg.png;
#LYRICSPATH:;
#CDTITLE:;
#MUSIC:SAMBA de ASPEL.mp3;
#OFFSET:-0.606;
#SAMPLESTART:71.786;
#SAMPLELENGTH:15.000;
#SELECTABLE:YES;
#LISTSORT:;
#BPMS:0.000=144.980;
#STOPS:;
#BGCHANGES:;
#ATTACKS:;

//---------------dance-single - Chewi----------------
#NOTES:
     dance-single:
     Chewi:
     Hard:
     13:
     0.591,0.556,0.386,0.176,0.302: // measure 1
0000
0000
0000
0000
,  // measure 2
0000
0000
0000
0000
,  // measure 3
0000
0000
0000
0000
,  // measure 4
0000
0000
0000
0000
,  // measure 5
1000
0000
0000
1000
0001
0000
0000
0001
0100
0000
0000
0100
0010
0000
0000
0010
,  // measure 6
1000
0000
0000
1000
0001
0000
0000
0001
0010
0000
0000
0010
0100
0000
0000
0100
,  // measure 7
1000
0000
0000
1000
0010
0000
0000
0010
1000
0000
0000
1000
0100
0000
0000
0100
,  // measure 8
0010
0000
0000
0010
0001
0000
0000
0001
1000
0000
0000
1000
0010
0000
0010
0000
,  // measure 9
0000
0000
1010
0000
1001
0000
0000
0000
0001
0000
0000
0100
0000
0010
0000
0000
,  // measure 10
1000
2200
0000
0000
0000
0000
3300
0000
,  // measure 11
0220
0330
2002
3003
,  // measure 12
1000
0100
0000
0000
1100
0000
0000
0000
0010
0000
0100
0000
0001
0000
0000
0000
,  // measure 13
0010
0100
1000
0010
0100
0001
0101
0000
,  // measure 14
0001
0100
0000
0000
0101
0000
0000
0000
0001
0000
0010
0000
0100
0000
0000
0000
,  // measure 15
1000
0010
1000
0100
0010
0001
0010
0000
,  // measure 16
0010
0100
0000
0000
0110
0000
0000
0000
0100
0000
0010
0000
0001
0000
0000
0000
,  // measure 17
0100
0010
1000
0100
1000
0010
0100
0000
,  // measure 18
0001
0100
0000
0000
0101
0000
0000
0000
0100
0000
0010
0000
1000
0000
0000
0000
,  // measure 19
0000
0000
0001
0000
0000
0001
0000
0000
0100
0000
0000
0100
0000
0000
0010
0000
,  // measure 20
1000
0010
0100
0001
0010
0100
1000
0010
,  // measure 21
1000
0100
1000
0100
0010
0001
0010
0001
,  // measure 22
0010
0100
1000
0010
0100
0001
0100
0010
,  // measure 23
1000
0100
0010
0001
0010
0100
1000
0000
,  // measure 24
1001
0100
0010
0100
0001
0010
0100
1000
,  // measure 25
0010
1000
0100
0010
0100
1000
0001
0100
,  // measure 26
0010
0100
0010
0100
0001
1000
0001
1000
,  // measure 27
0000
0000
0101
0000
0101
0000
0000
0000
1000
0000
0000
0100
0000
0010
0000
0000
,  // measure 28
0001
0000
0011
0000
0001
0000
0000
0000
0001
0010
0001
0010
0001
0000
0000
0000
,  // measure 29
1000
0000
1010
0000
1000
0000
0000
0000
1000
0100
1000
0100
1000
0000
0000
0000
,  // measure 30
1000
0000
0101
0000
0001
0000
0000
0000
0100
0010
0100
0010
0100
0000
0000
0000
,  // measure 31
0010
0000
1000
0000
0100
0000
0010
0000
0001
0010
0100
1000
0010
0000
0000
0000
,  // measure 32
0100
0000
0110
0000
0010
0000
0000
0000
0001
0010
0001
0010
0001
0000
0000
0000
,  // measure 33
0001
0000
0011
0000
0010
0000
0000
0000
0001
0010
0100
1000
0010
0000
0000
0000
,  // measure 34
1000
0000
1100
0000
1000
0000
0000
0000
1000
0001
0100
0010
1000
0000
0000
0000
,  // measure 35
0001
0000
1000
0000
0001
0000
0100
0000
0010
1000
0010
1000
0010
0000
0000
0000
,  // measure 36
2002
0000
0000
3003
,  // measure 37
0200
0000
0000
0300
,  // measure 38
0220
0330
2002
3003
,  // measure 39
1000
0100
0010
0100
1000
0100
0010
0001
0100
0001
0010
0001
,  // measure 40
0000
0000
0101
0000
0101
0000
0000
0000
0100
0000
0000
0010
0000
1000
0000
0000
,  // measure 41
0000
0000
1010
0000
1010
0000
0000
0000
0100
0000
0000
0010
0000
0001
0000
0000
,  // measure 42
0022
0000
0000
0033
,  // measure 43
2002
3003
0220
0330
,  // measure 44
0001
0010
0000
0000
0011
0000
0000
0000
0100
0000
0010
0000
1000
0000
0000
0000
,  // measure 45
0100
0010
0001
0100
0010
1000
1010
0000
,  // measure 46
1000
0010
0000
0000
1010
0000
0000
0000
1000
0000
0100
0000
0010
0000
0000
0000
,  // measure 47
0001
0100
0001
0010
0100
1000
0100
0000
,  // measure 48
0100
0010
0000
0000
0110
0000
0000
0000
0010
0000
0100
0000
1000
0000
0000
0000
,  // measure 49
0010
0100
0001
0010
0001
0100
0010
0000
,  // measure 50
1000
0010
0000
0000
1010
0000
0000
0000
0010
0000
0100
0000
0001
0000
0000
0000
,  // measure 51
0000
0000
1000
0000
0000
1000
0000
0000
0010
0000
0000
0010
0000
0000
0100
0000
,  // measure 52
0001
0100
0010
1000
0100
0010
0001
0100
,  // measure 53
0001
0010
0001
0010
0100
1000
0100
1000
,  // measure 54
0100
0010
0001
0100
0010
1000
0010
0100
,  // measure 55
0001
0010
0100
1000
0100
0010
0001
0000
,  // measure 56
1001
0010
0100
0010
1000
0100
0010
0001
,  // measure 57
0100
0001
0010
0100
0010
0001
1000
0010
,  // measure 58
0100
0010
0100
0010
1000
0001
1000
0001
,  // measure 59
0000
0000
1010
0000
1010
0000
0000
0000
0100
0000
0000
0001
0000
0001
0000
0000
,  // measure 60
0010
0100
0010
0001
0010
0100
1000
0000
,  // measure 61
1001
1001
0010
0100
0001
0100
0010
0000
,  // measure 62
1010
0010
0100
0001
0010
0100
1000
0000
,  // measure 63
1010
1010
1000
0100
0010
0001
0010
0000
,  // measure 64
0001
0010
0000
0000
0100
1000
0000
0000
0001
1000
0000
0010
0100
0000
0000
0000
,  // measure 65
0010
0100
0001
1000
0100
0010
0001
0000
,  // measure 66
0001
0010
0000
0000
0100
1000
0000
0000
0001
1000
0000
0000
0010
0100
0000
0000
,  // measure 67
0010
0100
0001
1000
0100
0010
0001
0010
,  // measure 68
0000
0000
0011
0000
0011
0000
0000
0000
0001
0000
0000
0010
0000
0100
0000
0000
,  // measure 69
0000
0000
1000
0000
1010
0000
0000
0000
0010
0000
0000
0100
0000
0000
0001
0000
,  // measure 70
2002
0000
0000
3003
;

//---------------dance-single - Chewi----------------
#NOTES:
     dance-single:
     Chewi:
     Medium:
     8:
     0.451,0.498,0.252,0.554,0.101:
0000
0000
0000
0000
,
0000
0000
0000
0000
,
0000
0000
0000
0000
,
0000
0000
0000
0000
,
2000
3100
0002
0103
,
2000
3100
0002
0103
,
2000
3010
0002
0013
,
2000
3010
0002
0013
,
0000
0000
0010
0000
0010
0000
0000
0000
0100
0000
0000
0100
0000
0010
0000
0000
,
0010
0000
0000
0000
,
0110
0000
1001
0000
,
2000
0000
3100
0000
1000
0010
0100
0000
,
0001
0101
1000
1100
,
0002
0000
0013
0000
0010
0100
1000
0000
,
0010
1010
0100
0101
,
0200
0000
0310
0000
0010
0100
0001
0000
,
1000
1100
0001
0011
,
0020
0000
0031
0000
0010
0100
1000
0000
,
0000
0000
0001
0000
0000
0001
0000
0000
0001
0000
0000
0001
0000
0000
0001
0000
,
1000
0000
1100
0000
1000
0001
0100
0000
,
0020
0230
0320
0230
,
0301
0000
1001
0000
1000
0100
0010
0000
,
0200
2300
3020
0230
,
0301
0000
0101
0000
0100
0010
0100
0000
,
0002
0023
0230
2300
,
3010
0000
1100
0000
0010
0100
1000
0000
,
0000
0000
1000
0000
1000
0000
0000
0000
1000
0000
0000
1000
0000
0000
1000
0000
,
0002
0103
2000
3010
,
0002
0013
2000
3100
,
0002
1003
2000
3001
,
0100
0000
0100
0000
0100
0010
0100
0000
,
0020
0130
0200
0301
,
0002
0013
0020
0130
,
0200
1300
2000
3001
,
1000
0000
0001
0000
1000
0001
0010
0000
,
0011
0000
0000
0000
,
1100
0000
0000
0000
,
1001
0000
0110
0000
,
0100
0010
0100
0010
0100
0010
0100
0010
0100
0010
0100
0010
,
0000
0000
0001
0000
0001
0000
0000
0000
1000
0000
0000
1000
0000
1000
0000
0000
,
0000
0000
0010
0000
0010
0000
0000
0000
0100
0000
0000
0100
0000
0100
0000
0000
,
0110
0000
0000
0000
,
1001
0000
1100
0000
,
0002
0000
0013
0000
0001
0100
0010
0000
,
1000
1010
0001
0011
,
2000
0000
3100
0000
0100
0010
0001
0000
,
0100
0101
0010
1010
,
0020
0000
0130
0000
0100
0010
1000
0000
,
0001
0011
1000
1100
,
0200
0000
1300
0000
0100
0010
0001
0000
,
0000
0000
1000
0000
0000
1000
0000
0000
1000
0000
0000
1000
0000
0000
1000
0000
,
0001
0000
0011
0000
0001
1000
0010
0000
,
0200
0320
0230
0320
,
1030
0000
1001
0000
0001
0010
0100
0000
,
0020
0032
0203
0320
,
1030
0000
1010
0000
0010
0100
0010
0000
,
2000
3200
0320
0032
,
0103
0000
0011
0000
0100
0010
0001
0000
,
0000
0000
0001
0000
0001
0000
0000
0000
0001
0000
0000
0001
0000
0000
0001
0000
,
2000
3010
0002
0103
,
2000
3100
0002
0013
,
2000
3001
0002
1003
,
0010
0000
0010
0000
0010
0100
0010
0000
,
0200
0310
0020
1030
,
2000
3100
0200
0310
,
0020
0031
0002
1003
,
0001
0000
1000
0000
0001
1000
0100
0000
,
0000
0000
1000
0000
0100
0000
0000
0000
0010
0000
0000
0010
0000
0010
0000
0000
,
0000
0000
0001
0000
0001
0000
0000
0000
0001
0000
0000
0100
0000
0100
0000
0000
,
0220
0000
0000
0330
;

//---------------dance-single - Chewi----------------
#NOTES:
     dance-single:
     Chewi:
     Beginner:
     2:
     0.162,0.176,0.084,0.017,0.000:
0000
0000
0000
0000
,
0000
0000
0000
0000
,
0000
0000
0000
0000
,
0000
0000
0000
0000
,
1000
0000
1000
0000
,
0010
0000
0010
0000
,
1000
0000
1000
0000
,
0010
0000
0010
0000
,
1001
0000
0000
0000
,
0110
0000
0000
0000
,
0100
0000
0010
0000
,
0010
0000
0010
0000
,
0001
0000
0001
0000
,
0100
0000
0100
0000
,
0001
0000
0001
0000
,
0100
0000
0100
0000
,
0001
0000
0001
0000
,
0010
0000
0010
0000
,
0001
0000
0001
0000
,
0010
0000
0100
0000
,
0010
0000
0100
0000
,
0001
0000
0100
0000
,
0001
0000
0010
0000
,
0010
0000
0001
0000
,
0100
0000
0010
0000
,
0100
0000
0100
0000
,
0010
0000
0010
0000
,
0100
0000
0100
0000
,
1000
0000
1000
0000
,
1000
0000
1000
0000
,
0010
0000
0100
0000
,
0001
0000
0001
0000
,
1000
0000
1000
0000
,
1000
0000
1000
0000
,
0100
0000
0100
0000
,
0110
0000
0000
0000
,
1001
0000
0000
0000
,
1001
0000
0001
0000
,
1000
0000
0001
0000
,
0110
0000
0000
0000
,
0110
0000
0010
0000
,
1000
0000
0000
0000
,
1000
0000
0001
0000
,
0010
0000
0010
0000
,
0001
0000
0001
0000
,
0100
0000
0100
0000
,
0001
0000
0001
0000
,
0100
0000
0100
0000
,
0001
0000
0001
0000
,
0010
0000
0010
0000
,
0001
0000
0001
0000
,
0010
0000
0100
0000
,
0010
0000
0100
0000
,
0001
0000
0100
0000
,
0001
0000
0010
0000
,
0010
0000
0001
0000
,
0100
0000
0010
0000
,
0100
0000
0100
0000
,
0010
0000
0010
0000
,
0100
0000
0100
0000
,
1000
0000
1000
0000
,
1000
0000
1000
0000
,
0010
0000
0100
0000
,
0001
0000
0001
0000
,
1000
0000
1000
0000
,
1000
0000
1000
0000
,
0100
0000
0100
0000
,
0110
0000
0000
0000
,
1001
0000
0000
0000
,
2002
0000
0000
3003
;

//---------------dance-single - Chewi----------------
#NOTES:
     dance-single:
     Chewi:
     Easy:
     5:
     0.293,0.293,0.109,0.017,0.000:
0000
0000
0000
0000
,
0000
0000
0000
0000
,
0000
0000
0000
0000
,
0000
0000
0000
0000
,
1000
0100
1000
0100
,
0010
0001
0010
0001
,
1000
0100
1000
0100
,
0010
0001
0010
0001
,
1001
0000
0000
0000
,
0110
0000
0000
0000
,
0100
0000
0010
0000
,
0010
0100
0010
0100
,
0001
1000
0001
1000
,
0100
0010
0100
0010
,
0001
0010
0001
0010
,
0100
1000
0100
1000
,
0001
1000
0001
1000
,
0010
0100
0010
0100
,
0001
0100
0001
0100
,
0010
1000
0100
0001
,
0010
1000
0100
0010
,
0001
0010
0100
1000
,
0001
0100
0010
1000
,
0010
0100
0001
1000
,
0100
0001
0010
1000
,
0100
0010
0100
1000
,
0010
0010
0010
0010
,
0100
0010
0100
0010
,
1000
0001
1000
0001
,
1000
0100
1000
0100
,
0010
0001
0100
0010
,
0001
0100
0001
0100
,
1000
0100
1000
0100
,
1000
0001
1000
0001
,
0100
0100
0100
0100
,
0110
0000
0000
0000
,
1001
0000
0000
0000
,
1001
0000
1001
0000
,
1000
1000
0001
0001
,
0110
0000
0000
0000
,
0110
0000
0110
0000
,
1001
0000
0000
0000
,
1000
0000
0001
0000
,
0010
0100
0010
0100
,
0001
1000
0001
1000
,
0100
0010
0100
0010
,
0001
0010
0001
0010
,
0100
1000
0100
1000
,
0001
1000
0001
1000
,
0010
0100
0010
0100
,
0001
0100
0001
0100
,
0010
1000
0100
0001
,
0010
1000
0100
0010
,
0001
0010
0100
1000
,
0001
0100
0010
1000
,
0010
0100
0001
1000
,
0100
0001
0010
1000
,
0100
0010
0100
1000
,
0010
0010
0010
0010
,
0100
0010
0100
0010
,
1000
0001
1000
0001
,
1000
0100
1000
0100
,
0010
0001
0100
0010
,
0001
0100
0001
0100
,
1000
0100
1000
0100
,
1000
0001
1000
0001
,
0100
0100
0100
0100
,
0110
0000
0000
0000
,
1001
0000
0000
0000
,
2002
0000
0000
3003
;
