#VERSION:0.82;
#TITLE:Rubberdoll;
#SUBTITLE:;
#ARTIST:Megaera;
#TITLETRANSLIT:;
#SUBTITLETRANSLIT:;
#ARTISTTRANSLIT:;
#GENRE:Dubstep;
#ORIGIN:;
#CREDIT:chewi;
#BANNER:Rubberdoll.png;
#BACKGROUND:Rubberdoll-bg.png;
#PREVIEWVID:;
#JACKET:Rubberdoll-jacket.png;
#CDIMAGE:;
#DISCIMAGE:;
#LYRICSPATH:;
#CDTITLE:cdtitle.png;
#MUSIC:Rubberdoll.ogg;
#OFFSET:-0.348000;
#SAMPLESTART:29.004999;
#SAMPLELENGTH:15.000000;
#SELECTABLE:YES;
#BPMS:0.000=67.000,
30.000=33.500,
31.000=67.000;
#STOPS:;
#DELAYS:;
#WARPS:;
#TIMESIGNATURES:0.000=4=4;
#TICKCOUNTS:0.000=4;
#COMBOS:0.000=1;
#SPEEDS:0.000=1.000=0.000=0;
#SCROLLS:0.000=1.000;
#FAKES:;
#LABELS:0.000=Song Start;
#BGCHANGES:;
#KEYSOUNDS:;
#ATTACKS:
;

//---------------dance-single - ----------------
#NOTEDATA:;
#CHARTNAME:;
#STEPSTYPE:dance-single;
#DESCRIPTION:;
#CHARTSTYLE:;
#DIFFICULTY:Beginner;
#METER:1;
#RADARVALUES:0.067726,0.078555,0.044101,0.044101,0.000000,35.000000,4.000000,4.000000,0.000000,0.000000,0.000000,0.000000,0.000000,0.067726,0.078555,0.044101,0.044101,0.000000,35.000000,4.000000,4.000000,0.000000,0.000000,0.000000,0.000000,0.000000;
#CREDIT:;
#NOTES:
// measure 0
0000
0000
0000
0000
,  // measure 1
0000
0000
0000
0000
,  // measure 2
1000
0000
0000
0000
,  // measure 3
0001
0000
0000
0000
,  // measure 4
1000
0000
1000
0000
,  // measure 5
0001
0000
0001
0000
,  // measure 6
0100
0000
0100
0000
,  // measure 7
0010
0000
0010
0020
,  // measure 8
0000
0000
0030
0010
,  // measure 9
0000
0010
0000
0200
,  // measure 10
0000
0000
0300
0100
,  // measure 11
0000
0100
0000
2000
,  // measure 12
0000
0000
3000
1000
,  // measure 13
0000
1000
0000
0002
,  // measure 14
0000
0000
0003
0001
,  // measure 15
0000
0001
0000
1001
,  // measure 16
0000
1000
0000
1000
,  // measure 17
0000
0000
0000
1001
,  // measure 18
0000
0001
0000
0001
,  // measure 19
0000
0000
0000
0110
,  // measure 20
0000
0100
0000
0100
,  // measure 21
0000
0000
0000
0110
,  // measure 22
0000
0010
0000
0010
,  // measure 23
0000
0000
0000
1000
;

//---------------dance-single - ----------------
#NOTEDATA:;
#CHARTNAME:;
#STEPSTYPE:dance-single;
#DESCRIPTION:;
#CHARTSTYLE:;
#DIFFICULTY:Easy;
#METER:3;
#RADARVALUES:0.152778,0.144017,0.000000,0.374858,0.000000,63.000000,0.000000,34.000000,0.000000,0.000000,0.000000,0.000000,0.000000,0.152778,0.144017,0.000000,0.374858,0.000000,63.000000,0.000000,34.000000,0.000000,0.000000,0.000000,0.000000,0.000000;
#CREDIT:;
#NOTES:
// measure 0
0000
0000
0000
0000
,  // measure 1
0000
0000
0000
0000
,  // measure 2
2000
0000
3001
0000
,  // measure 3
0002
0000
1003
0000
,  // measure 4
2000
0000
3010
0000
,  // measure 5
0002
0000
0013
0000
,  // measure 6
2000
0000
3100
0000
,  // measure 7
0002
0000
0103
0200
,  // measure 8
0320
0230
0320
0130
,  // measure 9
0010
0100
0000
0020
,  // measure 10
0230
0320
0230
0310
,  // measure 11
0100
0010
0000
2000
,  // measure 12
3020
2030
3020
1030
,  // measure 13
0001
1000
0000
0002
,  // measure 14
0203
0302
0203
0301
,  // measure 15
0100
0001
0000
2000
,  // measure 16
0000
0010
0000
3002
,  // measure 17
0000
0010
0000
2003
,  // measure 18
0000
0100
0000
3002
,  // measure 19
0000
0100
0000
0203
,  // measure 20
0320
0230
0320
0130
,  // measure 21
0010
0100
0000
0020
,  // measure 22
2030
3020
2030
3010
,  // measure 23
1000
0010
0000
0100
;

//---------------dance-single - ----------------
#NOTEDATA:;
#CHARTNAME:;
#STEPSTYPE:dance-single;
#DESCRIPTION:;
#CHARTSTYLE:;
#DIFFICULTY:Medium;
#METER:6;
#RADARVALUES:0.184279,0.170202,0.011025,0.220505,0.000000,96.000000,1.000000,20.000000,0.000000,0.000000,0.000000,0.000000,0.000000,0.184279,0.170202,0.011025,0.220505,0.000000,96.000000,1.000000,20.000000,0.000000,0.000000,0.000000,0.000000,0.000000;
#CREDIT:;
#NOTES:
// measure 0
0000
0000
0000
0000
,  // measure 1
0000
0000
0000
0000
,  // measure 2
1000
0010
0001
0100
,  // measure 3
1000
1000
0010
0010
,  // measure 4
1000
0100
0001
0010
,  // measure 5
1000
1000
0100
0100
,  // measure 6
0010
0001
0100
0010
,  // measure 7
0001
0000
0100
0000
0010
0000
0010
0001
,  // measure 8
0010
0000
0010
0000
0010
0000
0001
0010
,  // measure 9
0100
1000
0100
0000
0000
0000
1000
0100
,  // measure 10
1000
0000
0100
0000
1000
0000
0001
0010
,  // measure 11
0100
0000
1000
0000
0001
0000
1000
0001
,  // measure 12
1000
0000
0010
0000
0100
0000
0010
0100
,  // measure 13
0010
0000
0100
0000
0001
0000
0100
0001
,  // measure 14
0100
0000
0001
0000
1000
0000
0001
0010
,  // measure 15
0100
1000
0100
2000
,  // measure 16
3020
0032
0023
2030
,  // measure 17
0100
0010
3001
0002
,  // measure 18
2003
3200
0320
0032
,  // measure 19
0010
1000
0103
0200
,  // measure 20
0320
0230
0302
2003
,  // measure 21
0100
0001
3010
2000
,  // measure 22
3020
0230
0320
2030
,  // measure 23
0010
0001
3100
1001
;

//---------------dance-single - ----------------
#NOTEDATA:;
#CHARTNAME:;
#STEPSTYPE:dance-single;
#DESCRIPTION:;
#CHARTSTYLE:;
#DIFFICULTY:Hard;
#METER:12;
#RADARVALUES:0.507161,0.418959,0.253580,0.970221,0.336270,211.000000,23.000000,88.000000,0.000000,0.000000,0.000000,0.000000,0.000000,0.507161,0.418959,0.253580,0.970221,0.336270,211.000000,23.000000,88.000000,0.000000,0.000000,0.000000,0.000000,0.000000;
#CREDIT:;
#NOTES:
// measure 0
0000
0000
0000
0000
,  // measure 1
0000
0000
0000
0000
,  // measure 2
2010
0000
3100
1000
1002
0103
2001
3100
,  // measure 3
1002
0000
0013
0100
2100
3010
2100
3001
,  // measure 4
0001
0000
0000
0000
1000
0000
0010
0000
0100
0000
0001
0000
0100
0001
0100
0000
0010
0000
0000
0000
1000
0000
0001
0000
0101
0000
0000
0000
0000
0000
0000
0000
,  // measure 5
1000
0000
0000
0000
0001
0000
0010
0000
0100
0000
1000
0000
0010
1000
0100
0000
1000
0000
0000
0000
0001
0000
1000
0000
1001
0000
0000
0000
0000
0000
0000
0000
,  // measure 6
0001
0000
0000
0000
0100
0000
0010
0000
1000
0000
0001
0000
1000
0100
0010
0000
0001
0000
0000
0000
1000
0000
0100
0000
1100
0000
0000
0000
0010
0000
0100
0000
,  // measure 7
2100
0000
3001
0010
0100
1000
0001
1000
1001
0000
0000
0000
2000
0000
3020
0000
,  // measure 8
0230
0000
0320
0000
2030
0000
3020
0000
0230
0000
0320
0000
1030
0100
0010
0001
,  // measure 9
1000
0100
0010
0001
0022
0000
0033
0000
2002
0000
3003
0000
0002
0000
0203
0000
,  // measure 10
0320
0000
0230
0000
0302
0000
0203
0000
0320
0000
0230
0000
0301
0100
0001
0100
,  // measure 11
0001
1000
0001
1000
2002
0000
3003
0000
2020
0000
3030
0000
2000
0000
3020
0000
,  // measure 12
0230
0000
0320
0000
2030
0000
3002
0000
0023
0000
0230
0000
0310
0100
0010
0100
,  // measure 13
1000
0001
1000
0001
2002
0000
3003
0000
0220
0000
0330
0000
2000
0000
3020
0000
,  // measure 14
0230
0000
0320
0000
2030
0000
3002
0000
0203
0000
0320
0000
0130
0010
0100
0010
,  // measure 15
1000
0001
1000
0001
2002
0000
3003
0000
0220
0000
0330
0000
0002
0000
0000
0013
,  // measure 16
0200
0000
2300
0000
3002
0000
0000
0000
2003
0000
0000
0000
3001
1000
0001
1000
,  // measure 17
0010
0100
0010
0100
0202
0000
0303
0000
2020
0000
3030
0000
2000
0000
0000
3001
,  // measure 18
0020
0000
0230
0000
2300
0000
0000
0000
3002
0000
0000
0000
1003
1000
0100
0010
,  // measure 19
0100
0000
0000
1000
0000
0000
0001
0000
0000
0010
0000
0000
0100
0000
0010
0000
0100
0000
0010
0000
0100
0000
0010
0000
0100
0000
0000
0000
0000
0000
0000
0000
0000
0000
0000
0000
0020
0000
0000
0000
0000
0000
0032
0000
0000
0000
0000
0000
,  // measure 20
0023
0000
0032
0000
0203
0000
0302
0000
0203
0000
0302
0000
0103
0010
0100
0010
,  // measure 21
1000
0010
1000
0010
2020
0000
3030
0000
0002
0000
0003
0000
0002
0000
0023
0000
,  // measure 22
0230
0000
2300
0000
3020
0000
0230
0000
0302
0000
2003
0000
3001
0010
0100
0010
,  // measure 23
0001
0000
0000
0100
0000
0000
0010
0000
0000
0100
0000
0000
0001
0000
0100
0000
0001
0000
0100
0000
0001
0000
0100
0000
0001
0000
0000
0000
0000
0000
0000
0000
0000
0000
0000
0000
1001
0000
0000
0000
0000
0000
0000
0000
0000
0000
0000
0000
;
