#VERSION:0.81;
#TITLE:Rose Jail;
#SUBTITLE:;
#ARTIST:Kaya;
#TITLETRANSLIT:;
#SUBTITLETRANSLIT:;
#ARTISTTRANSLIT:;
#GENRE:;
#ORIGIN:;
#CREDIT:chewi;
#BANNER:Rose Jail.png;
#BACKGROUND:Rose Jail-bg.png;
#PREVIEWVID:;
#JACKET:Rose Jail-jacket.png;
#CDIMAGE:;
#DISCIMAGE:;
#LYRICSPATH:;
#CDTITLE:cdtitle.png;
#MUSIC:Rose Jail.ogg;
#OFFSET:-0.240000;
#SAMPLESTART:34.766998;
#SAMPLELENGTH:15.000000;
#SELECTABLE:YES;
#DISPLAYBPM:139.000000;
#BPMS:0.000=139.000;
#STOPS:;
#DELAYS:;
#WARPS:;
#TIMESIGNATURES:0.000=4=4;
#TICKCOUNTS:0.000=4;
#COMBOS:0.000=1;
#SPEEDS:0.000=1.000=0.000=0;
#SCROLLS:0.000=1.000;
#FAKES:;
#LABELS:0.000=Song Start;
#BGCHANGES:;
#KEYSOUNDS:;
#ATTACKS:
;

//---------------dance-single - ----------------
#NOTEDATA:;
#CHARTNAME:;
#STEPSTYPE:dance-single;
#DESCRIPTION:;
#CHARTSTYLE:;
#DIFFICULTY:Beginner;
#METER:2;
#RADARVALUES:0.125997,0.111860,0.010756,0.215116,0.000000,61.000000,1.000000,20.000000,0.000000,0.000000,0.000000,0.000000,0.000000,0.125997,0.111860,0.010756,0.215116,0.000000,61.000000,1.000000,20.000000,0.000000,0.000000,0.000000,0.000000,0.000000;
#CREDIT:;
#DISPLAYBPM:139.000000;
#NOTES:
// measure 0
0000
0000
0000
0000
,  // measure 1
0000
0000
0000
0000
,  // measure 2
0000
0000
0000
0000
,  // measure 3
0000
0000
0000
0000
,  // measure 4
0000
0010
0000
0010
,  // measure 5
0000
0010
0000
0010
,  // measure 6
0000
0100
0000
0100
,  // measure 7
0000
0100
0000
0100
,  // measure 8
0000
1000
0000
1000
,  // measure 9
0000
1000
0000
1000
,  // measure 10
0000
0001
0000
0001
,  // measure 11
0000
0001
0000
0001
,  // measure 12
0002
0000
0000
0000
,  // measure 13
0000
0000
0000
0003
,  // measure 14
0001
0000
0000
0000
,  // measure 15
1000
0000
0000
0000
,  // measure 16
2000
0000
0000
0000
,  // measure 17
0000
0000
0000
3000
,  // measure 18
1000
0000
0000
0000
,  // measure 19
0001
0000
0000
0000
,  // measure 20
0020
0000
0000
0030
,  // measure 21
0020
0000
0000
0030
,  // measure 22
0020
0000
0000
0030
,  // measure 23
0020
0000
0000
0030
,  // measure 24
0200
0000
0000
0300
,  // measure 25
0200
0000
0000
0300
,  // measure 26
0200
0000
0000
0300
,  // measure 27
0200
0000
0000
0300
,  // measure 28
0010
0000
0010
0000
,  // measure 29
0010
0000
0010
0000
,  // measure 30
1000
0000
1000
0000
,  // measure 31
1000
0000
1000
0000
,  // measure 32
0001
0000
0001
0000
,  // measure 33
0001
0000
0001
0000
,  // measure 34
0100
0000
0100
0000
,  // measure 35
0100
0000
0100
0000
,  // measure 36
2000
0000
0000
0000
,  // measure 37
0000
0000
0000
3000
,  // measure 38
1000
0000
0000
0000
,  // measure 39
0001
0000
0000
0000
,  // measure 40
0002
0000
0000
0000
,  // measure 41
0000
0000
0000
0003
,  // measure 42
0001
0000
0000
0000
,  // measure 43
1000
0000
0000
0000
,  // measure 44
0200
0000
0000
0300
,  // measure 45
0200
0000
0000
0300
,  // measure 46
0200
0000
0000
0300
,  // measure 47
0200
0000
0000
0300
,  // measure 48
0020
0000
0000
0030
,  // measure 49
0020
0000
0000
0030
,  // measure 50
0020
0000
0000
0030
,  // measure 51
0020
0000
0000
0030
,  // measure 52
0110
0000
0000
0000
;

//---------------dance-single - ----------------
#NOTEDATA:;
#CHARTNAME:;
#STEPSTYPE:dance-single;
#DESCRIPTION:;
#CHARTSTYLE:;
#DIFFICULTY:Easy;
#METER:5;
#RADARVALUES:0.236628,0.223721,0.096802,0.000000,0.000000,145.000000,9.000000,0.000000,0.000000,0.000000,0.000000,0.000000,0.000000,0.236628,0.223721,0.096802,0.000000,0.000000,145.000000,9.000000,0.000000,0.000000,0.000000,0.000000,0.000000,0.000000;
#CREDIT:;
#DISPLAYBPM:139.000000;
#NOTES:
// measure 0
0000
0000
0000
0000
,  // measure 1
0000
0000
0000
0000
,  // measure 2
0000
0000
0000
0000
,  // measure 3
0000
0000
0000
0000
,  // measure 4
1000
1000
1000
1000
,  // measure 5
1000
1000
1000
1000
,  // measure 6
0001
0001
0001
0001
,  // measure 7
0001
0001
0001
0001
,  // measure 8
0100
0100
0100
0100
,  // measure 9
0100
0100
0100
0100
,  // measure 10
0010
0010
0010
0010
,  // measure 11
0010
0010
0010
0010
,  // measure 12
0010
0000
1000
0000
,  // measure 13
0010
0000
1000
0000
,  // measure 14
0010
0000
0001
0000
,  // measure 15
0010
0000
0001
0000
,  // measure 16
0010
0000
1000
0000
,  // measure 17
0010
0000
0001
0000
,  // measure 18
0010
0000
1000
0000
,  // measure 19
0010
0000
0001
0000
,  // measure 20
0001
0001
0001
0000
,  // measure 21
1000
1000
1000
0000
,  // measure 22
0100
0100
0100
0000
,  // measure 23
0010
0010
0010
0000
,  // measure 24
0001
0001
1001
0000
,  // measure 25
1000
1000
1001
0000
,  // measure 26
0100
0100
0110
0000
,  // measure 27
0010
0010
0110
0000
,  // measure 28
0001
0001
0001
0001
,  // measure 29
0001
0001
0001
0001
,  // measure 30
1000
1000
1000
1000
,  // measure 31
1000
1000
1000
1000
,  // measure 32
0010
0010
0010
0010
,  // measure 33
0010
0010
0010
0010
,  // measure 34
0100
0100
0100
0100
,  // measure 35
0100
0100
0100
0100
,  // measure 36
0100
0000
0001
0000
,  // measure 37
0100
0000
0001
0000
,  // measure 38
0100
0000
1000
0000
,  // measure 39
0100
0000
1000
0000
,  // measure 40
0100
0000
0001
0000
,  // measure 41
0100
0000
1000
0000
,  // measure 42
0100
0000
0001
0000
,  // measure 43
0100
0000
1000
0000
,  // measure 44
1000
1000
1000
0000
,  // measure 45
0001
0001
0001
0000
,  // measure 46
0010
0010
0010
0000
,  // measure 47
0100
0100
0100
0000
,  // measure 48
1000
1000
1001
0000
,  // measure 49
0001
0001
1001
0000
,  // measure 50
0010
0010
0110
0000
,  // measure 51
0100
0100
0110
0000
,  // measure 52
1001
0000
0000
0000
;

//---------------dance-single - ----------------
#NOTEDATA:;
#CHARTNAME:;
#STEPSTYPE:dance-single;
#DESCRIPTION:;
#CHARTSTYLE:;
#DIFFICULTY:Medium;
#METER:6;
#RADARVALUES:0.296553,0.279651,0.172093,0.000000,0.000000,177.000000,16.000000,0.000000,0.000000,0.000000,0.000000,0.000000,0.000000,0.296553,0.279651,0.172093,0.000000,0.000000,177.000000,16.000000,0.000000,0.000000,0.000000,0.000000,0.000000,0.000000;
#CREDIT:;
#DISPLAYBPM:139.000000;
#NOTES:
// measure 0
0000
0000
0000
0000
,  // measure 1
0000
0000
0000
0000
,  // measure 2
0000
0000
0000
0000
,  // measure 3
0000
0000
0000
0000
,  // measure 4
1000
1000
0100
0100
,  // measure 5
0001
0001
0010
0010
,  // measure 6
1000
1000
0100
0100
,  // measure 7
0001
0001
0010
0010
,  // measure 8
1000
1000
0010
0010
,  // measure 9
0001
0001
0100
0100
,  // measure 10
1000
1000
0010
0010
,  // measure 11
0001
0001
0100
0100
,  // measure 12
0010
1000
0001
0000
,  // measure 13
0010
0001
1000
0000
,  // measure 14
0100
1000
0001
0000
,  // measure 15
0100
0001
1000
0000
,  // measure 16
0010
1000
0100
0000
,  // measure 17
0010
0001
0100
0000
,  // measure 18
0001
1000
0010
0000
,  // measure 19
1000
0001
0010
0000
,  // measure 20
0001
0010
0100
1100
,  // measure 21
1000
0010
0100
0101
,  // measure 22
0100
0010
1000
1001
,  // measure 23
0010
0100
1000
1001
,  // measure 24
1000
0100
0010
0011
,  // measure 25
0001
0010
0100
1100
,  // measure 26
1000
0001
0100
0110
,  // measure 27
0010
0100
0001
1001
,  // measure 28
1000
0100
1000
0100
,  // measure 29
0010
0100
0010
0100
,  // measure 30
0010
0001
0010
0001
,  // measure 31
0100
0001
0100
0001
,  // measure 32
0100
0010
1000
0001
,  // measure 33
0010
0100
1000
0001
,  // measure 34
1000
0100
0010
0001
,  // measure 35
1000
0100
0010
0001
,  // measure 36
0100
0001
1000
0000
,  // measure 37
0100
1000
0001
0000
,  // measure 38
0010
0001
1000
0000
,  // measure 39
0010
1000
0001
0000
,  // measure 40
0100
0001
0010
0000
,  // measure 41
0100
1000
0010
0000
,  // measure 42
1000
0001
0100
0000
,  // measure 43
0001
1000
0100
0000
,  // measure 44
1000
0100
0010
0011
,  // measure 45
0001
0100
0010
1010
,  // measure 46
0010
0100
0001
1001
,  // measure 47
0100
0010
0001
1001
,  // measure 48
0001
0010
0100
1100
,  // measure 49
1000
0100
0010
0011
,  // measure 50
0001
1000
0010
0110
,  // measure 51
0100
0010
1000
1001
,  // measure 52
0001
0000
0000
0000
;

//---------------dance-single - ----------------
#NOTEDATA:;
#CHARTNAME:;
#STEPSTYPE:dance-single;
#DESCRIPTION:;
#CHARTSTYLE:;
#DIFFICULTY:Hard;
#METER:11;
#RADARVALUES:0.573131,0.559302,0.344186,0.000000,0.344186,341.000000,32.000000,0.000000,0.000000,0.000000,0.000000,0.000000,0.000000,0.573131,0.559302,0.344186,0.000000,0.344186,341.000000,32.000000,0.000000,0.000000,0.000000,0.000000,0.000000,0.000000;
#CREDIT:;
#DISPLAYBPM:139.000000;
#NOTES:
// measure 0
0000
0000
0000
0000
,  // measure 1
0000
0000
0000
0000
,  // measure 2
0000
0000
0000
0000
,  // measure 3
0000
0000
0000
0000
,  // measure 4
1000
0001
0000
1000
0001
0000
1000
0001
0000
1000
0001
0000
1000
0000
0001
0000
,  // measure 5
0100
0010
0000
0100
0010
0000
0100
0010
0000
0100
0010
0000
0100
0000
0010
0000
,  // measure 6
1000
0010
0000
1000
0010
0000
1000
0010
0000
1000
0010
0000
1000
0000
0001
0000
,  // measure 7
0010
0001
0000
0010
0001
0000
0010
0001
0000
0010
0001
0000
0010
0000
0100
0000
,  // measure 8
1000
0100
0000
1000
0100
0000
1000
0100
0000
1000
0100
0000
1000
0000
0001
0000
,  // measure 9
0010
0001
0000
0010
0001
0000
0010
0001
0000
0010
0001
0000
0010
0000
0100
0000
,  // measure 10
1000
0001
0000
1000
0001
0000
1000
0001
0000
1000
0001
0000
0100
0000
0010
0000
,  // measure 11
0100
0010
0000
0100
0010
0000
0100
0010
0000
0100
0010
0000
0100
0000
0010
0000
,  // measure 12
1000
0000
0100
0010
0001
0000
0100
0010
,  // measure 13
0100
0001
0010
0001
,  // measure 14
0100
0000
0010
1000
0100
0000
0010
1000
,  // measure 15
0100
0010
0001
0000
0100
0000
0001
0000
,  // measure 16
1000
0000
0100
0010
0001
0000
0100
0010
,  // measure 17
0100
0001
0010
0001
,  // measure 18
0100
0000
0010
1000
0100
0000
0010
1000
,  // measure 19
0100
0010
0001
0010
0100
0000
0000
0000
,  // measure 20
1100
0000
1100
0000
1000
0100
0010
0001
,  // measure 21
0011
0000
0011
0000
0001
0010
0100
1000
,  // measure 22
1001
0000
1001
0000
1000
0001
0100
0010
,  // measure 23
0110
0000
0110
0000
0010
0100
0001
1000
,  // measure 24
1010
0000
1010
0000
1000
0010
0100
0001
,  // measure 25
0101
0000
0101
0000
0001
0100
0010
1000
,  // measure 26
1001
0000
1001
0000
1000
0001
0100
0010
,  // measure 27
0110
0000
0110
0000
0010
0100
0001
1000
,  // measure 28
0001
1000
0000
0001
1000
0000
0001
1000
0000
0001
1000
0000
0001
0000
1000
0000
,  // measure 29
0010
0100
0000
0010
0100
0000
0010
0100
0000
0010
0100
0000
0010
0000
0100
0000
,  // measure 30
0001
0100
0000
0001
0100
0000
0001
0100
0000
0001
0100
0000
0001
0000
1000
0000
,  // measure 31
0100
1000
0000
0100
1000
0000
0100
1000
0000
0100
1000
0000
0100
0000
0010
0000
,  // measure 32
0001
0010
0000
0001
0010
0000
0001
0010
0000
0001
0010
0000
0001
0000
1000
0000
,  // measure 33
0100
1000
0000
0100
1000
0000
0100
1000
0000
0100
1000
0000
0100
0000
0010
0000
,  // measure 34
0001
1000
0000
0001
1000
0000
0001
1000
0000
0001
1000
0000
0010
0000
0100
0000
,  // measure 35
0010
0100
0000
0010
0100
0000
0010
0100
0000
0010
0100
0000
0010
0000
0100
0000
,  // measure 36
0001
0000
0010
0100
1000
0000
0010
0100
,  // measure 37
0010
1000
0100
1000
,  // measure 38
0010
0000
0100
0001
0010
0000
0100
0001
,  // measure 39
0010
0100
1000
0000
0010
0000
1000
0000
,  // measure 40
0001
0000
0010
0100
1000
0000
0010
0100
,  // measure 41
0010
1000
0100
1000
,  // measure 42
0010
0000
0100
0001
0010
0000
0100
0001
,  // measure 43
0010
0100
1000
0100
0010
0000
0000
0000
,  // measure 44
0011
0000
0011
0000
0001
0010
0100
1000
,  // measure 45
1100
0000
1100
0000
1000
0100
0010
0001
,  // measure 46
1001
0000
1001
0000
0001
1000
0010
0100
,  // measure 47
0110
0000
0110
0000
0100
0010
1000
0001
,  // measure 48
0101
0000
0101
0000
0001
0100
0010
1000
,  // measure 49
1010
0000
1010
0000
1000
0010
0100
0001
,  // measure 50
1001
0000
1001
0000
0001
1000
0010
0100
,  // measure 51
0110
0000
0110
0000
0100
0010
1000
0001
,  // measure 52
1000
0000
0000
0000
;
