#TITLE:ローリンガール;
#SUBTITLE:;
#ARTIST:wowaka (現実逃避P);
#TITLETRANSLIT:Rolling girl;
#SUBTITLETRANSLIT:;
#ARTISTTRANSLIT:wowaka (Genjitsutouhi-P);
#GENRE:;
#CREDIT:Chewi☆;
#BANNER:Rolling girl.png;
#BACKGROUND:Rolling girl-bg.png;
#LYRICSPATH:;
#CDTITLE:;
#MUSIC:Rolling girl.mp3;
#OFFSET:-0.525;
#SAMPLESTART:49.755;
#SAMPLELENGTH:15.000;
#SELECTABLE:YES;
#BPMS:0.000=195.000;
#STOPS:;
#BGCHANGES:;

//---------------dance-single - Chewi----------------
#NOTES:
     dance-single:
     Chewi:
     Hard:
     11:
     0.685,0.711,0.309,0.551,0.000:
0000
0000
0000
0000
,
0000
0000
0000
0000
,
0000
0000
0000
0000
,
0000
0000
0000
0000
,
2000
0000
3020
0000
0130
0001
0010
0020
,
0000
0031
0010
0100
1000
0010
1000
0100
,
2000
0000
3002
0000
0013
0001
1000
0020
,
0000
0130
0010
1000
0001
0010
0100
1000
,
1000
0100
1000
0000
0010
0000
0101
0000
,
1000
0100
0010
0000
0001
0010
0100
0000
,
2000
3020
0032
0203
,
2300
3020
0230
0302
,
0103
0001
0010
0000
0001
0000
0011
0000
,
0100
1000
0100
0000
1000
0010
0100
0000
,
0002
0203
2300
3020
,
0032
0023
0032
2003
,
3010
0000
0100
0001
0010
0000
0000
0000
,
0001
0000
0010
0000
0100
1000
0010
0000
,
1000
1100
0001
0101
,
0100
0010
0100
0000
0010
0100
0010
0000
,
2000
0000
3001
0000
1000
0100
0010
0001
,
0010
0100
1000
0001
,
2000
0000
3010
0000
0100
0010
0100
0001
,
0010
0100
1000
0010
,
0200
0000
0301
0000
0100
0001
0010
0000
,
0200
0000
1300
0000
0010
1000
0100
0000
,
2000
0000
3001
0000
0100
0010
0100
0000
,
0001
0010
0100
1000
0010
0000
1000
0000
,
0200
0000
0310
0000
0100
1000
0010
0000
,
0200
0000
0301
0000
0010
0100
0010
0000
,
0002
0000
0103
0000
0010
1000
0001
0000
,
1000
0010
0100
0001
1000
0010
0100
0000
,
0001
0000
0100
0000
0001
0010
0100
0000
,
1000
0000
0010
0000
1000
0100
0010
0000
,
0001
1000
0010
0100
0001
0000
1100
0000
,
1000
0010
0100
0001
0010
0000
0011
0000
,
0001
0010
0001
0000
1000
0100
1000
0000
,
0001
1000
0010
0000
1000
0001
0010
0000
,
0100
0010
0001
0010
0100
1000
0010
0000
,
1000
0100
0010
0001
0010
0000
0000
0000
,
0011
0000
1100
0000
1000
0001
0000
0001
,
1000
0000
1010
0000
1000
0010
0000
0010
,
1000
0001
0010
0100
1000
0010
1000
0100
,
0000
1000
0100
0010
0001
0000
0010
0100
,
1000
0000
1000
0100
0010
0000
0001
0010
,
0001
0000
0010
0100
1000
0000
0100
1000
,
0010
1000
0100
0010
0001
0100
0010
0100
,
0000
0100
0001
0010
0001
0100
0000
0000
,
1010
0000
0101
0000
1000
0010
0000
0010
,
1000
0000
1000
0100
0010
0000
0000
0001
,
0010
0100
1000
0010
1000
0010
0100
0001
,
0000
0000
0001
0010
0100
0000
1000
0000
,
2200
3300
2020
3030
,
0022
0033
0202
0303
,
2200
3300
1000
0001
,
1001
0000
1000
0100
0010
0000
0000
0000
,
1100
0000
0011
0000
0001
1000
0000
1000
,
0001
0000
0101
0000
0001
0100
0000
0100
,
0001
1000
0100
0010
0001
0100
0001
0010
,
0000
0001
0010
0100
1000
0000
0100
0010
,
0001
0000
0001
0010
0100
0000
1000
0100
,
1000
0000
0100
0010
0001
0000
0010
0001
,
0100
0001
0010
0100
1000
0010
0100
0010
,
0000
0010
1000
0100
1000
0010
0000
0000
,
0101
0000
1010
0000
0001
0100
0000
0100
,
0001
0000
0001
0010
0100
0000
0000
1000
,
0100
0010
0001
0100
0001
0100
0010
1000
,
0000
0000
1000
0100
0010
0000
0001
0000
,
0022
0033
0202
0303
,
2200
3300
2020
3030
,
0022
0033
0001
1000
,
1001
0000
0001
0010
0100
1000
0000
0000
;

//---------------dance-single - Chewi----------------
#NOTES:
     dance-single:
     Chewi:
     Medium:
     7:
     0.441,0.512,0.463,0.000,0.000: // measure 1
0000
0000
0000
0000
,  // measure 2
0000
0000
0000
0000
,  // measure 3
0000
0000
0000
0000
,  // measure 4
0000
0000
0000
0000
,  // measure 5
1000
0100
0001
0100
,  // measure 6
1000
0100
1100
0000
,  // measure 7
0001
0100
1000
0100
,  // measure 8
0001
0100
0101
0000
,  // measure 9
0100
0100
0010
0010
,  // measure 10
1000
1000
0001
0001
,  // measure 11
1000
0100
0010
0001
,  // measure 12
0011
0000
0000
0000
,  // measure 13
0001
0001
1000
1000
,  // measure 14
0010
0010
0100
0100
,  // measure 15
0010
0100
0001
1000
,  // measure 16
1001
0000
0000
0000
,  // measure 17
1000
0100
0010
0000
,  // measure 18
0001
0010
0100
1000
,  // measure 19
0001
0100
0010
0000
,  // measure 20
1000
0010
0100
0001
,  // measure 21
1000
0100
0001
0000
,  // measure 22
0010
1000
0100
0010
,  // measure 23
0001
0100
1000
0000
,  // measure 24
0010
0001
0100
1000
,  // measure 25
0010
0100
0001
0000
,  // measure 26
0010
0100
1000
0000
,  // measure 27
1000
0001
0100
0010
,  // measure 28
1000
0001
0010
0100
,  // measure 29
1000
0010
0001
0000
,  // measure 30
0100
1000
0010
0000
,  // measure 31
0100
0001
0010
0100
,  // measure 32
0010
0001
0100
0010
,  // measure 33
1000
0001
1001
0000
,  // measure 34
0001
1000
1001
0000
,  // measure 35
1000
0100
0001
0100
,  // measure 36
1000
0010
0001
0010
,  // measure 37
1000
0010
0100
0000
,  // measure 38
0001
0010
0100
0000
,  // measure 39
1000
0100
0010
0100
,  // measure 40
1000
0001
1000
0000
,  // measure 41
1001
1001
1001
0000
,  // measure 42
0101
0101
0101
0000
,  // measure 43
0100
0010
0100
0001
,  // measure 44
0010
0100
1000
0010
,  // measure 45
1010
1010
1010
0000
,  // measure 46
0101
0101
0101
0000
,  // measure 47
0100
0010
0100
0001
,  // measure 48
0010
0100
1000
0010
,  // measure 49
1010
1010
1010
0000
,  // measure 50
1100
1100
1100
0000
,  // measure 51
1000
0100
0001
0100
,  // measure 52
1000
0010
0001
0100
,  // measure 53
1000
0010
0100
0001
,  // measure 54
0100
0010
1000
0001
,  // measure 55
1000
0100
0010
0001
,  // measure 56
0010
0100
1000
0010
,  // measure 57
1001
1001
1001
0000
,  // measure 58
1010
1010
1010
0000
,  // measure 59
0010
0100
0010
1000
,  // measure 60
0100
0010
0001
0100
,  // measure 61
0101
0101
0101
0000
,  // measure 62
1010
1010
1010
0000
,  // measure 63
0010
0100
0010
1000
,  // measure 64
0100
0010
0001
0100
,  // measure 65
0101
0101
0101
0000
,  // measure 66
0011
0011
0011
0000
,  // measure 67
0001
0010
1000
0010
,  // measure 68
0001
0100
1000
0010
,  // measure 69
0001
0100
0010
1000
,  // measure 70
0010
0100
0001
1000
,  // measure 71
0001
0010
0100
1000
,  // measure 72
0100
0010
0001
0000
;

//---------------dance-single - Chewi----------------
#NOTES:
     dance-single:
     Chewi:
     Beginner:
     2:
     0.120,0.196,0.088,0.000,0.000:
0000
0000
0000
0000
,
0000
0000
0000
0000
,
0000
0000
0000
0000
,
0000
0000
0000
0000
,
1000
0000
0000
0000
,
1000
0000
0000
0000
,
0001
0000
0000
0000
,
0001
0000
0000
0000
,
0100
0000
0000
0000
,
0100
0000
0000
0000
,
1000
0000
0000
0000
,
1000
0000
0000
0000
,
1000
0000
0000
0000
,
1000
0000
0000
0000
,
0001
0000
0000
0000
,
0001
0000
0000
0000
,
0110
0000
0000
0000
,
0110
0000
0000
0000
,
1000
0000
0000
0000
,
0001
0000
0000
0000
,
1001
0000
0000
0000
,
1001
0000
0000
0000
,
0010
0000
0000
0000
,
0100
0000
0000
0000
,
0001
0000
0000
0000
,
0010
0000
0000
0000
,
0100
0000
0000
0000
,
0010
0000
0000
0000
,
0010
0000
0000
0000
,
1000
0000
0000
0000
,
0001
0000
0000
0000
,
1000
0000
0000
0000
,
1000
0000
0000
0000
,
0001
0000
0000
0000
,
1000
0000
0000
0000
,
0010
0000
0000
0000
,
0100
0000
0000
0000
,
0001
0000
0000
0000
,
0010
0000
0000
0000
,
0100
0000
0000
0000
,
1001
0000
0000
0000
,
0100
0000
0000
0000
,
1000
0000
0000
0000
,
1000
0000
0000
0000
,
0100
0000
0000
0000
,
0010
0000
0000
0000
,
0010
0000
0000
0000
,
0001
0000
0000
0000
,
1001
0000
0000
0000
,
0001
0000
0000
0000
,
1000
0000
0000
0000
,
1000
0000
0000
0000
,
0010
0000
0000
0000
,
1000
0000
0000
0000
,
1000
0000
0000
0000
,
0100
0000
0000
0000
,
1001
0000
0000
0000
,
0010
0000
0000
0000
,
0001
0000
0000
0000
,
0001
0000
0000
0000
,
0010
0000
0000
0000
,
0100
0000
0000
0000
,
0100
0000
0000
0000
,
1000
0000
0000
0000
,
1001
0000
0000
0000
,
1000
0000
0000
0000
,
0001
0000
0000
0000
,
0001
0000
0000
0000
,
0100
0000
0000
0000
,
0001
0000
0000
0000
,
0001
0000
0000
0000
,
0010
0000
0000
0000
;

//---------------dance-single - Chewi----------------
#NOTES:
     dance-single:
     Chewi:
     Easy:
     5:
     0.320,0.394,0.088,0.000,0.000:
0000
0000
0000
0000
,
0000
0000
0000
0000
,
0000
0000
0000
0000
,
0000
0000
0000
0000
,
1000
0000
1000
0000
,
1000
1000
1000
0000
,
0001
0000
0001
0000
,
0001
0001
0001
0000
,
0100
0000
0010
0000
,
0100
0000
0010
0000
,
1000
0000
0001
0000
,
1000
0000
0001
0000
,
1000
0000
0100
0000
,
1000
0000
0100
0000
,
0001
0000
0100
0000
,
0001
0000
0100
0000
,
0110
0010
0010
0000
,
0110
0100
0100
0000
,
1000
1000
1000
1000
,
0001
0001
0001
0001
,
1001
0001
0001
0000
,
1001
1000
1000
0000
,
0010
0010
0010
0010
,
0100
0100
0100
0100
,
0001
0010
0001
0000
,
0010
0000
0010
0000
,
0100
0000
1000
0000
,
0010
0000
0100
0000
,
0010
1000
0010
0000
,
1000
0000
0100
0000
,
0001
0000
0100
0000
,
1000
0000
0100
0000
,
1000
0001
1000
0000
,
0001
1000
0001
0000
,
1000
0010
1000
0000
,
0010
0100
0010
0000
,
0100
0001
0100
0000
,
0001
0010
0001
0000
,
0010
0100
0010
0000
,
0100
0010
0100
0000
,
1001
0010
0010
0000
,
0100
1000
0100
0000
,
1000
0001
0100
0010
,
1000
0001
1000
0000
,
0100
0100
0100
0000
,
0010
0010
0010
0000
,
0010
0100
0010
0100
,
0001
1000
0001
0000
,
1001
1000
1000
0000
,
0001
0001
0001
0000
,
1000
0100
0001
0010
,
1000
0100
0010
0001
,
0010
0000
0100
0000
,
1000
0000
0001
0000
,
1000
0000
0010
0000
,
0100
0001
0100
0001
,
1001
0100
0100
0000
,
0010
0001
0010
0000
,
0001
1000
0010
0100
,
0001
1000
0001
0000
,
0010
0010
0010
0000
,
0100
0100
0100
0000
,
0100
0010
0100
0010
,
1000
0001
1000
0000
,
1001
0001
0001
0000
,
1000
1000
1000
0000
,
0001
0010
1000
0100
,
0001
0010
0100
1000
,
0100
0000
0010
0000
,
0001
0000
1000
0000
,
0001
0000
0100
0000
,
0010
1000
0010
0000
;
