#TITLE:Rocketeer;
#SUBTITLE:;
#ARTIST:Far East Movement feat. Ryan Tedder;
#TITLETRANSLIT:;
#SUBTITLETRANSLIT:;
#ARTISTTRANSLIT:;
#GENRE:;
#CREDIT:Chewi☆;
#MENUCOLOR:#FFFFFF;
#METERTYPE:DDR X;
#BANNER:Rocketeer.png;
#BACKGROUND:Rocketeer-bg.png;
#LYRICSPATH:;
#CDTITLE:./CDTITLES/DanceDanceRevolution skyMIX3 -breeze-.png;
#MUSIC:Rocketeer.mp3;
#OFFSET:-1.611;
#SAMPLESTART:60.669;
#SAMPLELENGTH:15.000;
#SELECTABLE:YES;
#LISTSORT:;
#DISPLAYBPM:96.000;
#BPMS:0.000=96.000;
#STOPS:;
#BGCHANGES:;
#ATTACKS:;

//---------------dance-single - Chewi----------------
#NOTES:
     dance-single:
     Chewi:
     Beginner:
     1:
     0.051,0.085,0.008,0.000,0.000:
0000
0000
0000
0000
,
0000
0000
0000
0000
,
0000
0000
0000
0000
,
0000
0000
0000
0000
,
1000
0000
0000
0000
,
0001
0000
0000
0000
,
0100
0000
0000
0000
,
0010
0000
0000
0000
,
1000
0000
0000
0000
,
0001
0000
0000
0000
,
0100
0000
0000
0000
,
0100
0000
0000
0000
,
0001
0000
0000
0000
,
0100
0000
0000
0000
,
1000
0000
0000
0000
,
0001
0000
0000
0000
,
0100
0000
0000
0000
,
0100
0000
0000
0000
,
0010
0000
0000
0000
,
0010
0000
0000
0000
,
0001
0000
0000
0000
,
1000
0000
0000
0000
,
1000
0000
0000
0000
,
0001
0000
0000
0000
,
0100
0000
0000
0000
,
0010
0000
0000
0000
,
0001
0000
0000
0000
,
1000
0000
0000
0000
,
0100
0000
0000
0000
,
0010
0000
0000
0000
,
1000
0000
0000
0000
,
1001
0000
0000
0000
,
1000
0000
0010
0010
,
0010
0000
0000
0000
,
0100
0000
0000
0000
,
0010
0000
0000
0000
,
0001
0000
0010
0010
,
0010
0000
0000
0000
,
0010
0000
0000
0000
,
0100
0000
0000
0000
,
0010
0000
0000
0000
;

//---------------dance-single - Chewi----------------
#NOTES:
     dance-single:
     Chewi:
     Easy:
     3:
     0.113,0.122,0.025,0.059,0.000: // measure 1
0000
0000
0000
0000
,  // measure 2
0000
0000
0000
0000
,  // measure 3
0000
0000
0000
0000
,  // measure 4
0000
0000
0000
0000
,  // measure 5
1000
1000
0000
0000
,  // measure 6
0001
0001
0000
0000
,  // measure 7
0100
0100
0000
0000
,  // measure 8
0110
0000
0000
0000
,  // measure 9
1000
0000
1000
0010
,  // measure 10
0001
0000
0001
0000
,  // measure 11
0100
0000
0010
0000
,  // measure 12
0100
0010
0100
0000
,  // measure 13
0001
0000
0010
1000
,  // measure 14
0100
0000
0100
1000
,  // measure 15
1000
0000
0001
0000
,  // measure 16
1001
0000
0010
0000
,  // measure 17
0200
0000
0000
0300
,  // measure 18
0100
0010
0100
0000
,  // measure 19
0020
0000
0000
0030
,  // measure 20
0010
0100
0010
0000
,  // measure 21
0001
0000
0100
0000
,  // measure 22
1000
0000
0010
0000
,  // measure 23
1000
0000
0100
0000
,  // measure 24
0001
0000
0010
0000
,  // measure 25
0100
0100
0100
0000
,  // measure 26
0010
0010
0010
0000
,  // measure 27
0001
0001
0001
0000
,  // measure 28
1000
1000
1000
0000
,  // measure 29
0100
0100
0100
0000
,  // measure 30
0010
0010
0010
0000
,  // measure 31
1000
1000
1000
1000
,  // measure 32
1001
0000
0000
0000
,  // measure 33
2000
0000
0010
0010
,  // measure 34
0020
0000
0000
3030
,  // measure 35
0100
0000
0010
0000
,  // measure 36
0010
0000
0100
0000
,  // measure 37
0002
0000
0010
0010
,  // measure 38
0020
0000
0000
0033
,  // measure 39
0010
0000
0100
0000
,  // measure 40
0100
0000
0010
0000
,  // measure 41
0002
0000
0000
0000
,  // measure 42
0003
0000
0000
0000
;

//---------------dance-single - Chewi----------------
#NOTES:
     dance-single:
     Chewi:
     Medium:
     5:
     0.164,0.191,0.093,0.102,0.000: // measure 1
0000
0000
0000
0000
,  // measure 2
0000
0000
0000
0000
,  // measure 3
0000
0000
0000
0000
,  // measure 4
0000
0000
0000
0000
,  // measure 5
0200
0000
0000
0000
,  // measure 6
0320
0000
0000
0000
,  // measure 7
2030
0000
0000
0000
,  // measure 8
3001
0000
0000
0000
,  // measure 9
0001
0010
1000
0010
,  // measure 10
0001
0100
1000
0100
,  // measure 11
0010
0000
0100
0010
0100
0000
0000
0000
,  // measure 12
0100
0000
0010
0100
0010
0000
0000
0000
,  // measure 13
1000
0100
0001
0100
,  // measure 14
1000
0010
0001
0010
,  // measure 15
0001
0000
0001
1000
0001
0000
0000
0000
,  // measure 16
1000
0000
0001
1000
0001
0000
0000
0000
,  // measure 17
1200
0000
1000
0000
,  // measure 18
0301
0100
1000
0010
,  // measure 19
0021
0000
0001
0000
,  // measure 20
1030
0100
0010
0001
,  // measure 21
1100
0000
0100
0100
,  // measure 22
0101
0000
0010
0010
,  // measure 23
0110
0000
0100
0010
,  // measure 24
1001
0000
0000
0000
,  // measure 25
0010
0000
1000
0000
0100
0100
0100
0000
,  // measure 26
0010
0000
0001
0000
0100
0100
0100
0000
,  // measure 27
1000
0100
0010
0001
,  // measure 28
1000
0100
0010
0001
,  // measure 29
0100
0000
0001
0000
0010
0010
0010
0000
,  // measure 30
0100
0000
1000
0000
0010
0010
0010
0000
,  // measure 31
0100
0010
1000
0001
,  // measure 32
2002
0000
0000
3003
,  // measure 33
2000
0000
0010
0100
,  // measure 34
0020
0000
0000
3030
,  // measure 35
0100
0010
0110
0000
,  // measure 36
0010
0100
0110
0000
,  // measure 37
0002
0000
0100
1000
,  // measure 38
0020
0000
0000
0033
,  // measure 39
0100
0010
1001
0000
,  // measure 40
1000
0001
1001
0000
,  // measure 41
0020
0000
0000
0000
,  // measure 42
0030
0000
0000
0000
;

//---------------dance-single - Chewi----------------
#NOTES:
     dance-single:
     Chewi:
     Hard:
     8:
     0.233,0.278,0.068,0.068,0.000: // measure 1
0000
0000
0000
0000
,  // measure 2
0000
0000
0000
0000
,  // measure 3
0000
0000
0000
0000
,  // measure 4
0000
0000
0000
0000
,  // measure 5
2000
0000
0000
0000
,  // measure 6
3020
0000
0000
0000
,  // measure 7
0230
0000
0000
0000
,  // measure 8
0302
0000
0000
0000
,  // measure 9
1003
0000
0001
1000
0000
0010
0000
0110
,  // measure 10
0000
0000
0000
1001
0000
0000
0000
0000
,  // measure 11
0001
0010
0100
1000
0000
0100
0000
0000
,  // measure 12
1000
0100
0010
0001
0000
0010
0000
0000
,  // measure 13
0100
0000
0010
0001
0000
0001
0000
0100
,  // measure 14
0000
0000
0000
0010
0000
0000
0000
0000
,  // measure 15
1000
0010
0100
0001
0000
0100
0000
0000
,  // measure 16
0001
0010
1000
0100
0000
0001
0000
0000
,  // measure 17
1000
0001
1000
0001
0000
0100
0100
0000
,  // measure 18
0010
1000
0001
0010
0000
0100
0100
0000
,  // measure 19
0010
0001
1000
0100
0010
0001
0001
0000
,  // measure 20
0001
0100
0010
1000
0001
0100
0100
0000
,  // measure 21
0010
0100
0001
1000
0000
1000
1000
0000
,  // measure 22
0010
0001
0010
0100
0000
1000
1000
0000
,  // measure 23
1000
0010
0001
0010
1000
0010
0010
0000
,  // measure 24
0100
0010
0100
0010
1000
0001
1000
0001
,  // measure 25
0001
0010
0100
1000
0000
0100
0001
0100
,  // measure 26
0010
1000
0001
0010
0000
0010
0001
0100
,  // measure 27
0010
0100
0001
1000
0000
0010
0001
1000
,  // measure 28
0010
0100
0010
1000
0010
0100
0010
0001
,  // measure 29
0010
0100
0001
1000
0000
0010
0001
1000
,  // measure 30
0100
1000
0010
1000
0000
0001
0010
0001
,  // measure 31
0100
0010
1000
0001
0010
0100
1000
0001
,  // measure 32
2002
0000
0000
3003
,  // measure 33
1010
0000
0001
0010
0000
1000
0000
0100
,  // measure 34
0000
0000
0000
0010
0000
0000
0000
0000
,  // measure 35
0001
0010
0100
1000
0000
1001
0000
0000
,  // measure 36
1000
0010
0100
0001
0000
1000
0010
0100
,  // measure 37
0010
0000
0001
0100
0000
1000
0000
0100
,  // measure 38
0000
0000
0000
0001
0000
0000
0000
0000
,  // measure 39
0001
0010
0100
1000
0000
1010
0000
0000
,  // measure 40
1000
0010
0100
0001
0000
0101
0000
0000
,  // measure 41
2002
0000
0000
0000
,  // measure 42
3003
0000
0000
0000
;
