#TITLE:Rock That Body;
#SUBTITLE:;
#ARTIST:Black Eyed Peas;
#TITLETRANSLIT:;
#SUBTITLETRANSLIT:;
#ARTISTTRANSLIT:;
#GENRE:;
#CREDIT:Chewphoria~;
#MENUCOLOR:;
#METERTYPE:DDR;
#BANNER:Rock That Body.png;
#BACKGROUND:Rock That Body-bg.png;
#LYRICSPATH:;
#CDTITLE:;
#MUSIC:Rock That Body.mp3;
#OFFSET:-8.100;
#SAMPLESTART:38.806;
#SAMPLELENGTH:15.000;
#SELECTABLE:YES;
#LISTSORT:;
#BPMS:0.000=124.940;
#STOPS:;
#BGCHANGES:;
#ATTACKS:;

//---------------dance-single - Chewphoria~----------------
#NOTES:
     dance-single:
     Chewphoria~:
     Beginner:
     2:
     0.139,0.161,0.086,0.000,0.000: // measure 1
1000
0000
0000
1000
,  // measure 2
1000
0000
0000
0000
,  // measure 3
0001
0000
0000
0001
,  // measure 4
0001
0000
0000
0000
,  // measure 5
1000
1000
0000
0000
,  // measure 6
1000
1000
0000
0000
,  // measure 7
0001
0001
0000
0000
,  // measure 8
1001
0000
0000
0000
,  // measure 9
1000
0000
0100
0000
,  // measure 10
1000
1000
1000
0000
,  // measure 11
0001
0000
0100
0000
,  // measure 12
0001
0001
0001
0000
,  // measure 13
0010
0000
1000
0000
,  // measure 14
0010
0010
0010
0000
,  // measure 15
0010
0000
0001
0000
,  // measure 16
0010
0010
0010
0000
,  // measure 17
0110
0000
0000
0000
,  // measure 18
1001
0000
0000
0000
,  // measure 19
1000
0001
0000
0000
,  // measure 20
0001
1000
0000
0000
,  // measure 21
0110
0000
0000
0000
,  // measure 22
1001
0000
0000
0000
,  // measure 23
1000
0001
0000
0000
,  // measure 24
0001
1000
0000
0000
,  // measure 25
0100
0100
0000
0000
,  // measure 26
0010
0010
0000
0000
,  // measure 27
1000
1000
0000
0000
,  // measure 28
0001
0001
0000
0000
,  // measure 29
1000
1000
0000
0000
,  // measure 30
0100
0100
0000
0000
,  // measure 31
0010
0010
0000
0000
,  // measure 32
1001
0000
0110
0000
,  // measure 33
1000
0000
0001
0000
,  // measure 34
0001
0000
1000
0000
,  // measure 35
0010
0000
0010
0000
,  // measure 36
0100
0000
0100
0000
,  // measure 37
0100
0000
0001
0000
,  // measure 38
0001
0000
1000
0000
,  // measure 39
1000
0000
0010
0000
,  // measure 40
0010
0010
0000
0000
,  // measure 41
0100
0100
0000
0000
,  // measure 42
0100
0000
0000
0000
,  // measure 43
1000
1000
0000
0000
,  // measure 44
1001
0000
0000
0000
;

//---------------dance-single - Chewphoria~----------------
#NOTES:
     dance-single:
     Chewphoria~:
     Easy:
     4:
     0.222,0.230,0.118,0.107,0.000: // measure 1
1000
0000
0000
1000
,  // measure 2
1001
0000
0000
0001
,  // measure 3
1001
0000
0000
0010
,  // measure 4
0110
0000
0000
0000
,  // measure 5
0001
0001
0000
0001
,  // measure 6
1001
0000
0000
1000
,  // measure 7
1001
0000
0000
0010
,  // measure 8
0220
0000
0000
0330
,  // measure 9
1000
0100
0010
0001
,  // measure 10
1000
0000
1000
0000
,  // measure 11
0001
0100
0010
1000
,  // measure 12
0001
0000
0001
0000
,  // measure 13
1000
0010
0001
0010
,  // measure 14
1000
0000
1000
0000
,  // measure 15
1000
0100
0001
0100
,  // measure 16
1000
0000
1000
0000
,  // measure 17
2000
3010
0000
0000
,  // measure 18
2000
3100
0000
0000
,  // measure 19
0002
0013
0000
0000
,  // measure 20
0001
0100
1000
0010
,  // measure 21
2000
3010
0000
0000
,  // measure 22
2000
3001
0000
0000
,  // measure 23
0002
1003
0000
0000
,  // measure 24
0100
1000
0010
0001
,  // measure 25
0100
0100
0010
0001
,  // measure 26
0100
0100
0010
1000
,  // measure 27
0100
0100
0001
1000
,  // measure 28
0100
0100
0010
0010
,  // measure 29
1000
0001
0010
0100
,  // measure 30
1000
1000
0001
0010
,  // measure 31
0001
0001
0100
1000
,  // measure 32
0010
0001
0100
0010
,  // measure 33
0002
0003
1000
0001
,  // measure 34
1001
0000
0001
0100
,  // measure 35
0110
0000
0010
0100
,  // measure 36
1000
0000
0100
0010
,  // measure 37
0100
0000
0100
0001
,  // measure 38
0010
0000
0100
1000
,  // measure 39
0010
0000
1000
0010
,  // measure 40
0200
0000
0000
0300
,  // measure 41
0001
0001
1001
0000
,  // measure 42
1000
1000
1001
0000
,  // measure 43
0100
0010
0100
0010
,  // measure 44
0110
0000
0000
0000
;

//---------------dance-single - Chewphoria~----------------
#NOTES:
     dance-single:
     Chewphoria~:
     Medium:
     7:
     0.344,0.328,0.343,0.139,0.000: // measure 1
0100
0000
0000
0110
,  // measure 2
0010
0000
0000
1000
,  // measure 3
1001
0000
0000
0001
,  // measure 4
0010
0100
1000
1000
,  // measure 5
0001
1001
0000
0100
,  // measure 6
0010
0000
0110
0000
0000
0000
0100
0010
,  // measure 7
2000
3100
0002
0103
,  // measure 8
0200
0010
0010
0310
,  // measure 9
0010
1100
0010
0100
,  // measure 10
0010
0001
0100
1000
0000
0000
0000
0000
,  // measure 11
0010
0101
0010
1100
,  // measure 12
0010
1000
0100
0001
0000
0000
0000
0000
,  // measure 13
0010
0100
0010
0100
,  // measure 14
1000
0001
1000
0001
,  // measure 15
1000
1010
0001
0011
,  // measure 16
0100
0100
0100
0000
0010
0010
0010
0000
,  // measure 17
0001
1000
0010
0000
0000
0000
0110
0000
,  // measure 18
0100
0001
1000
0000
0000
0000
1001
0000
,  // measure 19
1000
0010
1000
0000
0000
0000
1001
0000
,  // measure 20
0001
1100
0101
1100
,  // measure 21
1000
0010
0100
0000
0000
0100
0100
0000
,  // measure 22
0001
0100
0001
0000
0000
0000
0000
0000
,  // measure 23
0010
1000
0010
0000
0000
1000
1000
0000
,  // measure 24
0011
1100
0011
1100
,  // measure 25
1000
0000
1100
0000
0001
0001
0001
0000
,  // measure 26
1000
0000
0010
0000
0100
0100
0100
0000
,  // measure 27
0001
0000
0100
0000
0010
0010
0010
0000
,  // measure 28
1000
0000
1001
0000
1000
0100
1000
0000
,  // measure 29
0001
0000
1100
0000
1000
0100
0010
0000
,  // measure 30
0010
0100
1000
1010
,  // measure 31
0100
0000
0101
0000
0100
0010
0100
0000
,  // measure 32
0010
0000
1100
0000
0100
0000
0100
0001
,  // measure 33
0100
1000
0010
0000
0200
0000
0320
0000
,  // measure 34
1030
0100
0002
2003
,  // measure 35
3100
0001
2000
3200
,  // measure 36
0301
0100
2000
3020
,  // measure 37
0130
0001
0100
1000
,  // measure 38
0001
0100
0001
0000
1000
0000
0100
0000
,  // measure 39
1000
0010
1000
0000
0010
0000
0100
0000
,  // measure 40
0202
0000
0000
0303
,  // measure 41
0100
1100
1100
1000
,  // measure 42
1100
1001
1010
0100
,  // measure 43
0010
0000
0100
0000
0101
0000
1000
0100
,  // measure 44
0010
0001
0100
0010
;

//---------------dance-single - Chewphoria~----------------
#NOTES:
     dance-single:
     Chewphoria~:
     Hard:
     9:
     0.410,0.398,0.214,0.139,0.000: // measure 1
1000
0000
0100
0001
0100
0000
0000
0000
,  // measure 2
1000
0000
0100
0001
0100
0000
0000
0000
,  // measure 3
0001
0000
0100
1000
0100
0000
0000
0000
,  // measure 4
0001
0000
0100
1000
0100
0000
0000
0000
,  // measure 5
1000
0000
0010
0100
0010
0000
0000
0000
,  // measure 6
1000
0000
0010
0100
0010
0000
0000
0000
,  // measure 7
0001
0000
0010
0100
0010
0000
0000
0000
,  // measure 8
0001
0000
0010
0100
0010
0000
0000
0000
,  // measure 9
1000
0100
0010
0001
0000
0001
0010
0001
,  // measure 10
0000
1000
0100
1000
0000
0001
1000
0001
,  // measure 11
0000
1000
0010
1000
0000
0010
0100
0010
,  // measure 12
0200
0302
2003
3020
,  // measure 13
0030
1000
0010
1000
0000
0001
0010
0001
,  // measure 14
0000
1000
0100
1000
0000
0001
0010
0001
,  // measure 15
0000
0010
0100
0010
0000
0001
1000
0001
,  // measure 16
2000
3020
0230
0302
,  // measure 17
0103
0100
0010
0010
0000
1000
0001
0000
,  // measure 18
1000
1000
0001
0001
0000
0001
1000
0000
,  // measure 19
0001
0010
0100
1000
0000
0100
0100
0000
,  // measure 20
1100
0101
1010
0011
,  // measure 21
0010
0100
1000
0010
0000
0100
0100
0000
,  // measure 22
0100
0010
0001
0100
0000
0100
0100
0000
,  // measure 23
0001
0100
1000
0010
0000
0100
0100
0010
,  // measure 24
1000
0000
1100
0000
0101
0000
1100
0001
,  // measure 25
1000
0000
1010
0000
1000
0010
1000
0100
,  // measure 26
1000
0000
1100
0000
1000
0100
0010
0001
,  // measure 27
0010
0000
1100
0000
0001
0100
1000
0010
,  // measure 28
0001
0010
1000
0000
0100
0100
0100
0000
,  // measure 29
1000
0000
1010
0000
1000
0010
0001
0100
,  // measure 30
0001
0100
0100
0000
0010
1000
0001
0010
,  // measure 31
0100
0100
0100
0000
0010
0001
1000
0100
,  // measure 32
2000
3002
0203
0320
,  // measure 33
2030
0010
3010
0000
1000
0010
1000
0000
,  // measure 34
0100
0000
1100
0000
1000
0100
1000
0000
,  // measure 35
0100
0000
0101
0000
0100
0001
0100
0000
,  // measure 36
0001
0010
0001
0000
0010
1000
0010
0100
,  // measure 37
0001
0101
1000
0100
,  // measure 38
0010
0100
0010
0000
0001
0000
1000
0000
,  // measure 39
0010
0100
0010
0000
0100
0000
0001
0000
,  // measure 40
0100
1010
0100
0011
,  // measure 41
1100
0000
1001
1000
0100
0000
1000
0001
,  // measure 42
0101
0010
0100
0000
0001
0000
0100
0010
,  // measure 43
1100
0000
0010
0000
1000
0100
0001
0010
,  // measure 44
1000
0000
0010
0100
0001
0000
0010
0000
;

//---------------dance-single - Chewphoria~----------------
#NOTES:
     dance-single:
     Chewphoria~:
     Challenge:
     11:
     0.496,0.492,0.279,0.150,0.380: // measure 1
1100
0000
0001
0100
1000
0000
0000
0000
,  // measure 2
1100
0000
0001
0100
1000
0000
0000
0000
,  // measure 3
0101
0000
1000
0100
0001
0000
0000
0000
,  // measure 4
0101
0000
1000
0100
0001
0000
0000
0000
,  // measure 5
1100
0000
0010
1000
0100
0000
0000
0000
,  // measure 6
1100
0000
0010
1000
0100
0000
0000
0000
,  // measure 7
0101
0000
0010
0001
0100
0000
0000
0000
,  // measure 8
0101
0000
0010
0001
0100
0000
0100
0000
,  // measure 9
0001
0100
0010
1000
0001
0010
0100
1000
,  // measure 10
0001
1000
0100
0020
0000
0000
0030
0000
,  // measure 11
0001
0010
0100
1000
0010
0100
0001
0100
,  // measure 12
0020
2030
3200
0302
,  // measure 13
0013
0100
0001
0100
0010
1000
0001
0010
,  // measure 14
0100
0100
0010
0020
0000
0000
0030
0000
,  // measure 15
0001
0010
0100
1000
0010
0100
0001
0100
,  // measure 16
0020
0032
0203
2300
,  // measure 17
3010
0000
0100
0000
0010
0000
0100
0000
0000
0000
0100
0001
0000
0100
0001
0000
,  // measure 18
0010
0010
1000
0100
0000
0000
0000
0000
,  // measure 19
1000
0000
0100
0000
0010
0000
0001
0000
0000
1000
0100
0000
1000
0100
0000
0000
,  // measure 20
1010
0000
0101
0000
0011
0100
1100
0000
,  // measure 21
1000
0000
0100
0000
0010
0000
0001
0000
0000
0000
0100
0010
0000
0100
0010
0000
,  // measure 22
1000
0010
0100
0001
0001
0100
0010
1000
,  // measure 23
0001
0000
0010
0000
0100
0000
1000
0000
0000
0000
0100
1000
0000
0100
1000
0000
,  // measure 24
1100
0000
0011
0000
1010
0100
0101
0100
,  // measure 25
0010
0000
1000
0010
0000
0000
1000
0000
0100
0010
0000
0001
,  // measure 26
0010
0000
0100
1000
0000
0000
0010
0000
0100
0001
0000
0100
,  // measure 27
1000
0000
0010
1000
0000
0000
0010
0000
0001
0010
0000
0100
,  // measure 28
1000
0000
0010
0100
0000
0001
0100
0000
0010
0100
0000
0001
,  // measure 29
0100
0000
0010
1000
0000
0000
0001
0010
0100
1000
0000
0100
,  // measure 30
0010
0000
0001
0010
0000
0000
0100
1000
0010
0100
0000
0001
,  // measure 31
0100
0000
0010
0100
0000
0000
0001
0100
0010
1000
0000
0001
,  // measure 32
0011
0000
0000
1100
0000
0000
0011
0000
0100
1000
0000
0010
,  // measure 33
0100
0000
0001
0100
0000
0000
0010
1000
0010
1000
0010
1000
,  // measure 34
0010
0000
0100
0010
0000
0000
0100
0001
0100
0001
0100
0001
,  // measure 35
0010
0000
0100
0010
0000
0000
0100
1000
0010
1000
0100
1000
,  // measure 36
0010
0000
0010
0100
0000
0000
0100
0000
0100
0010
0000
0100
,  // measure 37
0001
0010
0001
0010
0000
0000
0100
0010
0001
0010
0100
1000
,  // measure 38
0010
0100
0010
0100
0000
0000
0100
0001
0100
0010
1000
0001
,  // measure 39
0010
0100
1000
0001
0000
0000
1000
0100
0010
0001
1000
0001
,  // measure 40
1002
0000
0010
0000
0100
1000
0013
0000
,  // measure 41
0110
0000
0100
0001
0100
0000
0110
0000
,  // measure 42
0101
0000
0100
0001
0100
0000
1100
0000
,  // measure 43
0110
0000
1100
0000
1000
0010
0100
0001
,  // measure 44
0200
0320
2030
3001
;
