#TITLE:Rock 'N' Roll (Will Take You To The Mountain);
#SUBTITLE:;
#ARTIST:SKRILLEX;
#TITLETRANSLIT:;
#SUBTITLETRANSLIT:;
#ARTISTTRANSLIT:;
#GENRE:;
#CREDIT:Chewi☆;
#MENUCOLOR:#FFFFFF;
#METERTYPE:DDR X;
#BANNER:Rock 'N' Roll (Will Take You To The Mountain).png;
#BACKGROUND:Rock 'N' Roll (Will Take You To The Mountain)-bg.png;
#LYRICSPATH:;
#CDTITLE:./CDTITLES/DanceDanceRevolution skyMIX3 -breeze-.png;
#MUSIC:Rock 'N' Roll (Will Take You To The Mountain).mp3;
#OFFSET:-0.598;
#SAMPLESTART:38.095;
#SAMPLELENGTH:15.000;
#SELECTABLE:YES;
#LISTSORT:;
#DISPLAYBPM:128.000;
#BPMS:0.000=128.000;
#STOPS:;
#BGCHANGES:;
#ATTACKS:;

//---------------dance-single - Chewi----------------
#NOTES:
     dance-single:
     Chewi:
     Beginner:
     3:
     0.147,0.183,0.194,0.000,0.000: // measure 1
0000
0000
0000
0000
,  // measure 2
0000
0000
0000
0000
,  // measure 3
0000
0000
0000
0000
,  // measure 4
0000
0000
0000
0000
,  // measure 5
1000
0000
1000
0000
,  // measure 6
0001
0000
0001
0000
,  // measure 7
0001
0000
0001
0000
,  // measure 8
1000
0000
1000
0000
,  // measure 9
0100
0000
1000
0000
,  // measure 10
1000
0000
0010
0000
,  // measure 11
0100
0000
0001
0000
,  // measure 12
0110
0000
0000
0000
,  // measure 13
1000
0000
0001
0000
,  // measure 14
1000
0000
0001
0000
,  // measure 15
0001
0000
1000
0000
,  // measure 16
0001
0000
1000
0000
,  // measure 17
0001
0000
0000
0001
,  // measure 18
0100
0000
0010
0000
,  // measure 19
0100
0000
0001
0000
,  // measure 20
0100
0000
1001
0000
,  // measure 21
1000
0000
0110
0000
,  // measure 22
0100
0000
0100
0000
,  // measure 23
0001
0000
0110
0000
,  // measure 24
0001
0000
0010
0000
,  // measure 25
0100
0000
0110
0000
,  // measure 26
1000
0000
0010
0000
,  // measure 27
1000
0000
0110
0000
,  // measure 28
0001
0000
0100
0000
,  // measure 29
0100
0000
0110
0000
,  // measure 30
0100
0000
0010
0000
,  // measure 31
1000
0000
0110
0000
,  // measure 32
1000
0000
0010
0000
,  // measure 33
0001
0000
0100
0000
,  // measure 34
1000
0000
0010
0000
,  // measure 35
1000
0000
0010
0000
,  // measure 36
0110
0000
0000
0000
,  // measure 37
0010
0000
0010
0000
,  // measure 38
0110
0000
0110
0000
,  // measure 39
0010
0000
0100
0000
,  // measure 40
0110
0000
0110
0000
,  // measure 41
0100
0000
0010
0000
,  // measure 42
1000
0000
0100
0000
,  // measure 43
0010
0000
0001
0000
,  // measure 44
0100
0000
0010
0000
,  // measure 45
0110
0000
0110
0000
,  // measure 46
1000
0000
0010
0000
,  // measure 47
1001
0000
1001
0000
,  // measure 48
0001
0000
0100
0000
,  // measure 49
0110
0000
1001
0000
,  // measure 50
1000
0000
0001
0000
,  // measure 51
0110
0000
1001
0000
,  // measure 52
0010
0000
0100
0000
,  // measure 53
0110
0000
0000
0000
;

//---------------dance-single - Chewi----------------
#NOTES:
     dance-single:
     Chewi:
     Easy:
     6:
     0.320,0.357,0.413,0.194,0.000: // measure 1
0000
0000
0000
0000
,  // measure 2
0000
0000
0000
0000
,  // measure 3
0000
0000
0000
0000
,  // measure 4
0000
0000
0000
0000
,  // measure 5
1000
0100
1000
0100
,  // measure 6
0001
0100
0001
0100
,  // measure 7
0001
0010
0001
0010
,  // measure 8
1000
0010
1000
0010
,  // measure 9
0100
0010
1000
0001
,  // measure 10
1000
0100
0010
0001
,  // measure 11
0100
0010
0001
0100
,  // measure 12
0220
0000
0000
0330
,  // measure 13
1000
0100
0001
0010
,  // measure 14
1000
0100
0001
0010
,  // measure 15
0001
0100
1000
0010
,  // measure 16
0001
0100
1000
0010
,  // measure 17
0001
0100
0010
0001
,  // measure 18
0100
1000
0010
1000
,  // measure 19
0100
0110
0001
1001
,  // measure 20
0100
0110
1001
0000
,  // measure 21
2000
3010
0110
0110
,  // measure 22
0200
0310
0100
0110
,  // measure 23
0002
0013
0110
1001
,  // measure 24
0002
1000
0010
0103
,  // measure 25
0200
0301
0110
1001
,  // measure 26
2000
3100
0010
1001
,  // measure 27
2000
3010
0110
1001
,  // measure 28
0002
0010
0100
0013
,  // measure 29
0200
0310
0110
1001
,  // measure 30
0200
0301
0010
1001
,  // measure 31
2000
3001
0110
1001
,  // measure 32
2000
0100
0010
3100
,  // measure 33
0002
0013
0100
0110
,  // measure 34
2000
3100
0010
0110
,  // measure 35
2000
3002
0023
0130
,  // measure 36
0220
0000
0000
0330
,  // measure 37
0010
1000
0010
0100
,  // measure 38
0110
1001
0110
1001
,  // measure 39
0010
0001
0100
0001
,  // measure 40
0110
1001
0110
1001
,  // measure 41
0100
1000
0010
0100
,  // measure 42
1000
0010
0100
0001
,  // measure 43
0010
0100
0001
0010
,  // measure 44
0100
0001
0010
0001
,  // measure 45
0110
0110
0110
0110
,  // measure 46
1000
0100
0010
0001
,  // measure 47
1001
1001
1001
1001
,  // measure 48
0001
0010
0100
1000
,  // measure 49
0110
0110
1001
1001
,  // measure 50
1000
0100
0001
0010
,  // measure 51
0110
0110
1001
1001
,  // measure 52
0010
0001
0100
1000
,  // measure 53
0020
0000
0000
0000
,  // measure 54
0000
0000
0000
0000
,  // measure 55
0000
0000
0000
0000
,  // measure 56
0000
0000
0000
0000
,  // measure 57
0000
0000
0000
0000
,  // measure 58
0000
0000
0000
0000
,  // measure 59
0030
0000
0000
0000
;

//---------------dance-single - Chewi----------------
#NOTES:
     dance-single:
     Chewi:
     Medium:
     8:
     0.303,0.383,0.141,0.185,0.044: // measure 1
0000
0000
0000
0000
,  // measure 2
0000
0000
0000
0000
,  // measure 3
0000
0000
0000
0000
,  // measure 4
0000
0000
0000
0000
,  // measure 5
1000
0000
0000
0000
0001
0000
0000
0000
0010
0000
0000
0010
0000
0000
0000
0000
,  // measure 6
0100
0001
0010
1000
,  // measure 7
0001
0000
0000
0000
1000
0000
0000
0000
0010
0000
0000
0010
0000
0000
0000
0000
,  // measure 8
1000
0100
0001
0010
,  // measure 9
1000
0000
0000
0000
1100
0000
0000
0000
0100
0000
0000
0100
0000
0000
0000
0000
,  // measure 10
0010
0100
0010
0001
,  // measure 11
0001
0000
0000
0000
0101
0000
0000
0000
0100
0000
0000
0100
0000
0000
0000
0000
,  // measure 12
0220
0000
0000
0330
,  // measure 13
1000
0100
0010
1000
,  // measure 14
0100
0001
0010
0100
,  // measure 15
0001
0010
1000
0100
,  // measure 16
0001
0100
1000
0010
,  // measure 17
0001
0100
0010
0001
,  // measure 18
0100
1000
0010
0100
,  // measure 19
1000
0010
0001
0010
,  // measure 20
0100
0100
0100
0000
0110
0000
0000
0000
,  // measure 21
0001
0010
0001
0000
0200
0000
0310
0000
,  // measure 22
0100
0010
0100
0000
0020
0000
1030
0000
,  // measure 23
1000
0100
0010
0000
0002
0000
0013
0000
,  // measure 24
0100
1001
0010
1001
,  // measure 25
1000
0000
0010
0000
0100
0001
0010
0000
,  // measure 26
0001
0000
0010
0000
0100
1000
0010
0000
,  // measure 27
0100
0000
0010
0000
0100
0010
0100
0000
,  // measure 28
1000
0100
0010
0001
,  // measure 29
2000
0000
3100
0000
0001
0010
0001
0000
,  // measure 30
2000
0000
3010
0000
0001
0100
0001
0000
,  // measure 31
0200
0000
0310
0000
1000
0001
1000
0000
,  // measure 32
0001
1001
1000
1001
,  // measure 33
1000
0010
0100
0000
0002
0000
1003
0000
,  // measure 34
0001
0010
0100
0000
2000
0000
3100
0000
,  // measure 35
0010
0100
0001
0100
0000
0000
1001
0000
0000
1100
0000
0000
,  // measure 36
2002
3000
0020
0033
,  // measure 37
0001
0010
0100
1000
0200
0000
2300
0000
,  // measure 38
3001
0000
1000
0000
,  // measure 39
0100
0110
1000
1001
,  // measure 40
0001
0010
0200
0000
0000
0000
1300
0100
,  // measure 41
0010
0001
0100
0101
,  // measure 42
0010
1000
0100
1100
,  // measure 43
0100
0100
0200
0000
0310
0010
0020
0000
,  // measure 44
0031
1000
0020
0000
,  // measure 45
0130
0000
0000
0000
0001
0000
0000
0000
0100
0000
0000
0100
0000
0000
0000
0000
,  // measure 46
0010
1000
0100
0001
,  // measure 47
0010
0000
0000
0000
0100
0000
0000
0000
0010
0000
0000
0010
0000
0000
0000
0000
,  // measure 48
0100
0001
0010
0100
,  // measure 49
1000
0000
0000
0000
0100
0000
0000
0000
0010
0000
0000
0001
0000
0000
0000
0000
,  // measure 50
0001
0100
0001
0100
,  // measure 51
0010
0000
0000
0000
0100
0000
0000
0000
0001
0000
0000
0001
0000
0000
0000
0000
,  // measure 52
1000
0000
0100
0000
0010
0001
0100
0000
,  // measure 53
2002
0000
0000
0000
,  // measure 54
0000
0000
0000
0000
,  // measure 55
0000
0000
0000
0000
,  // measure 56
0000
0000
0000
0000
,  // measure 57
0000
0000
0000
0000
,  // measure 58
0000
0000
0000
0000
,  // measure 59
3003
0000
0000
0000
;

//---------------dance-single - Chewi----------------
#NOTES:
     dance-single:
     Chewi:
     Hard:
     13:
     0.544,0.638,0.510,0.405,0.273: // measure 1
0000
0000
0000
0000
,  // measure 2
0000
0000
0000
0000
,  // measure 3
0000
0000
0000
0000
,  // measure 4
0000
0000
0000
0000
,  // measure 5
1010
0000
0000
0000
0101
0000
0000
0000
1000
0000
0000
0001
0000
0000
0000
0000
,  // measure 6
1000
0000
0100
0000
0010
0000
0001
0000
1000
0000
0100
1000
0000
0000
0000
0000
,  // measure 7
0101
0000
0000
0000
1001
0000
0000
0000
0001
0000
0000
0101
0000
0000
0000
0000
,  // measure 8
0001
0000
0100
0000
0010
0000
1000
0000
0001
0000
0010
0100
0000
0000
0000
0000
,  // measure 9
0011
0000
0000
0000
1001
0000
0000
0000
0001
0000
0000
0100
0000
0000
0000
0000
,  // measure 10
1000
0000
0100
0000
0010
0000
0001
0000
1000
0000
0100
0010
0000
0000
0000
0000
,  // measure 11
0101
0000
0000
0000
1001
0000
0000
0000
1000
0000
0000
0110
0000
0000
0000
0000
,  // measure 12
2020
0000
0000
3030
,  // measure 13
1000
0100
0001
0100
1000
0100
0001
0100
,  // measure 14
1000
0010
0001
0010
1000
0010
0001
0010
,  // measure 15
1000
0100
0001
0100
1000
0100
0001
0100
,  // measure 16
1000
0010
0001
0010
1000
0010
0001
0010
,  // measure 17
1000
0100
1000
0010
1000
0100
1000
0010
,  // measure 18
1000
0100
0001
0010
0001
0100
0001
0010
,  // measure 19
0001
0100
1000
0010
1000
0100
0001
0010
,  // measure 20
0110
1001
0220
0330
,  // measure 21
0001
0000
0010
0100
1000
0000
0010
0000
0202
0000
0303
0000
2020
0000
3030
0000
,  // measure 22
0001
0000
0100
0010
1000
0000
0001
0000
1000
0001
1000
0001
2000
0000
0000
0000
,  // measure 23
3001
0000
0010
0100
1000
0000
0010
0000
0022
0000
0033
0000
0202
0000
0303
0000
,  // measure 24
0001
0100
0010
1000
1001
0010
0110
0000
,  // measure 25
0001
0000
0010
0100
1000
0000
0100
0000
0022
0000
0033
0000
0202
0000
0303
0000
,  // measure 26
0001
0000
0100
0010
1000
0000
0001
0000
0010
0001
0010
0001
0020
0000
0000
0000
,  // measure 27
0031
0000
0010
0100
1000
0000
0010
0000
0202
0000
0303
0000
2020
0000
3030
0000
,  // measure 28
0001
0100
1000
0100
1001
0010
0110
0000
,  // measure 29
0100
0000
0010
0001
0100
0000
0010
0000
0202
0000
0303
0000
2020
0000
3030
0000
,  // measure 30
0001
0000
1000
0100
0010
0000
0001
0000
0010
0001
0010
0001
0020
0000
0000
0000
,  // measure 31
0031
0000
0010
0100
1000
0000
0010
0000
0202
0000
0303
0000
2020
0000
3030
0000
,  // measure 32
1000
0010
0001
0010
1001
0010
0110
0010
,  // measure 33
0001
0000
0010
0100
1000
0000
0010
0000
0202
0000
0303
0000
2020
0000
3030
0000
,  // measure 34
0001
0000
1000
0100
0010
0000
0100
0000
1000
0001
1000
0001
2000
0000
0000
0000
,  // measure 35
3001
0010
0100
1000
0100
0010
0001
0000
0000
0100
0000
0000
,  // measure 36
0220
0330
2002
3003
,  // measure 37
0001
0010
0100
1000
0010
0000
0101
0000
,  // measure 38
1000
0000
0001
0000
0100
0000
0000
0000
0000
0000
0000
0000
0001
0000
1000
0000
0100
0000
0010
0000
0000
0001
0000
0000
,  // measure 39
0010
0100
1001
0000
1000
0010
0101
0000
,  // measure 40
1000
0010
1000
0010
2000
0000
0000
0000
3000
0000
0001
0010
0100
1000
0001
0010
,  // measure 41
0100
1000
0100
0100
0011
0000
0101
0000
,  // measure 42
0001
0000
0101
0000
1010
0000
1000
0000
0001
0010
0000
0000
0100
0000
1000
0000
,  // measure 43
0001
1000
0000
0000
1100
0000
0000
0000
1000
0000
0001
0000
0011
0000
0000
0000
,  // measure 44
2020
0000
0000
0000
0000
0030
0000
0000
0002
0000
0000
0000
0000
0000
3003
0000
,  // measure 45
1100
0000
0000
0000
0011
0000
0000
0000
0001
0000
0000
0011
0000
0000
0000
0000
,  // measure 46
0001
0010
0100
1000
0000
0010
0100
0000
0001
0000
0100
0001
0000
0000
0000
0000
,  // measure 47
1010
0000
0000
0000
0010
0000
0000
0000
0101
0000
0000
0011
0000
0000
0000
0000
,  // measure 48
0001
0010
0100
1000
0001
0000
0000
0000
0000
0000
0010
0100
0010
0100
0010
0000
,  // measure 49
0001
0000
0010
0000
0011
0000
0000
0000
0101
0000
0000
1001
0000
0000
0000
0000
,  // measure 50
1000
0010
0100
0001
1000
0000
0010
0000
0100
0000
0001
0100
0000
0000
0000
0000
,  // measure 51
1010
0000
0000
1001
0000
0000
0000
0001
0010
0000
0100
1000
0000
0000
0000
0000
,  // measure 52
0001
0010
0100
1000
0001
0010
0100
0000
0010
0000
0001
0100
0000
0000
0000
0000
,  // measure 53
2002
0000
0000
0000
,  // measure 54
0000
0000
0000
0000
,  // measure 55
0000
0000
0000
0000
,  // measure 56
0000
0000
0000
0000
,  // measure 57
0000
0000
0000
0000
,  // measure 58
0000
0000
0000
0000
,  // measure 59
3003
0000
0000
0000
;
