#TITLE:Riverside (Let's Go!);
#SUBTITLE:;
#ARTIST:Sidney Samson feat. Wizard Sleeve;
#TITLETRANSLIT:;
#SUBTITLETRANSLIT:;
#ARTISTTRANSLIT:;
#GENRE:;
#CREDIT:Chewphoria~;
#MENUCOLOR:;
#METERTYPE:DDR;
#BANNER:Riverside (Let's Go!).png;
#BACKGROUND:Riverside (Let's Go!)-bg.png;
#LYRICSPATH:;
#CDTITLE:;
#MUSIC:Riverside (Let's Go!).mp3;
#OFFSET:-4.132;
#SAMPLESTART:55.183;
#SAMPLELENGTH:15.000;
#SELECTABLE:YES;
#LISTSORT:;
#DISPLAYBPM:127.000;
#BPMS:0.000=127.010;
#STOPS:;
#BGCHANGES:;
#ATTACKS:;

//---------------dance-single - Chewphoria~----------------
#NOTES:
     dance-single:
     Chewphoria~:
     Beginner:
     1:
     0.124,0.121,0.011,0.127,0.000: // measure 1
2000
0000
0000
3000
,  // measure 2
1000
0000
0000
0000
,  // measure 3
0002
0000
0000
0003
,  // measure 4
0001
0000
0000
0000
,  // measure 5
0010
0000
1000
0000
,  // measure 6
0000
0000
0100
0000
,  // measure 7
0001
0000
0000
0000
,  // measure 8
0001
0000
0010
0000
,  // measure 9
1000
0000
0100
0000
,  // measure 10
0000
0100
0100
0000
,  // measure 11
0001
0000
1000
0000
,  // measure 12
0100
0000
0010
0000
,  // measure 13
0002
0000
0000
0003
,  // measure 14
0001
0000
0000
0000
,  // measure 15
2000
0000
0000
3000
,  // measure 16
1000
0000
0000
0000
,  // measure 17
0010
0000
0010
0000
,  // measure 18
0100
0000
0100
0000
,  // measure 19
1000
0000
1000
0000
,  // measure 20
0001
0000
0001
0000
,  // measure 21
2000
0000
0000
3000
,  // measure 22
1000
0000
0000
0000
,  // measure 23
0002
0000
0000
0003
,  // measure 24
0001
0000
0000
0000
,  // measure 25
0020
0000
0000
0030
,  // measure 26
0010
0000
0000
0000
,  // measure 27
0200
0000
0000
0000
,  // measure 28
0300
0000
0000
0000
,  // measure 29
0001
0000
0010
0000
,  // measure 30
0001
0000
0010
0000
,  // measure 31
1000
0000
0010
0000
,  // measure 32
1000
0000
0010
0000
,  // measure 33
0100
0000
0100
0000
,  // measure 34
0100
0000
0100
0000
,  // measure 35
0010
0000
0010
0000
,  // measure 36
0010
0000
0010
0000
,  // measure 37
1000
0000
0001
0000
,  // measure 38
0001
0000
1000
0000
,  // measure 39
0100
0000
0010
0000
,  // measure 40
0010
0000
0100
0000
,  // measure 41
0000
0020
0000
0030
,  // measure 42
0000
0020
0000
0030
,  // measure 43
0000
0020
0000
0030
,  // measure 44
0000
0020
0000
0030
,  // measure 45
0100
0000
0100
0000
,  // measure 46
0100
0000
0000
1001
;

//---------------dance-single - Chewphoria~----------------
#NOTES:
     dance-single:
     Chewphoria~:
     Easy:
     5:
     0.233,0.241,0.116,0.116,0.000: // measure 1
1000
0001
1000
0001
,  // measure 2
0010
0010
0020
0030
,  // measure 3
0100
0010
0100
0010
,  // measure 4
1000
0001
2000
3000
,  // measure 5
0101
0000
1100
0000
,  // measure 6
0000
1000
0010
0001
,  // measure 7
0010
0000
0110
0000
,  // measure 8
0000
1001
0100
0100
,  // measure 9
0010
0000
1010
0000
,  // measure 10
0000
0100
0100
0100
,  // measure 11
0001
1000
0001
1000
,  // measure 12
0002
0000
0000
0003
,  // measure 13
1000
0100
0010
0001
,  // measure 14
1000
0100
0010
0001
,  // measure 15
0010
0100
0010
0100
,  // measure 16
0001
1000
0001
1000
,  // measure 17
0001
0010
0100
1000
,  // measure 18
0001
0010
0100
1000
,  // measure 19
0010
0100
0010
0100
,  // measure 20
0001
1000
0001
1000
,  // measure 21
0002
0000
0000
0003
,  // measure 22
2000
0000
0000
3000
,  // measure 23
0200
0000
0000
0300
,  // measure 24
0020
0000
0000
0030
,  // measure 25
0002
0000
0000
0003
,  // measure 26
2000
0000
0000
3000
,  // measure 27
0020
0000
0000
0030
,  // measure 28
0110
0000
0000
0000
,  // measure 29
0010
1000
0010
1000
,  // measure 30
1000
0100
1000
0100
,  // measure 31
0010
0001
0010
0001
,  // measure 32
0001
0100
0001
0100
,  // measure 33
1001
1000
1000
1000
,  // measure 34
1000
1000
1000
0000
,  // measure 35
1001
0001
0001
0001
,  // measure 36
0001
0001
0001
0001
,  // measure 37
1000
1000
1000
1000
,  // measure 38
1001
0000
0001
0000
,  // measure 39
0001
0001
0001
0001
,  // measure 40
1001
0000
1000
0000
,  // measure 41
0000
0010
0100
0010
,  // measure 42
0000
1000
0001
1000
,  // measure 43
0000
0100
0100
0100
,  // measure 44
0010
0001
0100
1000
,  // measure 45
0020
0000
0000
0030
,  // measure 46
1001
0000
0000
1000
;

//---------------dance-single - Chewphoria~----------------
#NOTES:
     dance-single:
     Chewphoria~:
     Medium:
     8:
     0.359,0.362,0.316,0.000,0.000: // measure 1
0010
0010
0010
0000
0010
0000
0110
0000
,  // measure 2
0100
0100
0100
0000
0110
0000
0000
0000
,  // measure 3
1000
1000
1000
0000
1000
0000
1001
0000
,  // measure 4
0001
0001
0001
0000
1001
0000
0000
0000
,  // measure 5
1100
0000
0000
0001
0001
0000
0000
0000
,  // measure 6
0000
0001
0010
1000
,  // measure 7
0100
0000
0000
0100
0100
0000
0000
0000
,  // measure 8
0000
1000
0001
1000
0001
0000
1001
0000
,  // measure 9
1000
0000
0000
0010
0010
0000
0000
0000
,  // measure 10
0000
0000
0100
0001
0100
0000
0101
0000
,  // measure 11
1000
1000
0001
0001
,  // measure 12
0010
0100
1000
0001
,  // measure 13
0100
0000
0100
0000
0010
0010
0010
0000
,  // measure 14
1000
0000
1000
0000
1000
1000
1000
0000
,  // measure 15
0001
0000
1000
0000
0100
0100
0100
0000
,  // measure 16
0010
0000
0001
0000
1000
1000
1000
0000
,  // measure 17
1000
0000
0010
0000
0010
0010
0010
0000
,  // measure 18
0100
0000
0001
0000
0001
0001
0001
0000
,  // measure 19
1000
1001
0001
0011
,  // measure 20
0010
0100
1000
1001
,  // measure 21
1000
1000
1000
0000
0001
1000
1000
0001
,  // measure 22
0010
0010
0010
0000
0110
0000
0110
0000
,  // measure 23
0010
0010
0010
0000
0011
0000
0011
0000
,  // measure 24
0001
0001
0001
0000
1001
0000
1001
0000
,  // measure 25
0010
0000
0100
0000
0010
0100
0010
0000
,  // measure 26
0100
0000
0010
0000
0100
0010
0100
0000
,  // measure 27
0001
0000
1000
0000
0001
1000
0001
0000
,  // measure 28
1100
0000
0000
0000
,  // measure 29
0001
0010
0001
0000
0100
0000
0101
0000
,  // measure 30
1000
0010
1000
0000
1001
0000
0000
0000
,  // measure 31
0001
0010
0001
0000
0010
0000
0011
0000
,  // measure 32
0001
0100
0001
0000
1001
0000
0000
0000
,  // measure 33
1000
0010
0100
0001
0100
0000
0000
0000
,  // measure 34
0001
0010
0100
1000
0100
0000
0000
0000
,  // measure 35
1000
0001
1000
0001
1000
0000
0000
0000
,  // measure 36
0010
0100
0010
0100
0010
0000
0000
0000
,  // measure 37
1001
0000
1100
0000
0001
1000
0001
0000
,  // measure 38
0010
0110
0100
0110
,  // measure 39
0010
1000
0010
0000
0100
0001
0100
0000
,  // measure 40
1000
1001
0001
1001
,  // measure 41
0000
0000
0010
0010
0010
0010
0010
0000
,  // measure 42
0000
0000
0010
0010
0010
0010
0010
0000
,  // measure 43
0000
0000
0010
0010
0010
0010
0010
0000
,  // measure 44
0010
0010
0010
0000
1000
0001
1000
0000
,  // measure 45
0100
1100
0100
0101
,  // measure 46
0011
0000
0000
0000
0000
0010
0010
0000
;

//---------------dance-single - Chewphoria~----------------
#NOTES:
     dance-single:
     Chewphoria~:
     Hard:
     12:
     0.462,0.458,0.285,0.000,0.026: // measure 1
0001
0100
0001
0100
1000
0100
1000
0100
,  // measure 2
1000
0000
0001
0000
1000
0000
0001
0000
1001
0000
0000
0001
0000
0000
1000
0000
,  // measure 3
1000
0010
1000
0010
0001
0010
0001
0010
,  // measure 4
0001
0000
0100
0000
0001
0000
0100
0000
1001
0000
0000
1000
0000
0000
0001
0000
,  // measure 5
1000
0000
0000
0001
0100
0000
0000
0000
,  // measure 6
0000
0000
0001
0000
0010
0100
1000
0000
,  // measure 7
1001
0000
0000
0100
0100
0000
0000
0000
,  // measure 8
0000
0001
0100
1000
0010
0001
0010
0000
,  // measure 9
1001
0000
0000
1000
1000
0000
0000
0000
,  // measure 10
0000
0000
0100
1000
0001
0100
0010
0000
,  // measure 11
1000
1000
1000
0000
1001
0000
1001
0000
,  // measure 12
0001
0001
0001
0000
1000
0100
0010
0000
,  // measure 13
0011
0000
0100
0000
0010
0100
0010
0000
,  // measure 14
1000
0000
1010
0000
1000
0100
1000
0000
,  // measure 15
0001
1001
1000
1001
,  // measure 16
0100
0010
0100
0001
1000
0001
1000
0000
,  // measure 17
1100
0000
0101
0000
0100
0100
0100
0000
,  // measure 18
0011
0000
1010
0000
0010
0010
0010
0000
,  // measure 19
1000
0010
0100
0001
0100
0010
1000
0000
,  // measure 20
0001
0001
0001
0000
1000
1000
1000
0000
,  // measure 21
0001
0100
0010
1000
1001
0001
1001
0000
,  // measure 22
1000
0100
0010
0001
0011
0010
0011
0000
,  // measure 23
0001
0010
0100
1000
0010
0101
0100
0101
,  // measure 24
0001
0100
0010
1000
0001
0010
0100
1000
,  // measure 25
0010
0100
0010
1000
0010
0100
0001
0010
,  // measure 26
0001
0100
0010
1000
0001
0010
0100
0000
,  // measure 27
1000
0001
1000
0001
0010
0100
0010
0100
,  // measure 28
0010
0000
0000
0000
,  // measure 29
0001
0010
0100
1000
0001
0010
0100
1000
,  // measure 30
0010
0000
0100
0000
0001
0000
0100
0000
0010
0000
0000
0010
0000
0000
0010
0000
,  // measure 31
0010
1000
0100
0010
0001
0100
0010
1000
,  // measure 32
0100
0000
0010
0000
0001
0000
0010
0000
0100
0000
0000
0100
0000
0000
0100
0000
,  // measure 33
0010
0001
0100
0010
1000
0100
0010
0001
,  // measure 34
0100
0000
0010
0000
1000
0000
0001
0000
1000
0000
0000
1000
0000
0000
1000
0000
,  // measure 35
0001
0010
0100
0010
0001
0001
0100
0100
,  // measure 36
0010
1000
0001
0010
0100
0010
0001
0100
,  // measure 37
1010
0100
0101
0011
,  // measure 38
0001
1000
0001
1000
0100
0100
0100
0000
,  // measure 39
1000
0001
0010
0100
1000
0010
0100
0001
,  // measure 40
0100
0100
0100
0000
0010
0010
0010
0000
,  // measure 41
0000
0000
0010
1000
0001
0010
0010
0000
,  // measure 42
0000
0000
0010
0001
1000
0010
0010
0000
,  // measure 43
0100
0001
0100
1000
0100
1000
1001
0000
,  // measure 44
1000
0010
0100
0001
0100
0010
1000
0000
,  // measure 45
1001
0100
1001
0010
,  // measure 46
1000
0000
0000
0000
0000
0001
1001
0000
;
