#TITLE:Ringo Mogire Beam! (Exit Trance Remix);
#SUBTITLE:;
#ARTIST:N.O.SYO feat. TAKANORI & MAKI;
#TITLETRANSLIT:;
#SUBTITLETRANSLIT:;
#ARTISTTRANSLIT:;
#GENRE:;
#CREDIT:Chewphoria~;
#MENUCOLOR:;
#METERTYPE:DDR;
#BANNER:Ringo Mogire Beam! (Exit Trance Remix).png;
#BACKGROUND:Ringo Mogire Beam! (Exit Trance Remix)-bg.png;
#LYRICSPATH:;
#CDTITLE:;
#MUSIC:Ringo Mogire Beam! (Exit Trance Remix).mp3;
#OFFSET:-5.466;
#SAMPLESTART:44.057;
#SAMPLELENGTH:15.000;
#SELECTABLE:YES;
#LISTSORT:;
#BPMS:0.000=180.000;
#STOPS:;
#BGCHANGES:-16.932=Ringo Mogire Beam! (Exit Trance Remix).avi=1.000=1=0=1,
99999=-nosongbg-=1.000=0=0=0 // don't automatically add -songbackground-
;
#ATTACKS:;

//---------------dance-single - Chewphoria~----------------
#NOTES:
     dance-single:
     Chewphoria~:
     Beginner:
     3:
     0.197,0.230,0.012,0.199,0.000: // measure 1
2000
0000
0000
3000
,  // measure 2
2000
0000
0000
3000
,  // measure 3
1000
0000
0100
0000
,  // measure 4
0001
0000
0010
0000
,  // measure 5
0010
0010
0010
0000
,  // measure 6
0010
0000
0100
0000
,  // measure 7
0010
0000
0100
0000
,  // measure 8
1000
0000
1000
0000
,  // measure 9
0001
0000
0001
0000
,  // measure 10
1000
0000
0100
0000
,  // measure 11
0001
0000
0010
0000
,  // measure 12
0010
0010
0010
0000
,  // measure 13
0100
0100
0100
0000
,  // measure 14
2000
0000
0000
0000
,  // measure 15
0000
0000
0000
3000
,  // measure 16
2000
0000
0000
0000
,  // measure 17
0000
0000
0000
3000
,  // measure 18
0001
0000
1000
0000
,  // measure 19
0010
0000
1000
0000
,  // measure 20
0001
0000
1000
0000
,  // measure 21
0100
0000
0100
0000
,  // measure 22
0001
0000
0001
0000
,  // measure 23
1000
0000
1000
0000
,  // measure 24
0010
0000
0010
0000
,  // measure 25
0100
0000
0100
0000
,  // measure 26
0110
0000
0100
0000
,  // measure 27
0010
0000
0010
0000
,  // measure 28
1000
0000
1000
0000
,  // measure 29
0001
0000
0001
0000
,  // measure 30
0002
0000
0000
0003
,  // measure 31
0002
0000
0000
0003
,  // measure 32
2000
0000
0000
3000
,  // measure 33
2000
0000
0000
3000
,  // measure 34
0020
0000
0000
0030
,  // measure 35
0020
0000
0000
0030
,  // measure 36
0010
0010
0010
0010
,  // measure 37
0010
0000
0000
0000
,  // measure 38
0200
0000
0000
0300
,  // measure 39
0200
0000
0000
0300
,  // measure 40
0002
0000
0000
0003
,  // measure 41
0002
0000
0000
0003
,  // measure 42
2000
0000
0000
3000
,  // measure 43
2000
0000
0000
3000
,  // measure 44
1000
1000
1000
1000
,  // measure 45
1000
0000
0000
0000
,  // measure 46
1000
0000
0001
0000
,  // measure 47
0100
0000
0010
0000
,  // measure 48
0010
0000
0100
0000
,  // measure 49
0001
0000
1000
0000
,  // measure 50
1000
1000
1000
0000
,  // measure 51
0001
0000
1000
0000
,  // measure 52
0010
0010
0010
0000
,  // measure 53
0010
0000
0100
0000
,  // measure 54
0100
0000
0000
0000
;

//---------------dance-single - Chewphoria~----------------
#NOTES:
     dance-single:
     Chewphoria~:
     Easy:
     5:
     0.328,0.362,0.099,0.186,0.000: // measure 1
0002
0000
0000
0003
,  // measure 2
2000
0000
0000
3000
,  // measure 3
0020
0000
0230
0000
,  // measure 4
0320
2030
3002
0000
,  // measure 5
2003
0001
0020
3030
,  // measure 6
1000
0010
0100
0000
,  // measure 7
1000
0010
0100
0000
,  // measure 8
1000
1000
0001
0001
,  // measure 9
1000
0001
1001
0000
,  // measure 10
0001
0010
0100
0000
,  // measure 11
0001
0010
0100
0000
,  // measure 12
1000
1000
0001
0001
,  // measure 13
1000
0001
1001
0000
,  // measure 14
2001
0000
0100
0000
,  // measure 15
0001
0001
3001
0000
,  // measure 16
1002
0000
0100
0000
,  // measure 17
1000
1000
1003
0000
,  // measure 18
1000
0100
0001
0000
,  // measure 19
0001
0100
1000
0000
,  // measure 20
1000
0010
0100
0001
,  // measure 21
0100
0100
0100
0000
,  // measure 22
0001
0010
1000
0000
,  // measure 23
1000
0010
0001
0000
,  // measure 24
0001
0010
0100
1000
,  // measure 25
0100
0100
0100
0000
,  // measure 26
2000
0000
3002
0000
,  // measure 27
0103
0010
0100
0010
,  // measure 28
0020
0000
1000
0000
,  // measure 29
0001
0000
1030
0000
,  // measure 30
1001
0000
0100
0000
,  // measure 31
0010
0000
0001
0000
,  // measure 32
0010
0000
0100
0000
,  // measure 33
1000
1000
1000
0000
,  // measure 34
1000
0000
0010
0000
,  // measure 35
0100
0000
0001
0000
,  // measure 36
0100
0100
0010
0010
,  // measure 37
1000
0001
1001
1001
,  // measure 38
0001
0010
0100
1000
,  // measure 39
0100
0000
0100
0000
,  // measure 40
1000
0100
0010
0001
,  // measure 41
0100
0100
0100
0000
,  // measure 42
0010
0100
0001
0000
,  // measure 43
0010
0100
1000
0000
,  // measure 44
0001
1000
0010
0100
,  // measure 45
0002
0010
1000
0103
,  // measure 46
0001
0001
0001
0001
,  // measure 47
1000
0001
0001
0001
,  // measure 48
1000
0001
0100
0001
,  // measure 49
1000
0010
1000
0000
,  // measure 50
1000
1000
1000
1000
,  // measure 51
0001
1000
1000
1000
,  // measure 52
0001
1000
0010
1000
,  // measure 53
0001
0010
0100
1000
,  // measure 54
1001
0000
0000
0000
;

//---------------dance-single - Chewphoria~----------------
#NOTES:
     dance-single:
     Chewphoria~:
     Medium:
     7:
     0.427,0.461,0.211,0.248,0.019: // measure 1
0002
0000
0100
0010
,  // measure 2
2003
0000
0100
0010
,  // measure 3
3002
2003
3020
0230
,  // measure 4
0001
0001
0301
0000
0101
0000
0000
0000
,  // measure 5
0001
1000
1100
0011
,  // measure 6
1000
0100
1000
0000
0001
0100
0001
0000
,  // measure 7
0100
0010
1000
0100
,  // measure 8
0001
0010
1000
0100
,  // measure 9
0010
0001
0010
0100
,  // measure 10
1000
0001
0100
0000
0001
1000
0100
0000
,  // measure 11
0010
0010
0100
0100
,  // measure 12
0011
1100
0101
1010
,  // measure 13
0001
1000
0001
0000
1000
0000
0000
0000
,  // measure 14
0000
0000
0000
0000
1000
0100
0000
0000
,  // measure 15
0001
0100
0000
0000
0020
0000
0000
0000
,  // measure 16
0030
0000
0000
0000
1000
0010
0000
0000
,  // measure 17
0001
0010
0000
0000
0200
0000
0000
0300
,  // measure 18
1000
0100
0000
0000
0001
0100
0000
0000
,  // measure 19
0010
0100
0110
0000
,  // measure 20
0010
1000
0100
0000
0010
0001
0100
0000
,  // measure 21
0100
0000
0000
0100
0000
0000
0100
0000
0000
0000
0000
0000
0000
0000
0000
0000
,  // measure 22
0010
1000
0100
0001
,  // measure 23
0010
0001
0100
1000
,  // measure 24
0001
1001
1000
1001
,  // measure 25
1000
0000
0000
0010
0000
0000
0001
0000
1000
0000
0000
0000
0000
0000
0000
0000
,  // measure 26
0001
0010
0100
1000
,  // measure 27
1000
0010
0100
0001
,  // measure 28
0002
0010
0100
1000
,  // measure 29
2003
0100
0001
3010
,  // measure 30
2010
0000
0001
0000
,  // measure 31
0001
0000
0000
0010
0000
0000
0002
0000
,  // measure 32
0000
0000
0000
0000
0000
3003
1000
0010
,  // measure 33
0100
0000
0000
0100
0000
0000
0100
0000
0000
0000
0000
0000
0001
0000
0000
0000
,  // measure 34
0100
0000
0010
2020
0000
0000
0000
0000
,  // measure 35
0000
0000
0000
3030
,  // measure 36
0001
0010
0100
0000
1000
0000
0100
0000
,  // measure 37
0001
0011
1000
1010
,  // measure 38
1000
0010
1000
0100
,  // measure 39
0010
0000
0001
0000
0010
0100
1000
0000
,  // measure 40
0010
0100
0001
0100
,  // measure 41
0010
0100
0010
0000
1000
0000
0001
0000
,  // measure 42
1000
0001
1000
0000
0001
0000
0010
0000
,  // measure 43
0100
1000
0001
1000
,  // measure 44
2100
0001
0010
0100
,  // measure 45
0020
0000
0000
3030
,  // measure 46
1000
1000
0010
0010
,  // measure 47
0100
0100
0001
0001
,  // measure 48
0100
0010
1000
0000
0100
0010
0001
0000
,  // measure 49
2000
3001
0002
1003
,  // measure 50
1000
0010
1000
0000
0001
0000
0100
0000
,  // measure 51
0001
0100
0001
0000
0010
0000
1000
0000
,  // measure 52
0100
1000
0100
0000
0001
0010
0001
0000
,  // measure 53
0012
0000
2000
3003
,  // measure 54
1001
0000
0000
0000
;

//---------------dance-single - Chewphoria~----------------
#NOTES:
     dance-single:
     Chewphoria~:
     Hard:
     11:
     0.584,0.559,0.236,0.186,0.223: // measure 1
1100
0000
0001
0000
0010
0100
1000
0000
,  // measure 2
1010
0000
0100
0000
0001
0100
0010
0000
,  // measure 3
1000
0001
1000
0001
0010
0100
0010
0100
,  // measure 4
0010
0001
0100
1000
0010
1000
0100
0001
,  // measure 5
0020
0230
2300
3001
,  // measure 6
1000
0010
0000
0000
0001
0010
0000
0000
,  // measure 7
1000
0100
0001
0100
1000
0010
0000
0000
,  // measure 8
0010
0100
0001
0000
0010
0100
1000
0000
,  // measure 9
0001
1000
0001
1000
0001
0000
1001
0000
,  // measure 10
1000
0010
1000
0000
0001
0010
0001
0000
,  // measure 11
1000
0100
1000
0000
0001
0100
0001
0000
,  // measure 12
0001
0001
0100
0100
0010
0010
1000
1000
,  // measure 13
0001
0010
0100
1000
0100
0010
0001
0000
,  // measure 14
1100
0000
0101
0000
0100
0100
0100
0000
,  // measure 15
0010
0000
0010
0000
0010
0000
0000
0000
1000
0001
1000
0001
1000
0000
0000
0000
,  // measure 16
0110
0000
1001
0000
0001
0001
0001
0000
,  // measure 17
0010
0000
0010
0000
0010
0000
0000
0000
1000
0001
1000
0001
1000
0000
0000
0000
,  // measure 18
0101
0101
0000
0000
1000
1000
0000
0000
,  // measure 19
1000
0010
0100
0001
0100
0010
0000
0000
,  // measure 20
0010
0010
1000
0000
0001
0001
0010
0000
,  // measure 21
1100
0000
0000
0101
0000
0000
1010
0000
0000
0000
0000
0000
0000
0000
0000
0000
,  // measure 22
0001
0010
0100
0000
1000
0010
0100
0000
,  // measure 23
0001
0100
1000
0100
0001
0010
1000
0010
,  // measure 24
0001
0010
0001
0000
1000
0010
1000
0000
,  // measure 25
0001
0000
0000
0100
0000
0000
0010
0000
1000
0000
0000
0000
1001
0000
0000
0000
,  // measure 26
1000
1000
0000
0001
0010
0100
1000
0100
,  // measure 27
0010
0010
0001
0001
0100
0200
0000
0000
,  // measure 28
0301
1000
0001
1000
0001
1000
0001
1000
,  // measure 29
0010
0100
0010
0100
0010
0100
0010
0100
,  // measure 30
0102
0000
1000
0000
,  // measure 31
0010
0000
0000
0000
0000
1000
0000
0000
0000
0000
0000
0200
0000
0000
0000
0000
,  // measure 32
0000
0000
0000
0000
0003
0000
0310
0100
,  // measure 33
0010
0000
0000
1000
0000
0000
0100
0000
0000
0000
0000
0000
0000
0001
0000
0000
,  // measure 34
0100
0000
0010
2000
0000
0000
0000
0000
,  // measure 35
0000
0000
0000
0000
,  // measure 36
3001
0100
0001
0000
1000
0001
0100
0000
,  // measure 37
0210
0001
0010
0301
,  // measure 38
0010
1000
0100
0000
0010
0001
0100
0000
,  // measure 39
0010
0100
0001
0100
0010
1000
0001
1000
,  // measure 40
0020
0000
0000
0000
0030
0000
0010
0100
,  // measure 41
0010
0000
0000
0001
0000
0000
0010
0000
0000
0000
0000
0000
0100
0000
0000
0000
,  // measure 42
1000
0001
0100
0002
0000
0000
0000
0000
,  // measure 43
0000
0000
0000
0003
,  // measure 44
0100
0010
1000
0000
0100
0010
0001
0000
,  // measure 45
1001
1010
0101
1010
,  // measure 46
1000
0000
0000
1000
0010
0000
0000
0010
0100
0000
0000
0100
0001
0000
0000
0001
,  // measure 47
0010
0000
0000
0010
0100
0000
0000
0100
1000
0000
0000
1000
0100
0000
0000
0100
,  // measure 48
0010
0000
0000
0010
0001
0000
0000
0001
0100
0000
0000
0100
0010
0000
0000
0010
,  // measure 49
0200
0000
0000
0000
0001
0000
0000
0000
1300
0000
0000
0000
0001
0000
0000
0001
,  // measure 50
1000
0000
0000
1000
0010
0000
0000
0010
0100
0000
0000
0100
0001
0000
0000
0001
,  // measure 51
0010
0000
0000
0010
0100
0000
0000
0100
1000
0000
0000
1000
0100
0000
0000
0100
,  // measure 52
0010
0000
0000
0010
0001
0000
0000
0001
0100
0000
0000
0100
0010
0000
0000
0010
,  // measure 53
0200
0320
2030
3002
,  // measure 54
1003
0000
0000
0000
;
