#TITLE:Right Here, Right Now (feat. Kylie Minogue);
#SUBTITLE:;
#ARTIST:Giorgio Moroder;
#TITLETRANSLIT:;
#SUBTITLETRANSLIT:;
#ARTISTTRANSLIT:;
#GENRE:Disco Pop;
#CREDIT:chewi;
#BANNER:Right Here Right Now (feat. Kylie Minogue).png;
#BACKGROUND:Right Here Right Now (feat. Kylie Minogue)-bg.png;
#LYRICSPATH:;
#CDTITLE:cdtitle.png;
#MUSIC:Right Here Right Now (feat. Kylie Minogue).ogg;
#OFFSET:-0.027964;
#SAMPLESTART:50.126999;
#SAMPLELENGTH:15.000000;
#SELECTABLE:YES;
#BPMS:0.000000=115.000000
,64.000000=57.500000
,80.000000=115.000000
;
#STOPS:
;
#BGCHANGES:-0.040=Right Here Right Now (feat. Kylie Minogue).avi=1.000=1=0=0=StretchNoLoop==CrossFade==,
99999=-nosongbg-=1.000=0=0=0 // don't automatically add -songbackground-
;
#KEYSOUNDS:;
#ATTACKS:;

//---------------dance-single - ----------------
#NOTES:
     dance-single:
     :
     Beginner:
     1:
     0.053753,0.061571,0.000000,0.022804,0.000000,33.000000,33.000000,0.000000,2.000000,0.000000,0.000000,0.053753,0.061571,0.000000,0.022804,0.000000,33.000000,33.000000,0.000000,2.000000,0.000000,0.000000:
0000
0000
0000
0000
,
0000
0000
0000
0000
,
0000
0000
0000
0000
,
0000
0000
0000
0000
,
0010
0000
0000
0000
,
0100
0000
0000
0000
,
0010
0000
0000
0000
,
0100
0000
0000
0000
,
1000
0000
0000
0000
,
0001
0000
0000
0000
,
1000
0000
0000
0000
,
0001
0000
0000
0000
,
0010
0000
0000
0000
,
0100
0000
0000
0000
,
0010
0000
0000
0000
,
0100
0000
0000
0000
,
0002
0000
0000
0003
,
0001
0000
0000
0000
,
2000
0000
0000
3000
,
1000
0000
0000
0000
,
1000
0000
0000
0000
,
0100
0000
0000
0000
,
0001
0000
0000
0000
,
0010
0000
0000
0000
,
1000
0000
0000
0000
,
0100
0000
0000
0000
,
0001
0000
0000
0000
,
0100
0000
0000
0000
,
0100
0000
0000
0000
,
0010
0000
0000
0000
,
1000
0000
0000
0000
,
0001
0000
0000
0000
,
0010
0000
0000
0000
,
0100
0000
0000
0000
,
1000
0000
0000
0000
,
0001
0000
0000
0000
,
1000
0000
0000
0000
;

//---------------dance-single - ----------------
#NOTES:
     dance-single:
     :
     Easy:
     4:
     0.135197,0.164191,0.091217,0.045608,0.000000,83.000000,75.000000,8.000000,4.000000,0.000000,0.000000,0.135197,0.164191,0.091217,0.045608,0.000000,83.000000,75.000000,8.000000,4.000000,0.000000,0.000000:
0000
0000
0000
0000
,
0000
0000
0000
0000
,
0000
0000
0000
0000
,
0000
0000
0000
0000
,
1000
0000
0100
0000
,
1000
1000
1000
0000
,
0001
0000
0100
0000
,
0001
0001
0001
0000
,
1000
0000
1001
0000
,
0001
0000
1001
0000
,
0100
0000
0110
0000
,
0010
0000
0110
0000
,
1000
0000
1001
0000
,
0001
0000
1001
0000
,
0010
0000
0110
0000
,
0100
0000
0110
0000
,
0020
0000
0000
0030
,
0002
0000
0000
0003
,
2000
0000
0000
3000
,
0002
0000
0000
0003
,
0100
0001
0100
0001
,
0100
0100
0100
0000
,
0010
0000
1000
0000
,
0100
0000
0001
0000
,
0010
1000
0010
1000
,
0010
0010
0010
0000
,
1000
0000
0100
0000
,
0001
0000
0100
0000
,
0100
0010
0100
0010
,
0100
0100
0100
0000
,
0010
0000
1000
0000
,
0001
0000
1000
0000
,
0001
1000
0001
1000
,
0100
0100
0100
0000
,
0010
0000
0100
0000
,
1000
0000
0001
0000
,
1000
0000
0000
0000
;

//---------------dance-single - ----------------
#NOTES:
     dance-single:
     :
     Medium:
     6:
     0.200352,0.246286,0.136825,0.182434,0.000000,123.000000,111.000000,12.000000,16.000000,0.000000,0.000000,0.200352,0.246286,0.136825,0.182434,0.000000,123.000000,111.000000,12.000000,16.000000,0.000000,0.000000:
0000
0000
0000
0000
,
0000
0000
0000
0000
,
0000
0000
0000
0000
,
0000
0000
0000
0000
,
1000
0000
0000
1000
0000
0000
0000
0000
,
0001
0000
0000
0001
0000
0000
0000
0000
,
0100
0000
0000
0100
0000
0000
0000
0000
,
0010
0000
0000
0010
0000
0000
0000
0000
,
1000
0010
0002
0003
,
0001
0010
1000
0000
,
1000
0100
0002
0003
,
0001
0100
1000
0000
,
0010
0100
0002
0003
,
0010
0100
1000
0000
,
0001
0010
2000
3000
,
1000
0100
0001
0000
,
2002
0000
0000
3000
0200
0000
0000
0003
,
0020
0000
0000
0330
1000
0010
0100
0010
,
0220
0000
0000
0030
0002
0000
0000
0300
,
2000
0000
0000
3003
0001
1000
0001
1000
,
0002
0010
0100
1000
,
0010
0100
0010
0010
,
1003
0001
0100
0010
,
1000
1001
0001
1001
,
2000
0100
0001
0010
,
0100
0010
0001
0100
,
3010
0100
0001
1000
,
0001
1001
1000
1001
,
0012
1000
0100
0010
,
1000
0100
0010
1000
,
1003
0001
1000
0100
,
1000
1001
0001
1001
,
0201
0010
0001
0010
,
0001
0001
0010
0001
,
0301
1000
0100
0010
,
0100
1001
0010
1001
,
0001
0000
0000
0000
;

//---------------dance-single - ----------------
#NOTES:
     dance-single:
     :
     Hard:
     10:
     0.348579,0.410476,0.262249,0.068413,0.051310,214.000000,191.000000,23.000000,6.000000,0.000000,0.000000,0.348579,0.410476,0.262249,0.068413,0.051310,214.000000,191.000000,23.000000,6.000000,0.000000,0.000000:
// measure 0
0000
0000
0000
0000
,  // measure 1
0000
0000
0000
0000
,  // measure 2
0000
0000
0000
0000
,  // measure 3
0000
0000
0000
0000
,  // measure 4
0010
0000
0000
0001
0000
0000
0001
0000
0000
0000
1000
0000
0010
0000
0001
0000
,  // measure 5
0010
0000
0000
1000
0000
0000
1000
0000
0000
0000
0001
0000
0010
0000
1000
0000
,  // measure 6
0010
0000
0000
0001
0000
0000
0001
0000
0000
0000
1000
0000
0010
0000
0001
0000
,  // measure 7
1000
0000
0000
0001
0000
0000
0001
0000
1000
0000
0100
0000
0010
0000
0001
0000
,  // measure 8
0001
0000
0100
0000
0001
1000
1010
0000
,  // measure 9
0100
0001
1000
0000
0001
0010
0100
0000
,  // measure 10
1000
0001
0100
0010
0001
0010
1000
0000
,  // measure 11
0100
0000
0010
0000
0001
0001
0001
0000
,  // measure 12
1000
0000
0010
0000
1000
0001
0101
0000
,  // measure 13
0010
1000
0001
0000
1000
0100
0010
0000
,  // measure 14
0001
1000
0010
0100
1000
0100
0001
0000
,  // measure 15
0010
0000
0100
0000
1000
1000
1000
0000
,  // measure 16
1002
0000
0203
0000
,  // measure 17
0320
0000
0000
0000
0000
0000
0000
0000
1030
0010
1000
0000
0001
0100
0001
0000
,  // measure 18
2001
0000
3200
0000
,  // measure 19
0320
0000
0000
0000
0000
0000
0000
0000
0130
1000
0010
0000
0100
0001
0010
0001
,  // measure 20
1001
1000
0001
0100
0010
0100
0010
0000
,  // measure 21
0010
0100
0001
1000
0010
0100
0010
0000
,  // measure 22
1000
0001
0010
0100
1000
0010
1000
0000
,  // measure 23
1100
0101
1010
0011
,  // measure 24
0010
0100
1000
0100
0010
0001
1000
0000
,  // measure 25
0100
1000
0001
0010
0100
0010
0001
0000
,  // measure 26
0100
0010
1000
0001
0100
0001
1000
0000
,  // measure 27
0101
0011
1100
1010
,  // measure 28
1001
0001
1000
0010
0100
0010
0100
0000
,  // measure 29
0100
0010
1000
0001
0100
0010
0100
0000
,  // measure 30
0001
1000
0100
0010
0001
0100
0001
0000
,  // measure 31
0011
1010
0101
1100
,  // measure 32
0100
0010
0001
0010
0100
1000
0001
0000
,  // measure 33
0010
0001
1000
0100
0010
0100
1000
0000
,  // measure 34
0010
0100
0001
1000
0010
1000
0001
0000
,  // measure 35
1010
1100
0011
0101
,  // measure 36
1001
0000
0000
0000
;
