#TITLE:Ride (feat. Ludacris);
#SUBTITLE:;
#ARTIST:Ciara;
#TITLETRANSLIT:;
#SUBTITLETRANSLIT:;
#ARTISTTRANSLIT:;
#GENRE:Hip-Hop/Rap;
#CREDIT:chewi;
#BANNER:Ride (feat. Ludacris).png;
#BACKGROUND:Ride (feat. Ludacris)-bg.png;
#LYRICSPATH:;
#CDTITLE:cdtitle.png;
#MUSIC:Ride (feat. Ludacris).ogg;
#OFFSET:-0.089000;
#SAMPLESTART:43.241001;
#SAMPLELENGTH:15.000000;
#SELECTABLE:YES;
#DISPLAYBPM:65.000000;
#BPMS:0.000000=65.000000
;
#STOPS:
;
#BGCHANGES:0.000=Ride (feat. Ludacris).avi=1.000=1=0=0=StretchNoLoop==CrossFade==,
99999=-nosongbg-=1.000=0=0=0 // don't automatically add -songbackground-
;
#KEYSOUNDS:;
#ATTACKS:;

//---------------dance-single - ----------------
#NOTES:
     dance-single:
     :
     Beginner:
     1:
     0.075323,0.092270,0.036363,0.027272,0.000000,58.000000,54.000000,4.000000,3.000000,0.000000,0.000000,0.075323,0.092270,0.036363,0.027272,0.000000,58.000000,54.000000,4.000000,3.000000,0.000000,0.000000:
// measure 0
0000
0000
0000
0000
,  // measure 1
0000
0000
0000
0000
,  // measure 2
0020
0030
0010
0000
,  // measure 3
0200
0300
0100
0000
,  // measure 4
1000
0000
1000
0000
,  // measure 5
0100
0000
0100
0000
,  // measure 6
0010
0000
0010
0000
,  // measure 7
0001
0000
0001
0000
,  // measure 8
0001
0000
0001
0000
,  // measure 9
0100
0000
0100
0000
,  // measure 10
0010
0000
0010
0000
,  // measure 11
1000
0000
1000
0000
,  // measure 12
0010
0000
0010
0000
,  // measure 13
0100
0000
0100
0000
,  // measure 14
0001
0000
0001
0000
,  // measure 15
0010
0000
0010
0000
,  // measure 16
1001
0000
0010
0000
,  // measure 17
0000
0000
0100
0000
,  // measure 18
0110
0000
0100
0000
,  // measure 19
1000
0000
0100
0000
,  // measure 20
1001
0000
1000
0000
,  // measure 21
0001
0000
1000
0000
,  // measure 22
0110
0000
0010
0000
,  // measure 23
0100
0000
0010
0000
,  // measure 24
1000
0000
1000
0000
,  // measure 25
0100
0000
0100
0000
,  // measure 26
0001
0000
0001
0000
,  // measure 27
0010
0000
0010
0000
,  // measure 28
2000
3000
1000
0000
,  // measure 29
1000
0000
0000
0000
;

//---------------dance-single - ----------------
#NOTES:
     dance-single:
     :
     Hard:
     8:
     0.219475,0.210903,0.109088,0.072725,0.000000,169.000000,157.000000,12.000000,8.000000,0.000000,0.000000,0.219475,0.210903,0.109088,0.072725,0.000000,169.000000,157.000000,12.000000,8.000000,0.000000,0.000000:
// measure 0
0000
0000
0000
0000
,  // measure 1
0000
0000
0000
0000
,  // measure 2
1000
0100
0010
0000
0001
0000
0011
0000
,  // measure 3
0001
0010
0100
0000
1000
0000
1100
0000
,  // measure 4
1000
0001
1000
0000
0001
1000
0001
0000
,  // measure 5
0100
0010
0100
0010
1000
0010
1000
0000
,  // measure 6
0010
1000
0010
0000
0100
0001
0100
0000
,  // measure 7
0001
1000
0001
1000
0100
0010
0100
0000
,  // measure 8
0010
0010
0010
0000
0100
0000
1001
0000
,  // measure 9
1000
1000
1000
0000
0001
0000
0101
0000
,  // measure 10
0100
0100
0100
0000
0010
0000
0110
0000
,  // measure 11
0010
0010
0010
0000
1000
0000
1010
0000
,  // measure 12
1000
0100
0010
0100
2000
0000
3001
0000
,  // measure 13
0001
0010
0100
0010
0002
0000
1003
0000
,  // measure 14
0001
1000
0010
0100
0020
0000
0130
0000
,  // measure 15
0100
0010
1000
0001
2000
0000
3001
0000
,  // measure 16
1000
0100
0010
0001
1000
0100
1000
0001
,  // measure 17
1001
0100
0010
0100
,  // measure 18
0010
0100
0001
1000
0010
0100
0001
1000
,  // measure 19
1001
1000
0001
0100
,  // measure 20
0100
0010
1000
0001
0100
0010
1000
0001
,  // measure 21
1001
0001
0010
0001
,  // measure 22
0001
0010
0100
0010
0001
0010
0100
1000
,  // measure 23
1100
1000
0001
0000
,  // measure 24
0001
0010
0100
0010
0002
0000
1003
0000
,  // measure 25
1000
0100
0010
0100
2000
0000
3001
0000
,  // measure 26
1000
0001
0100
0010
0200
0000
0310
0000
,  // measure 27
0010
0100
0001
1000
0002
0000
1003
0000
,  // measure 28
1000
0100
0010
0000
0100
0000
1100
0000
,  // measure 29
0101
0000
0000
0000
;

//---------------dance-single - ----------------
#NOTES:
     dance-single:
     :
     Easy:
     4:
     0.101296,0.105452,0.000000,0.063635,0.000000,78.000000,78.000000,0.000000,7.000000,0.000000,0.000000,0.101296,0.105452,0.000000,0.063635,0.000000,78.000000,78.000000,0.000000,7.000000,0.000000,0.000000:
// measure 0
0000
0000
0000
0000
,  // measure 1
0000
0000
0000
0000
,  // measure 2
2000
3100
0100
0000
,  // measure 3
0002
0103
0100
0000
,  // measure 4
0100
0000
0010
0000
,  // measure 5
1000
0000
0001
0000
,  // measure 6
0010
0000
0100
0000
,  // measure 7
1000
0000
0001
0000
,  // measure 8
2000
3100
0100
0000
,  // measure 9
0002
0013
0010
0000
,  // measure 10
2000
3010
0010
0000
,  // measure 11
0002
0103
0100
0000
,  // measure 12
0100
0010
0100
0000
,  // measure 13
0001
1000
0001
0000
,  // measure 14
0010
0100
0010
0000
,  // measure 15
0001
1000
0001
0000
,  // measure 16
1000
0100
1000
0100
,  // measure 17
1000
0000
0001
0000
,  // measure 18
0001
0100
0001
0100
,  // measure 19
0001
0000
1000
0000
,  // measure 20
0100
0010
0100
0010
,  // measure 21
0100
0000
1000
0000
,  // measure 22
0010
0100
0010
0100
,  // measure 23
0010
0000
1000
0000
,  // measure 24
1000
0100
1000
0000
,  // measure 25
0001
0100
0001
0000
,  // measure 26
1000
0010
1000
0000
,  // measure 27
0001
0010
0001
0000
,  // measure 28
0002
1003
0001
0000
,  // measure 29
1000
0000
0000
0000
;

//---------------dance-single - ----------------
#NOTES:
     dance-single:
     :
     Medium:
     6:
     0.151944,0.158177,0.000000,0.000000,0.000000,117.000000,117.000000,0.000000,0.000000,0.000000,0.000000,0.151944,0.158177,0.000000,0.000000,0.000000,117.000000,117.000000,0.000000,0.000000,0.000000,0.000000:
// measure 0
0000
0000
0000
0000
,  // measure 1
0000
0000
0000
0000
,  // measure 2
1000
0100
0001
0100
,  // measure 3
1000
0010
0001
0010
,  // measure 4
0001
0010
0001
0000
0100
0000
0100
0000
,  // measure 5
1000
0010
1000
0000
0010
0000
0010
0000
,  // measure 6
1000
0001
1000
0000
0001
0000
0001
0000
,  // measure 7
0010
0100
0010
0000
0100
0000
0100
0000
,  // measure 8
1000
1000
1000
0000
0000
0000
1000
0000
,  // measure 9
0001
0001
0001
0000
0001
0000
0000
0000
,  // measure 10
0100
0100
0100
0000
0100
0000
0000
0000
,  // measure 11
0010
0010
0010
0000
0010
0000
0000
0000
,  // measure 12
1000
0100
0001
0010
,  // measure 13
1000
0010
0001
0100
,  // measure 14
1000
0010
0001
0100
,  // measure 15
1000
0100
0001
0100
,  // measure 16
0100
0000
0010
0000
0100
0010
0100
0010
,  // measure 17
0100
0100
1000
0000
,  // measure 18
1000
0001
1000
0001
1000
0000
0100
0000
,  // measure 19
0010
0010
0100
0000
,  // measure 20
1000
0100
1000
0100
1000
0000
0001
0000
,  // measure 21
0100
0010
0100
0000
,  // measure 22
1000
0001
1000
0001
1000
0000
0001
0000
,  // measure 23
1000
0100
0001
0000
,  // measure 24
0010
0100
0001
0010
,  // measure 25
1000
0100
0010
1000
,  // measure 26
0100
0010
0100
1000
,  // measure 27
0001
0010
0100
0010
,  // measure 28
0001
0010
1000
0010
,  // measure 29
0001
0000
0000
0000
;

//---------------dance-single - ----------------
#NOTES:
     dance-single:
     :
     Challenge:
     12:
     0.375314,0.342718,0.199995,0.163632,0.436352,289.000000,267.000000,22.000000,18.000000,0.000000,0.000000,0.375314,0.342718,0.199995,0.163632,0.436352,289.000000,267.000000,22.000000,18.000000,0.000000,0.000000:
// measure 0
0000
0000
0000
0000
,  // measure 1
0000
0000
0000
0000
,  // measure 2
1100
0000
0000
1000
0100
0000
0000
0000
0010
0000
0000
0010
0001
0010
0001
0000
,  // measure 3
0101
0000
0000
0001
0100
0000
0000
0000
0100
0000
0000
0100
0010
0100
0010
0000
,  // measure 4
0010
0000
0010
1000
0100
0000
0100
0000
0010
0000
0010
0001
0100
0000
0100
0000
,  // measure 5
0100
0000
0100
0010
1000
0100
0010
0001
0100
0010
1000
0001
1000
0000
1000
0000
,  // measure 6
0001
0000
0001
1000
0100
0000
0100
0000
0010
0000
0010
0100
1000
0000
1000
0000
,  // measure 7
0001
0000
0001
1000
0010
0000
0010
0000
0100
0001
1000
0010
0100
0001
1000
0000
,  // measure 8
0001
1000
0001
1000
0002
0000
0000
0000
0013
0000
1000
0001
1001
0000
0010
0000
,  // measure 9
1100
0000
1000
0001
1000
0000
0001
0000
0101
0000
0001
1000
0001
0000
1000
0000
,  // measure 10
1000
0010
1000
0100
2000
0000
0000
0000
3010
0000
0100
0001
0101
0000
0001
0000
,  // measure 11
0011
0000
0001
0010
0100
0000
1100
0000
0101
0000
0000
0100
0001
0010
0100
1000
,  // measure 12
0002
0000
0000
0000
2003
0000
0000
0000
3001
1000
0010
0100
0010
1000
0001
0010
,  // measure 13
0200
0000
0000
0000
0320
0000
0000
0000
0130
1000
0001
0010
0100
0010
0001
0100
,  // measure 14
0020
0000
0000
0000
0230
0000
0000
0000
0301
1000
0010
1000
0001
0100
0001
1000
,  // measure 15
0002
0000
2003
0000
3100
0110
0100
1100
,  // measure 16
0000
0000
0000
1000
0000
0000
0100
0000
0000
0010
0000
0000
0100
0000
0000
1000
0000
0000
0001
0000
0000
0000
1000
0000
0000
0000
0000
0001
0000
0000
0010
0000
0000
0100
0000
0000
0010
0000
0000
0001
0000
0000
0100
0000
0000
0000
0000
0000
,  // measure 17
0110
0000
0100
0100
0000
0000
0010
0000
1010
0000
0000
1000
0001
0000
0000
0000
,  // measure 18
0001
0010
0100
1000
0001
0000
0000
0000
0101
0000
0000
0100
0010
0100
0010
0100
,  // measure 19
0001
0010
0100
1000
0010
0100
0001
1000
0100
0000
0000
0100
0010
0000
0000
0000
,  // measure 20
0001
1000
0001
1000
0001
0000
0000
0000
1001
0000
0000
0010
0100
1000
0001
0100
,  // measure 21
0101
0000
0000
0001
1000
0000
0000
0100
0010
0000
0001
0010
0100
1000
0001
0000
,  // measure 22
1001
0000
0000
1000
0001
0000
0000
0000
0110
0000
0000
0010
0100
0010
0100
0010
,  // measure 23
1000
0000
0000
1000
0100
0000
0000
0000
1100
0000
0000
0010
1000
0100
0010
0001
,  // measure 24
2000
0000
0000
0000
3002
0000
0000
0000
1003
0001
0100
0010
0100
0001
1000
0100
,  // measure 25
0020
0000
0000
0000
0230
0000
0000
0000
0310
0001
1000
0100
0010
0100
1000
0010
,  // measure 26
0200
0000
0000
0000
0320
0000
0000
0000
1030
0001
0100
0001
1000
0010
1000
0001
,  // measure 27
2000
0000
3002
0000
0013
0110
0010
0011
,  // measure 28
0001
0010
0100
1000
0001
0000
0000
0000
1001
0000
0000
1000
0001
1000
0001
1000
,  // measure 29
0001
0000
0000
0000
;
