#TITLE:Remember You ~unplugged~;
#SUBTITLE:;
#ARTIST:NM & Caramel.S feat.Julie;
#TITLETRANSLIT:;
#SUBTITLETRANSLIT:;
#ARTISTTRANSLIT:;
#GENRE:;
#CREDIT:Chewphoria~;
#MENUCOLOR:;
#METERTYPE:DDR;
#BANNER:Remember You ~unplugged~.png;
#BACKGROUND:Remember You ~unplugged~-bg.png;
#LYRICSPATH:;
#CDTITLE:;
#MUSIC:Remember You ~unplugged~.mp3;
#OFFSET:-5.087;
#SAMPLESTART:42.851;
#SAMPLELENGTH:15.000;
#SELECTABLE:YES;
#LISTSORT:;
#DISPLAYBPM:105.000;
#BPMS:0.000=105.000,144.000=104.650,144.500=101.120,145.000=98.900,145.500=96.770,146.000=94.740,146.500=84.910,147.000=75.000,147.500=51.430,150.333=45.000;
#STOPS:;
#BGCHANGES:;
#ATTACKS:;

//---------------dance-single - Chewphoria~----------------
#NOTES:
     dance-single:
     Chewphoria~:
     Hard:
     6:
     0.274,0.258,0.000,0.000,0.010: // measure 1
1000
0100
0010
0001
0000
1000
0100
0000
,  // measure 2
0010
0000
0001
1000
0000
0100
0010
0000
,  // measure 3
0001
1000
0010
0100
,  // measure 4
0001
0010
0100
1000
0000
0001
0100
0010
,  // measure 5
1000
0100
0010
0001
0000
1000
0100
0000
,  // measure 6
0010
0001
1000
0010
,  // measure 7
0100
0001
0010
0000
0100
1000
0001
0100
,  // measure 8
0010
0000
1000
0000
0100
0010
0100
0000
,  // measure 9
1000
0000
1000
0000
0001
0100
0001
0000
,  // measure 10
1000
0100
0010
0001
1000
1000
0100
0000
,  // measure 11
0010
0000
0001
0000
0100
0010
0100
0000
,  // measure 12
0001
1000
0100
0000
0001
1000
0100
0000
,  // measure 13
0010
0000
0001
0000
1000
0010
0100
0000
,  // measure 14
0001
0000
1000
0000
0100
0010
0001
0000
,  // measure 15
1000
0010
0100
0001
,  // measure 16
1000
0100
0010
0001
,  // measure 17
1000
0000
0000
0000
0010
0000
0100
0001
,  // measure 18
0010
0000
0100
1000
0001
0100
0001
0000
,  // measure 19
1000
0000
0100
0010
0100
1000
0001
0000
,  // measure 20
0100
0000
0010
1000
0010
0100
0001
0000
,  // measure 21
1000
0000
0100
0010
0001
0100
0010
0000
,  // measure 22
1000
0100
1000
0100
0000
0001
0100
0000
,  // measure 23
0010
1000
0010
1000
0000
0001
0100
0000
,  // measure 24
0010
1000
0100
0010
,  // measure 25
0001
1000
0100
0010
0000
0000
0000
0000
,  // measure 26
0000
0001
1000
0100
0000
0000
0000
0000
,  // measure 27
0010
0001
0100
0001
0000
0000
1000
0000
,  // measure 28
0100
0010
0001
0010
0000
0000
0100
0000
,  // measure 29
1000
0001
0100
0000
1000
0001
0100
0000
,  // measure 30
0010
0000
1000
0000
0100
0010
0001
0000
,  // measure 31
1000
0000
1000
0000
0010
0100
0001
0000
,  // measure 32
1000
0000
1000
0100
0000
0010
0001
0000
,  // measure 33
0100
0010
0100
0000
0001
0010
0001
0000
,  // measure 34
1000
0100
1000
0100
0000
0010
0001
0100
,  // measure 35
0010
1000
0000
0000
0001
0000
0001
0000
,  // measure 36
0010
0100
1000
0100
0000
0000
0010
0000
,  // measure 37
0001
0000
0000
0000
0000
0000
1000
0000
0000
0000
0000
0000
0100
0000
0000
0010
0000
0000
0001
0000
0000
0000
0010
0000
,  // measure 38
0000
0000
0000
0000
0000
0000
0000
0000
0100
0000
0000
0000
;

//---------------dance-single - Chewphoria~----------------
#NOTES:
     dance-single:
     Chewphoria~:
     Challenge:
     7:
     0.316,0.298,0.147,0.313,0.024: // measure 1
1000
0010
0100
0001
0000
0001
0010
0100
,  // measure 2
1000
0000
1000
0001
0000
0001
1000
0010
,  // measure 3
0220
0000
0000
0330
,  // measure 4
1000
0100
0001
0010
0000
0010
0100
0000
,  // measure 5
0001
0100
0010
1000
0000
1001
0000
1000
,  // measure 6
0010
0100
0001
0010
0000
0010
0000
0022
,  // measure 7
0000
0000
0033
0000
0001
0010
0100
2000
,  // measure 8
0000
0002
0000
0000
3003
1000
0010
0100
,  // measure 9
0001
0000
0001
0100
0000
0001
0100
0010
,  // measure 10
1000
0000
1000
2002
0000
0000
3003
0000
,  // measure 11
0010
0000
0100
0010
0001
0000
0001
0100
,  // measure 12
0010
0000
1000
0001
0010
0100
1000
0001
,  // measure 13
0200
0000
0310
0000
0010
1000
0010
0100
,  // measure 14
0002
0000
0103
0000
0010
1000
0001
0010
,  // measure 15
0200
0320
0032
0203
,  // measure 16
0320
0000
0000
0000
0000
0000
0000
0000
0000
0000
2030
0000
0000
0000
0000
0000
0000
0000
0000
0000
0000
3002
0000
0000
,  // measure 17
0000
0000
1003
1100
,  // measure 18
0101
0000
0000
0000
0001
0000
0001
0100
,  // measure 19
0010
1000
0001
0000
1000
0000
1100
0000
,  // measure 20
0022
0000
0000
0030
2000
0000
0000
0003
,  // measure 21
3100
0000
0110
0000
0010
0000
0010
1000
,  // measure 22
0010
0000
0100
0200
0000
0300
0000
0000
,  // measure 23
0100
0001
0100
0000
0001
0002
0000
0003
,  // measure 24
0001
1000
0001
0000
0010
0100
0010
0000
,  // measure 25
0010
1000
0100
0002
0000
0000
0000
0000
,  // measure 26
0003
0001
0010
0100
0200
0000
0300
0000
,  // measure 27
1000
0100
0010
1000
0000
0000
0000
0000
,  // measure 28
1000
0100
0001
0010
0000
0000
0000
0000
,  // measure 29
0001
0010
0100
0001
0000
0000
0000
0000
,  // measure 30
0001
0010
0100
1000
0010
0100
0001
0100
,  // measure 31
0210
0000
0301
0000
0010
1000
0001
0010
,  // measure 32
2100
0000
3010
0000
1000
0001
1000
0000
,  // measure 33
0010
0010
0010
0000
0100
0100
0100
0000
,  // measure 34
0001
0000
1000
0000
0100
0000
0020
0000
0000
0000
0031
0000
0000
0011
0000
0000
,  // measure 35
0202
0000
0000
0000
0303
0001
0100
0010
,  // measure 36
0000
0010
0000
2020
0000
0000
0000
3030
,  // measure 37
1001
0000
0000
0000
0100
0000
0000
0000
0010
0000
0000
0000
1000
0000
0000
0100
,  // measure 38
0000
0000
0000
0000
0001
0000
0000
0000
0000
0010
0000
0000
0000
0000
0000
0000
0000
0000
1000
0000
0002
0000
0000
0000
0000
0000
0000
0000
0000
0000
0000
0000
,  // measure 39
0003
0000
0000
0000
;

//---------------dance-single - Chewphoria~----------------
#NOTES:
     dance-single:
     Chewphoria~:
     Medium:
     3:
     0.180,0.203,0.000,0.000,0.000: // measure 1
0001
0000
0000
0000
,  // measure 2
1000
0100
0010
0001
,  // measure 3
0100
0000
0010
0000
,  // measure 4
1000
0001
0100
0000
,  // measure 5
0010
0000
0000
0000
,  // measure 6
1000
0001
0100
0010
,  // measure 7
1000
1000
0001
0001
,  // measure 8
0100
0010
0100
0000
,  // measure 9
0001
0000
0000
1000
0100
0000
0000
0000
,  // measure 10
0010
0000
0000
0001
1000
0000
0000
0000
,  // measure 11
0010
0000
0000
0100
0001
0000
0000
0000
,  // measure 12
0010
0000
0000
0100
1000
0000
0000
0000
,  // measure 13
0001
0000
0000
0100
0010
0000
0000
0000
,  // measure 14
1000
0000
0000
0001
0100
0000
0000
0000
,  // measure 15
0010
0000
0000
1000
0100
0000
0000
0000
,  // measure 16
0010
0000
0001
0000
,  // measure 17
0100
0000
0000
0000
,  // measure 18
0010
0000
1000
0000
0001
0010
0001
0000
,  // measure 19
1000
0000
0100
0000
0010
0001
0010
0000
,  // measure 20
0100
0000
1000
0000
0001
0100
0001
0000
,  // measure 21
0010
0000
0100
0000
1000
0010
1000
0000
,  // measure 22
0001
0100
0010
0000
,  // measure 23
1000
0100
0010
0000
,  // measure 24
0001
0001
1000
1000
,  // measure 25
0100
0010
0001
0100
,  // measure 26
0000
0010
0100
0010
0000
0000
0000
0000
,  // measure 27
0001
0001
1000
0100
,  // measure 28
1000
1000
0001
0100
,  // measure 29
0010
0010
0100
0100
,  // measure 30
0001
0001
0010
0100
,  // measure 31
1000
0001
0100
1000
,  // measure 32
0001
1000
0100
0001
,  // measure 33
1000
0100
0010
0001
,  // measure 34
0100
0010
1000
0001
,  // measure 35
0010
0100
0010
0000
0001
0000
0100
0000
,  // measure 36
0010
0010
1000
1000
,  // measure 37
0100
0000
0000
0000
0010
0000
0000
0001
,  // measure 38
0000
0000
0100
0000
0000
0010
0000
0000
;

//---------------dance-single - Chewphoria~----------------
#NOTES:
     dance-single:
     Chewphoria~:
     Easy:
     1:
     0.056,0.074,0.000,0.000,0.000: // measure 1
0001
0000
0000
0000
,  // measure 2
1000
0000
0000
0000
,  // measure 3
0010
0000
0000
0000
,  // measure 4
0010
0000
0000
0000
,  // measure 5
1000
0000
0000
0000
,  // measure 6
0001
0000
0000
0000
,  // measure 7
0100
0000
0000
0000
,  // measure 8
0010
0000
0000
0000
,  // measure 9
1000
0000
0000
0000
,  // measure 10
1000
0000
0000
0000
,  // measure 11
0100
0000
0000
0000
,  // measure 12
0010
0000
0000
0000
,  // measure 13
0001
0000
0000
0000
,  // measure 14
0001
0000
0000
0000
,  // measure 15
0100
0000
0000
0000
,  // measure 16
0100
0000
0000
0000
,  // measure 17
0010
0000
0000
0000
,  // measure 18
1000
0000
1000
0000
,  // measure 19
0001
0000
0000
0000
,  // measure 20
0010
0000
0010
0000
,  // measure 21
0100
0000
0000
0000
,  // measure 22
0001
0000
0000
0000
,  // measure 23
0001
0000
0000
0000
,  // measure 24
1000
0000
0000
0000
,  // measure 25
1000
0000
0000
0000
,  // measure 26
0000
0100
0000
0000
,  // measure 27
0010
0000
0000
0000
,  // measure 28
0001
0000
0000
0000
,  // measure 29
1000
0000
0000
0000
,  // measure 30
0100
0000
0000
0000
,  // measure 31
0000
0000
0000
0000
,  // measure 32
0001
0000
0000
0000
,  // measure 33
1000
0000
0000
0000
,  // measure 34
0100
0000
0000
0000
,  // measure 35
0010
0000
0000
0000
,  // measure 36
0100
0000
0000
0000
,  // measure 37
0010
0000
0100
0000
,  // measure 38
0000
0000
0000
0000
0000
0010
0000
0000
;

//---------------dance-single - Chewphoria~----------------
#NOTES:
     dance-single:
     Chewphoria~:
     Beginner:
     1:
     0.056,0.074,0.000,0.000,0.000:
0001
0000
0000
0000
,
1000
0000
0000
0000
,
0010
0000
0000
0000
,
0010
0000
0000
0000
,
1000
0000
0000
0000
,
0001
0000
0000
0000
,
0100
0000
0000
0000
,
0010
0000
0000
0000
,
1000
0000
0000
0000
,
1000
0000
0000
0000
,
0100
0000
0000
0000
,
0010
0000
0000
0000
,
0001
0000
0000
0000
,
0001
0000
0000
0000
,
0100
0000
0000
0000
,
0100
0000
0000
0000
,
0010
0000
0000
0000
,
1000
0000
1000
0000
,
0001
0000
0000
0000
,
0010
0000
0010
0000
,
0100
0000
0000
0000
,
0001
0000
0000
0000
,
0001
0000
0000
0000
,
1000
0000
0000
0000
,
1000
0000
0000
0000
,
0000
0100
0000
0000
,
0010
0000
0000
0000
,
0001
0000
0000
0000
,
1000
0000
0000
0000
,
0100
0000
0000
0000
,
0000
0000
0000
0000
,
0001
0000
0000
0000
,
1000
0000
0000
0000
,
0100
0000
0000
0000
,
0010
0000
0000
0000
,
0100
0000
0000
0000
,
0010
0000
0100
0000
,
0000
0000
0000
0000
0000
0010
0000
0000
;
