#TITLE:Remain;
#SUBTITLE:;
#ARTIST:ZERO+ZIBA;
#TITLETRANSLIT:;
#SUBTITLETRANSLIT:;
#ARTISTTRANSLIT:;
#GENRE:;
#CREDIT:Chewi☆;
#MENUCOLOR:#FFFFFF;
#METERTYPE:DDR X;
#BANNER:Remain.png;
#BACKGROUND:Remain-bg.png;
#LYRICSPATH:;
#CDTITLE:;
#MUSIC:Remain.mp3;
#OFFSET:-0.437;
#SAMPLESTART:32.042;
#SAMPLELENGTH:15.000;
#SELECTABLE:YES;
#LISTSORT:;
#BPMS:0.000=150.000,64.000=75.000,72.000=150.000,128.000=37.500,130.000=75.000,146.000=150.000,174.000=37.500,175.000=300.000,239.000=150.000,241.000=300.000,245.000=150.000,247.000=300.000,251.000=150.000,253.000=300.000,257.000=150.000,259.000=300.000,299.000=150.000;
#STOPS:;
#BGCHANGES:;
#ATTACKS:;

//---------------dance-single - Chewi----------------
#NOTES:
     dance-single:
     Chewi:
     Hard:
     15:
     0.685,1.000,0.237,0.295,0.540:
0000
0000
0000
0000
,
0000
0000
0000
0000
,
0000
0000
0000
0000
,
0000
0000
0000
0000
,
2002
0000
0000
0000
,
0000
0000
0000
0000
,
0000
0000
0000
0000
,
0000
0000
0000
3003
,
1000
0000
0100
0000
0010
0000
0100
0000
1000
0010
1000
0000
0100
0000
1000
0000
,
0010
0000
0100
0000
0001
0000
0010
0000
0100
0010
0100
0000
0010
0000
0001
0000
,
0100
0000
0010
0000
1000
0000
0001
0000
1000
0010
0100
0000
0001
0000
0010
0000
,
0100
0000
1000
0000
0010
0000
1000
0000
0100
0010
0001
0000
0010
0000
0100
0000
,
1000
0001
1000
0000
0010
0000
1000
0000
0100
1000
0100
0000
1000
0000
0010
0000
,
1000
0010
1000
0000
0010
0000
0100
0000
0010
1000
0010
0000
1000
0000
0100
0000
,
0010
0001
0010
0000
1000
0001
1000
0000
0010
1000
0010
0000
0100
0001
0100
0000
,
1000
0100
1000
0100
0010
0001
0010
0001
0100
0001
0100
0001
0100
0010
1000
0001
,
2000
3020
0230
2300
3020
0032
0203
0320
,
0032
0000
0203
0000
0320
0000
2030
0000
3002
0000
2003
0000
3002
0000
0010
0010
,
0023
0000
0000
0000
0000
0000
0000
0000
0000
0000
0000
0000
0000
0000
0000
0000
0000
0000
0000
0000
0000
0000
0000
0000
0000
0000
0000
0000
0000
0000
0000
0000
0000
0000
0000
0000
0000
0000
0000
0000
0000
0000
0000
0000
0000
0000
0000
0000
0031
0000
0000
0000
0000
0000
0000
0000
0000
0000
0000
0000
0000
0000
0000
0010
0000
0000
0000
0000
0000
0000
0000
0000
0000
0000
0000
0000
0000
0000
0100
0000
0000
0000
0000
0000
0000
0000
0000
0000
0000
0000
0000
0000
1000
0000
0000
0000
0000
0000
0000
0000
0000
0000
0000
0000
0000
0000
0000
0000
0000
0000
0000
0000
0000
0000
0000
0000
0000
0000
0000
0000
0000
0000
0000
0000
0000
0000
0000
0000
0000
0000
0000
0000
0000
0000
0000
0000
0000
0000
0000
0000
0000
0000
0000
0000
0000
0000
0000
0000
0000
0000
0000
0000
0000
0000
0000
0000
0000
0000
0000
0000
0000
0000
0000
0000
0000
0000
0000
0000
0000
0000
0000
0000
0000
0000
0000
0000
0000
0000
0000
0000
0000
0000
0000
0000
0000
0000
0000
0000
0000
0000
0000
0000
,
0100
0000
0000
0010
0000
0000
0000
0100
0000
0000
0000
1000
0000
0000
0000
0010
0000
0000
0000
0100
0000
0000
0000
0000
0010
0000
0000
0000
0000
0000
0000
0000
0010
0000
0000
0000
0000
0000
0000
0000
0010
0000
0000
0000
0000
0000
0000
0000
,
1010
1010
1100
0000
0000
0011
0011
0000
,
1001
0100
1001
0010
0110
0000
0000
0000
,
0100
0010
0001
0010
0100
1000
0010
0100
0001
0000
0010
0000
1000
0000
0100
0000
,
0010
0000
0000
0000
0000
0000
0000
0000
0001
0000
0000
0000
0000
0000
0000
0000
0010
0000
0000
0000
0000
0000
0000
0000
0100
0000
0000
0000
0000
0000
0000
0000
1100
0000
0000
0000
0000
0000
0000
0000
0000
0000
0000
1010
0000
0000
0000
0000
0000
0000
0000
0000
0000
0000
0000
1100
0000
0000
0000
0000
0000
0000
0000
0000
,
0100
0000
0010
0000
0001
0010
0100
1000
0010
0000
0100
0000
0010
1000
0010
1000
,
0001
0100
0001
0000
0100
0010
0100
0000
0010
0100
0010
0000
0010
1000
0010
0000
,
0001
0010
0100
1000
0010
0100
0001
0000
0020
0000
0230
0000
2300
0000
3020
0000
,
0130
0010
1000
0010
0100
0001
0010
0100
2000
0000
3020
0000
0230
0000
0302
0000
,
0013
0100
0000
1000
0010
0000
1000
0001
0000
0010
0100
0000
1000
0100
0000
0100
,
0011
0110
1100
1001
0101
0000
0000
0000
,
1000
0100
0010
0001
0010
0100
1000
0010
0200
0000
0000
0000
0000
0000
0000
0000
,
0310
0100
0001
0100
0010
1000
0100
0010
0002
0000
0000
0000
0000
0000
0000
0000
,
1003
0000
0200
0302
,
0023
2030
3200
0320
,
0230
0000
0000
0000
0000
0000
2300
0000
0000
0000
0000
0000
3001
0010
0100
1000
0010
0100
0001
0100
0010
1000
0010
1000
,
0100
1000
0100
0010
0001
1000
0010
1000
0100
0010
0100
1000
0010
0100
0001
0010
0100
1000
0010
0100
0001
0010
0100
1000
,
0010
1000
0010
1000
0010
1000
0001
1000
0001
1000
0001
1000
0001
0000
0000
0010
0000
0000
0100
0000
0000
1000
0000
0000
,
0010
0000
1000
0000
0100
0000
0010
0000
0001
0010
0001
0000
0011
0000
1000
0000
,
1000
0100
1000
0000
1100
0000
1000
0000
1000
0010
0100
0001
0100
0000
0010
0000
,
1000
0100
0010
0001
0010
0000
0100
0000
1000
0100
1000
0000
0001
0010
0001
0000
,
0100
1000
0010
0000
0100
0001
0010
0000
0010
0000
0001
0000
0010
0000
0100
0000
,
1000
0000
0010
0000
0100
0000
0001
0000
0001
0100
0010
0000
0110
0000
1000
0000
,
1000
0100
0010
0000
0011
0000
0001
0000
0001
0100
0010
1000
0010
0100
0001
0000
,
0001
0010
0100
1000
0100
0000
0010
0000
0011
0000
0000
0000
1000
0000
0000
0000
,
0010
0000
0100
0000
0010
0000
1000
0010
,
1000
0000
0001
0010
0001
0000
0001
0000
,
0010
0000
0100
0000
1000
0000
1000
0100
,
1000
0000
0010
1000
0010
0000
0010
0000
,
0100
0000
0001
0000
1000
0000
0100
0010
,
0001
0000
0010
0100
1000
0000
0010
0100
,
0001
1000
0001
1000
0001
1000
0001
0000
,
0000
1001
0000
0000
1010
0000
1000
0000
,
0010
0000
0100
0000
0010
0000
1000
0010
,
1000
0000
1000
0001
0010
0000
0001
0000
,
0010
0000
0100
0000
1000
0000
1000
0100
,
1000
0000
0100
0010
0001
0000
1000
0000
,
0001
0000
0100
0000
0010
0000
0100
0001
,
0100
0000
0010
1000
0010
0000
0001
0000
,
0010
0100
1000
1001
,
0000
0000
0000
0000
0000
0000
0000
0000
0000
0000
0000
0000
1000
0100
0010
0001
,
1000
0100
0010
0001
0010
0000
0000
0000
0100
0000
0000
0000
1000
0000
0000
0000
,
0010
0000
0000
0000
0100
0010
0100
0010
1000
0100
0010
0001
0010
0000
0000
0000
,
0001
0000
0000
0000
1000
0000
0000
0000
0100
0000
0000
0000
1000
0010
1000
0010
,
0100
0001
0010
0100
1000
0000
0000
0000
0100
0000
0000
0000
0010
0000
0000
0000
,
0100
0000
0000
0000
1000
0001
0100
0010
1000
0100
0010
0001
0010
0000
0000
0000
,
0100
1000
0010
0100
,
0001
0000
0010
0000
0100
0000
1000
0010
,
1000
0000
0010
0100
0001
0000
0010
0000
,
0001
0000
0100
0000
0010
0000
0100
0001
,
0100
0000
0010
1000
0010
0000
1000
0000
,
0010
0000
0100
0000
0001
0000
0001
0010
,
0100
0000
0010
0100
1000
0000
0010
1000
,
0001
0000
0010
0100
1000
0000
1100
0000
,
0000
0011
0000
0000
0000
0000
1001
0000
0000
0000
0000
0000
0000
0000
0000
0000
,
0000
0000
0000
0110
;

//---------------dance-single - Chewi----------------
#NOTES:
     dance-single:
     Chewi:
     Medium:
     11:
     0.403,0.979,0.098,0.262,0.000: // measure 1
0000
0000
0000
0000
,  // measure 2
0000
0000
0000
0000
,  // measure 3
0000
0000
0000
0000
,  // measure 4
0000
0000
0000
0000
,  // measure 5
2002
0000
0000
0000
,  // measure 6
0000
0000
0000
0000
,  // measure 7
0000
0000
0000
0000
,  // measure 8
0000
0000
0000
3003
,  // measure 9
1000
0000
0100
0000
0010
0001
0100
0000
,  // measure 10
0001
0000
0100
0000
0010
1000
0100
0000
,  // measure 11
0010
0000
0100
0000
1000
0001
0100
0000
,  // measure 12
0010
0000
0100
0000
0001
1000
0100
0000
,  // measure 13
1000
0100
1000
0000
0100
0010
0100
0000
,  // measure 14
0010
0001
0010
0000
0001
0100
0001
0000
,  // measure 15
0100
0010
0100
0000
0010
0000
1000
0000
,  // measure 16
0001
0010
0100
0000
1000
0000
0010
0000
,  // measure 17
2000
3020
0230
0302
0023
0230
2300
3020
,  // measure 18
2030
3002
0203
0320
2030
3002
2003
0010
,  // measure 19
3001
0010
0100
1000
0020
0000
0000
0000
,  // measure 20
1030
0100
0010
0001
0010
0000
0001
0000
,  // measure 21
1000
0100
1000
0000
0000
1000
0100
0000
,  // measure 22
1000
1001
0101
0000
,  // measure 23
0200
0000
0000
0000
0310
0100
0010
0100
,  // measure 24
0010
1000
0100
0010
0001
0000
0010
0000
,  // measure 25
0100
1000
0010
0000
1000
0001
1000
0000
,  // measure 26
0001
0100
0010
1000
0001
0000
0100
0000
,  // measure 27
0010
0100
0010
0100
0020
0000
1030
0000
,  // measure 28
1000
0100
0010
0001
0020
0000
0031
0000
,  // measure 29
0011
1100
1001
0101
,  // measure 30
0100
0010
1000
0010
2000
0000
0000
0000
,  // measure 31
3010
1000
0001
0010
0002
0000
0000
0000
,  // measure 32
1003
0001
0010
0100
2000
0000
0000
0000
,  // measure 33
3001
0000
0020
0230
,  // measure 34
2300
3020
0230
0320
,  // measure 35
2030
0000
3002
0000
1003
0100
0010
0001
,  // measure 36
1000
0100
1000
0100
1000
0010
0100
0001
,  // measure 37
0100
0001
0100
0001
0100
0000
0100
0000
,  // measure 38
0100
0010
1000
0000
1000
0100
1000
0000
,  // measure 39
0100
0010
0100
0000
0010
0001
0010
0000
,  // measure 40
0001
0100
0001
0000
0100
0000
0010
0000
,  // measure 41
1001
1001
1000
0100
,  // measure 42
0010
0100
1000
0000
1000
0010
1000
0000
,  // measure 43
0100
0001
0100
0000
0010
0100
0010
0000
,  // measure 44
1000
0001
1000
0000
1001
0000
0001
0000
,  // measure 45
0010
0100
1000
0010
,  // measure 46
1000
0100
0000
1000
,  // measure 47
0010
0100
0001
0010
,  // measure 48
0100
0010
0000
0001
,  // measure 49
1000
0010
0100
0001
,  // measure 50
0100
0010
0000
1000
,  // measure 51
0100
0010
0100
1000
,  // measure 52
0000
1000
0000
0000
1000
0000
0010
0000
,  // measure 53
0100
0001
0100
0010
,  // measure 54
1000
0001
0000
1000
,  // measure 55
0010
0100
0001
0010
,  // measure 56
0100
0010
0000
0001
,  // measure 57
0010
0100
1000
0010
,  // measure 58
1000
0100
0000
1000
,  // measure 59
0001
0100
0010
0110
,  // measure 60
0000
0000
0000
0000
0000
0000
0100
0010
,  // measure 61
1000
0010
0100
0000
0000
0000
0001
0000
,  // measure 62
0000
0000
0010
0100
1000
0010
1000
0000
,  // measure 63
0000
0000
0100
0000
0000
0000
0010
0100
,  // measure 64
1000
0010
0100
0000
0000
0000
0001
0000
,  // measure 65
0000
0000
0100
0010
0100
0001
0010
0000
,  // measure 66
0000
0100
0000
0010
,  // measure 67
0001
0010
0100
1000
,  // measure 68
0010
1000
0000
0100
,  // measure 69
1000
0001
0000
0100
,  // measure 70
0001
1000
0000
0010
,  // measure 71
0100
0001
1000
0100
,  // measure 72
0010
0001
0000
0010
,  // measure 73
0100
1000
0000
0010
,  // measure 74
0000
0100
0000
0000
0001
0000
0000
0000
,  // measure 75
0000
0000
0000
0101
;

//---------------dance-single - Chewi----------------
#NOTES:
     dance-single:
     Chewi:
     Beginner:
     3:
     0.133,0.214,0.041,0.098,0.000: // measure 1
0000
0000
0000
0000
,  // measure 2
0000
0000
0000
0000
,  // measure 3
0000
0000
0000
0000
,  // measure 4
0000
0000
0000
0000
,  // measure 5
2002
0000
0000
0000
,  // measure 6
0000
0000
0000
0000
,  // measure 7
0000
0000
0000
0000
,  // measure 8
0000
0000
0000
3003
,  // measure 9
1000
0000
1000
0000
,  // measure 10
0010
0000
0010
0000
,  // measure 11
1000
0000
0100
0000
,  // measure 12
1000
0000
0010
0000
,  // measure 13
1000
0000
1000
0000
,  // measure 14
1000
0000
1000
0000
,  // measure 15
0100
0000
1000
0000
,  // measure 16
0010
0000
1000
0000
,  // measure 17
2000
0000
0000
3000
,  // measure 18
0002
0000
0000
0003
,  // measure 19
1000
0000
0010
0000
,  // measure 20
0001
0000
0001
0000
,  // measure 21
0100
0000
0100
0000
,  // measure 22
0010
0000
1000
0000
,  // measure 23
2002
0000
0000
3003
,  // measure 24
0001
0000
0010
0000
,  // measure 25
0001
0000
0100
0000
,  // measure 26
0001
0000
0100
0000
,  // measure 27
0010
0000
0010
0000
,  // measure 28
0100
0000
0100
0000
,  // measure 29
0001
0000
0010
0000
,  // measure 30
0001
0000
0001
0000
,  // measure 31
0010
0000
1000
0000
,  // measure 32
0010
0000
0001
0000
,  // measure 33
1001
0000
2000
0000
,  // measure 34
0000
3000
0002
0000
,  // measure 35
0000
0003
0010
0000
,  // measure 36
0010
0000
1000
0000
,  // measure 37
0100
0000
0100
0000
,  // measure 38
0100
0000
0010
0000
,  // measure 39
0010
0000
0001
0000
,  // measure 40
0001
0000
1000
0000
,  // measure 41
0010
0000
0010
0000
,  // measure 42
0010
0000
1000
0000
,  // measure 43
1000
0000
1000
0000
,  // measure 44
0100
0000
1001
0001
,  // measure 45
0000
0000
0000
1000
,  // measure 46
0000
0000
0000
1000
,  // measure 47
0000
0000
0000
0100
,  // measure 48
0000
0000
0000
1000
,  // measure 49
0000
0000
0000
0001
,  // measure 50
0000
0000
0000
0001
,  // measure 51
0000
0000
0000
0100
,  // measure 52
0000
0000
0000
0010
,  // measure 53
0000
0000
0000
0100
,  // measure 54
0000
0000
0000
0010
,  // measure 55
0000
0000
0000
0001
,  // measure 56
0000
0000
0000
0100
,  // measure 57
0000
0000
0000
0010
,  // measure 58
0000
0000
0000
0100
,  // measure 59
0000
0000
0000
0010
,  // measure 60
0000
0000
0000
0200
,  // measure 61
0000
0300
0000
0000
,  // measure 62
0000
0020
0000
0030
,  // measure 63
0000
0000
0000
0200
,  // measure 64
0000
0300
0000
0000
,  // measure 65
0000
0020
0000
0030
,  // measure 66
0000
0000
0000
1000
,  // measure 67
0000
0000
0000
0100
,  // measure 68
0000
0000
0000
1000
,  // measure 69
0000
0000
0000
0100
,  // measure 70
0000
0000
0000
1000
,  // measure 71
0000
0000
0000
0010
,  // measure 72
0000
0000
0000
0100
,  // measure 73
0000
0000
0000
0001
,  // measure 74
0000
0000
0000
0000
,  // measure 75
0000
0000
0000
1001
;

//---------------dance-single - Chewi----------------
#NOTES:
     dance-single:
     Chewi:
     Easy:
     6:
     0.234,0.336,0.033,0.090,0.000: // measure 1
0000
0000
0000
0000
,  // measure 2
0000
0000
0000
0000
,  // measure 3
0000
0000
0000
0000
,  // measure 4
0000
0000
0000
0000
,  // measure 5
2002
0000
0000
0000
,  // measure 6
0000
0000
0000
0000
,  // measure 7
0000
0000
0000
0000
,  // measure 8
0000
0000
0000
3003
,  // measure 9
1000
0100
1000
0100
,  // measure 10
0010
0001
0010
0001
,  // measure 11
1000
0001
0100
0010
,  // measure 12
1000
0001
0010
0100
,  // measure 13
1000
0100
1000
0100
,  // measure 14
1000
0010
1000
0010
,  // measure 15
0100
0010
1000
0001
,  // measure 16
0010
0100
1000
0001
,  // measure 17
2000
0001
0010
3001
,  // measure 18
0002
1000
0010
1003
,  // measure 19
1000
0100
0010
0000
,  // measure 20
0001
0001
0001
0001
,  // measure 21
0100
0010
0100
0001
,  // measure 22
0010
0100
1000
0010
,  // measure 23
2000
0000
0000
0000
,  // measure 24
3001
1000
0010
0100
,  // measure 25
0001
1000
0100
0010
,  // measure 26
0001
0010
0100
1000
,  // measure 27
0010
0100
0010
1000
,  // measure 28
0100
0010
0100
1000
,  // measure 29
0001
0100
0010
1000
,  // measure 30
0001
1000
0001
0000
,  // measure 31
0010
0100
1000
0000
,  // measure 32
0010
0100
0001
0000
,  // measure 33
1001
0000
2000
0010
,  // measure 34
0010
3010
0002
0010
,  // measure 35
0010
0013
0010
0100
,  // measure 36
0010
0100
1000
0010
,  // measure 37
0100
0001
0100
0100
,  // measure 38
0100
0100
0010
1000
,  // measure 39
0010
1000
0001
0001
,  // measure 40
0001
0001
1000
0100
,  // measure 41
0010
0001
0010
0100
,  // measure 42
0010
0100
1000
0001
,  // measure 43
1000
0001
1000
0010
,  // measure 44
0100
0001
1001
0001
,  // measure 45
0000
0000
0000
1000
,  // measure 46
0000
0000
0000
1000
,  // measure 47
0000
0010
0000
0100
,  // measure 48
0000
0001
0000
1000
,  // measure 49
0000
0000
0000
0001
,  // measure 50
0000
0000
0000
0001
,  // measure 51
0000
0010
0000
0100
,  // measure 52
0000
1000
0000
0010
,  // measure 53
0000
0000
0000
0100
,  // measure 54
0000
0000
0000
0010
,  // measure 55
0000
0100
0000
0001
,  // measure 56
0000
1000
0000
0100
,  // measure 57
0000
0000
0000
0010
,  // measure 58
0000
0000
0000
0100
,  // measure 59
0000
1000
0000
0010
,  // measure 60
0000
0000
0000
0200
,  // measure 61
0000
0301
0000
0010
,  // measure 62
0000
0200
0000
1300
,  // measure 63
0000
0010
0000
0200
,  // measure 64
0000
0310
0000
1000
,  // measure 65
0000
0002
0000
1003
,  // measure 66
0000
0001
0000
0010
,  // measure 67
0000
0100
0000
1000
,  // measure 68
0000
0000
0000
1000
,  // measure 69
0000
0010
0000
0100
,  // measure 70
0000
0010
0000
1000
,  // measure 71
0000
0001
0000
0010
,  // measure 72
0000
0000
0000
0100
,  // measure 73
0000
0010
0000
0001
,  // measure 74
0000
0000
0000
0000
,  // measure 75
0000
0000
0000
1001
;
