#VERSION:0.81;
#TITLE:Reflection;
#SUBTITLE:;
#ARTIST:少女時代;
#TITLETRANSLIT:;
#SUBTITLETRANSLIT:;
#ARTISTTRANSLIT:Girls' Generation;
#GENRE:;
#ORIGIN:;
#CREDIT:chewi;
#BANNER:Reflection.png;
#BACKGROUND:Reflection-bg.png;
#PREVIEWVID:;
#JACKET:Reflection-jacket.png;
#CDIMAGE:;
#DISCIMAGE:;
#LYRICSPATH:;
#CDTITLE:cdtitle.png;
#MUSIC:Reflection.mp3;
#OFFSET:-1.964956;
#SAMPLESTART:44.219002;
#SAMPLELENGTH:15.000000;
#SELECTABLE:YES;
#BPMS:0.000=125.000;
#STOPS:;
#DELAYS:;
#WARPS:;
#TIMESIGNATURES:0.000=4=4;
#TICKCOUNTS:0.000=4;
#COMBOS:0.000=1;
#SPEEDS:0.000=1.000=0.000=0;
#SCROLLS:0.000=1.000;
#FAKES:;
#LABELS:0.000=Song Start;
#BGCHANGES:-3.930=Reflection.avi=1.000=0=0=1=====,
99999=-nosongbg-=1.000=0=0=0 // don't automatically add -songbackground-
;
#KEYSOUNDS:;
#ATTACKS:
;

//---------------dance-single - ----------------
#NOTEDATA:;
#CHARTNAME:;
#STEPSTYPE:dance-single;
#DESCRIPTION:;
#CHARTSTYLE:;
#DIFFICULTY:Hard;
#METER:9;
#RADARVALUES:0.330028,0.286263,0.288774,0.050222,0.000000,157.000000,23.000000,4.000000,0.000000,0.000000,0.000000,0.000000,0.000000,0.330028,0.286263,0.288774,0.050222,0.000000,157.000000,23.000000,4.000000,0.000000,0.000000,0.000000,0.000000,0.000000;
#CREDIT:;
#NOTES:
0000
0000
0000
0000
,
0000
0000
0000
0000
,
0000
0000
0000
0000
,
0000
0000
0000
0000
,
1000
0001
0100
0010
,
1000
1100
0001
0101
,
1000
0001
0010
0100
,
1000
1100
0001
0101
,
0100
0000
0100
0000
0010
0010
0010
0000
,
1000
0001
1000
1100
,
0001
0000
0001
0000
1000
1000
1000
0000
,
0001
1000
0001
0011
,
0010
0100
0010
0000
0100
0000
1000
0000
,
0100
0010
0100
0000
0010
0000
0001
0000
,
1000
0100
1000
0000
0001
0000
0100
0000
,
1000
0100
1000
0000
0001
0000
0100
0000
,
0100
0010
1000
0000
0001
0000
0001
0000
,
1000
1100
0001
0101
,
0100
0010
1000
0000
0001
0000
1000
0000
,
0001
0011
1000
1010
,
0001
1000
0001
0000
0100
0000
0100
0000
,
0001
1000
0001
0000
0100
0000
0100
0000
,
0010
0110
0100
0110
,
1000
0000
0001
0000
1000
0100
0010
0001
,
0010
0011
0100
1100
,
1000
0000
0001
0000
1000
0001
0100
0010
,
0100
0110
0010
0110
,
1000
0001
0100
0000
0001
1000
0010
0000
,
0001
1001
1000
1001
,
1000
0000
0100
0000
0010
0001
1000
0100
,
0010
0100
1000
0001
,
2002
0000
0000
3003
,
1000
0010
0100
0000
0001
0100
0010
0000
,
2002
0000
0000
3003
,
1000
0100
1000
0001
0010
0000
0100
0000
,
1000
0100
1000
0100
0010
0000
0100
0000
,
1000
0001
1000
0000
0001
0000
0101
0000
,
1000
0001
1000
0000
1000
0000
1010
0000
,
1001
0000
0000
0000
;

//---------------dance-single - ----------------
#NOTEDATA:;
#CHARTNAME:;
#STEPSTYPE:dance-single;
#DESCRIPTION:;
#CHARTSTYLE:;
#DIFFICULTY:Medium;
#METER:6;
#RADARVALUES:0.313885,0.286263,0.376662,0.100443,0.000000,137.000000,30.000000,8.000000,0.000000,0.000000,0.000000,0.000000,0.000000,0.313885,0.286263,0.376662,0.100443,0.000000,137.000000,30.000000,8.000000,0.000000,0.000000,0.000000,0.000000,0.000000;
#CREDIT:;
#NOTES:
0000
0000
0000
0000
,
0000
0000
0000
0000
,
0000
0000
0000
0000
,
0000
0000
0000
0000
,
2000
3200
0320
0032
,
1003
1000
1100
0000
,
0002
0203
0320
2030
,
3010
0010
0110
0000
,
0010
0010
1000
1000
,
0010
1000
0010
0000
1000
0000
1001
0000
,
0010
0010
0001
0001
,
0010
0001
0010
0000
0001
0000
1001
0000
,
1000
0100
0010
0001
,
1000
0100
1000
0000
0001
0000
1100
0000
,
0001
1000
0001
0000
1000
0000
1100
0000
,
1000
0001
1000
0000
0001
0000
0101
0000
,
0100
0010
0001
0100
,
0010
0001
1000
1100
,
0100
0010
1000
0100
,
0010
1000
0100
1100
,
1000
0000
0100
1000
0100
0000
0000
0000
,
0001
0000
0100
0001
0100
0000
0000
0000
,
0000
0000
0100
0100
0000
0000
0010
0000
,
1001
0110
1001
0110
,
0000
0000
0010
0010
0000
0000
0100
0000
,
0110
1001
0110
1001
,
0000
0000
0001
0001
0000
0000
0000
0000
,
0101
1010
0101
1010
,
0000
0000
1000
1000
1000
0000
0001
0001
,
0001
1000
0100
0010
,
0001
0001
1000
1000
,
0001
1100
0001
1100
,
1000
1000
0001
0001
,
1000
0101
1000
0101
,
0100
0100
0010
0010
,
1000
0110
0001
0110
,
1000
1000
0001
0001
,
1000
0110
0001
0110
,
1001
0000
0000
0000
;

//---------------dance-single - ----------------
#NOTEDATA:;
#CHARTNAME:;
#STEPSTYPE:dance-single;
#DESCRIPTION:;
#CHARTSTYLE:;
#DIFFICULTY:Easy;
#METER:4;
#RADARVALUES:0.206267,0.190842,0.150665,0.000000,0.000000,103.000000,12.000000,0.000000,0.000000,0.000000,0.000000,0.000000,0.000000,0.206267,0.190842,0.150665,0.000000,0.000000,103.000000,12.000000,0.000000,0.000000,0.000000,0.000000,0.000000,0.000000;
#CREDIT:;
#NOTES:
0000
0000
0000
0000
,
0000
0000
0000
0000
,
0000
0000
0000
0000
,
0000
0000
0000
0000
,
1000
0100
0001
0010
,
1000
0000
0000
0000
,
1000
0010
0001
0100
,
1000
0000
0000
0000
,
1000
1000
1000
1000
,
0001
0001
0001
0001
,
0100
0100
0100
0100
,
0010
0010
0010
0010
,
1000
1000
1000
1000
,
0001
0001
0001
0001
,
1000
1000
1000
1000
,
0001
0001
0001
0001
,
1000
0100
0000
0100
,
0000
0100
0000
0000
,
0001
0100
0000
0100
,
0000
0100
0000
0000
,
1000
0010
0000
0010
,
0000
0010
0000
0000
,
0001
0001
1000
1000
,
1001
0000
1001
0000
,
0100
0100
0010
0010
,
0110
0000
0110
0000
,
0010
0010
1000
1000
,
0001
0001
0100
0100
,
0010
0010
0001
0001
,
0100
0100
1000
1000
,
0010
0100
0010
0000
,
0110
0000
0110
0000
,
1000
0001
1000
0000
,
1001
0000
1001
0000
,
0001
0010
0100
0000
,
0110
0000
0110
0000
,
0100
0010
0001
0000
,
1001
0000
1001
0000
,
0100
0000
0000
0000
;

//---------------dance-single - ----------------
#NOTEDATA:;
#CHARTNAME:;
#STEPSTYPE:dance-single;
#DESCRIPTION:;
#CHARTSTYLE:;
#DIFFICULTY:Beginner;
#METER:2;
#RADARVALUES:0.141697,0.143132,0.050222,0.188331,0.000000,60.000000,4.000000,15.000000,0.000000,0.000000,0.000000,0.000000,0.000000,0.141697,0.143132,0.050222,0.188331,0.000000,60.000000,4.000000,15.000000,0.000000,0.000000,0.000000,0.000000,0.000000;
#CREDIT:;
#NOTES:
// measure 0
0000
0000
0000
0000
,  // measure 1
0000
0000
0000
0000
,  // measure 2
0000
0000
0000
0000
,  // measure 3
0000
0000
0000
0000
,  // measure 4
2000
0000
0000
3000
,  // measure 5
0002
0000
0000
0003
,  // measure 6
2000
0000
0000
3000
,  // measure 7
0002
0000
0000
0003
,  // measure 8
0001
0000
0001
0000
,  // measure 9
1000
0000
1000
0000
,  // measure 10
0010
0000
0010
0000
,  // measure 11
0100
0000
0100
0000
,  // measure 12
0001
0000
0001
0000
,  // measure 13
0100
0000
0100
0000
,  // measure 14
0010
0000
0010
0000
,  // measure 15
1000
0000
1000
0000
,  // measure 16
2000
3000
1000
0000
,  // measure 17
1000
1000
1000
0000
,  // measure 18
0002
0003
0001
0000
,  // measure 19
0001
0001
0001
0000
,  // measure 20
0020
0030
0010
0000
,  // measure 21
0010
0010
0010
0000
,  // measure 22
0020
0000
0000
0030
,  // measure 23
0010
0000
0110
0000
,  // measure 24
0200
0000
0000
0300
,  // measure 25
0100
0000
0110
0000
,  // measure 26
2000
0000
0000
3000
,  // measure 27
1000
0000
1001
0000
,  // measure 28
0002
0000
0000
0003
,  // measure 29
0001
0000
1001
0000
,  // measure 30
0010
0000
0010
0000
,  // measure 31
0020
0000
0000
0030
,  // measure 32
0100
0000
0100
0000
,  // measure 33
0200
0000
0000
0300
,  // measure 34
0010
0000
0010
0000
,  // measure 35
0020
0000
0000
0030
,  // measure 36
0100
0000
0100
0000
,  // measure 37
0200
0000
0000
0300
,  // measure 38
0100
0000
0000
0000
;
