#TITLE:Rebirth;
#SUBTITLE:;
#ARTIST:Hadouken!;
#TITLETRANSLIT:;
#SUBTITLETRANSLIT:;
#ARTISTTRANSLIT:;
#GENRE:;
#CREDIT:Chewi☆;
#MENUCOLOR:#FFFF00;
#METERTYPE:DDR X;
#BANNER:Rebirth.png;
#BACKGROUND:Rebirth-bg.png;
#LYRICSPATH:;
#CDTITLE:;
#MUSIC:Rebirth.mp3;
#OFFSET:-0.525;
#SAMPLESTART:15.525;
#SAMPLELENGTH:15.000;
#SELECTABLE:YES;
#LISTSORT:;
#DISPLAYBPM:128.000;
#BPMS:0.000=128.000;
#STOPS:59.500=1.875
;
#BGCHANGES:;
#ATTACKS:;

//---------------dance-single - Chewi----------------
#NOTES:
     dance-single:
     Chewi:
     Beginner:
     1:
     0.067,0.075,0.000,0.000,0.000:
0000
0000
0000
0000
,
0000
0000
0000
0000
,
0000
0000
0000
0000
,
0000
0000
0000
0000
,
1000
0000
0000
0000
,
1000
0000
0000
0000
,
1000
0000
0000
0000
,
0010
0000
0000
0000
,
1000
0000
0000
0000
,
1000
0000
0000
0000
,
1000
0000
0000
0000
,
0100
0000
0000
0000
,
1000
0000
0000
0000
,
1000
0000
0000
0000
,
0010
0000
0000
0000
,
0010
0000
0000
0000
,
0100
0000
0000
0000
,
1000
0000
0000
0000
,
0001
0000
0000
0000
,
1000
0000
0000
0000
,
0001
0000
0000
0000
,
1000
0000
0000
0000
,
0001
0000
0000
0000
,
1000
0000
0000
0000
,
0010
0000
0000
0000
,
0001
0000
0000
0000
,
1000
0000
0000
0000
,
0010
0000
0000
0000
,
1000
0000
0000
0000
,
0010
0000
0000
0000
,
1000
0000
0000
0000
,
1000
0000
0000
0000
,
0100
0000
0000
0000
,
0010
0000
0000
0000
,
0100
0000
0000
0000
,
1000
0000
0000
0000
,
0001
0000
0000
0000
,
0100
0000
0000
0000
,
0010
0000
0000
0000
,
0001
0000
0000
0000
,
0010
0000
0000
0000
,
0001
0000
0000
0000
,
0010
0000
0000
0000
,
0010
0000
0000
0000
,
0100
0000
0000
0000
,
0001
0000
0000
0000
,
1000
0000
0000
0000
,
0001
0000
0000
0000
,
1000
0000
0000
0000
,
0001
0000
0000
0000
,
1000
0000
0000
0000
,
0010
0000
0000
0000
;

//---------------dance-single - Chewi----------------
#NOTES:
     dance-single:
     Chewi:
     Easy:
     4:
     0.213,0.260,0.039,0.264,0.000:
0000
0000
0000
0000
,
0000
0000
0000
0000
,
0000
0000
0000
0000
,
0000
0000
0000
0000
,
1000
0010
0100
0001
,
1000
0010
0100
0001
,
2000
0000
3002
0000
,
0023
0000
0230
0000
,
1300
0100
0010
0001
,
1000
0100
0010
0001
,
2000
0000
3002
0000
,
0203
0000
0320
0000
,
1030
0010
0100
0001
,
1000
0010
0100
0001
,
0020
0000
0000
0000
0230
0000
0000
0300
,
0010
0000
0001
0000
,
0100
1000
0010
0000
,
1000
0000
0100
0000
,
0001
0010
0100
0000
,
1000
0000
0100
0000
,
0001
0010
1000
0000
,
1000
0000
0010
0000
,
0001
0100
1000
0000
,
2000
0000
3002
0000
,
0013
0100
0010
0110
,
0002
0000
0203
0000
,
1300
0100
0001
1001
,
0020
0000
0230
0000
,
1300
0100
0010
0110
,
0020
0000
0032
0000
,
1003
0001
0100
1001
,
2000
0000
0000
0000
,
3200
0000
0000
0000
,
0320
0000
0000
0000
,
0230
0000
0000
0000
,
1300
1000
1000
0000
,
0001
0000
1000
0000
,
0100
0100
0100
0000
,
0010
0000
0100
0000
,
0001
1000
0100
0000
,
0010
1000
0100
0000
,
0001
1000
0100
0000
,
0010
0001
0100
0000
,
0020
0000
0000
0030
,
0200
0000
0000
0300
,
0001
1000
0001
0000
,
1000
0001
1000
0000
,
0002
0000
0000
0003
,
2000
0000
0000
3000
,
0001
1000
0100
0000
,
1000
0001
0100
0000
,
0020
0000
0000
0000
,
0000
0000
0000
0000
,
0030
0000
0000
0000
;

//---------------dance-single - Chewi----------------
#NOTES:
     dance-single:
     Chewi:
     Medium:
     7:
     0.264,0.285,0.020,0.049,0.000:
0000
0000
0000
0000
,
0000
0000
0000
0000
,
0000
0000
0000
0000
,
0000
0000
0000
0000
,
1000
0010
0100
0001
,
1000
0100
0001
0010
,
0001
0010
0100
1000
,
0100
0001
0100
1000
,
0010
0100
1000
0001
,
0100
0010
0100
0001
,
1000
0100
0010
0001
,
0010
1000
0010
0001
,
1000
1000
1000
0000
0010
0000
0100
0000
,
0001
0001
0001
0000
0100
0000
0010
0000
,
1000
0001
0000
0000
0001
0000
0001
1000
,
0001
0000
0010
0000
0100
0010
0100
0000
,
0010
0000
0100
0000
0010
0100
0010
0000
,
1000
0100
0001
0100
,
0001
0100
1000
0010
,
0001
0000
0010
0000
0001
0010
0001
0000
,
1000
0000
0010
0000
1000
0010
1000
0000
,
0001
0010
1000
0010
,
1000
0100
0001
0010
,
0100
0000
0010
0000
0001
0100
0001
0000
,
0100
0000
0010
0000
1000
0010
1000
0000
,
0100
0000
0010
0000
0001
1000
0001
0000
,
0100
0000
0010
0000
1000
0001
1000
0000
,
0001
0010
0100
1000
,
1000
0001
0100
1000
,
0010
0100
0001
1000
,
0001
0010
1000
0100
,
0200
0000
0000
0000
,
2300
0000
0000
0000
,
3002
0000
0000
0000
,
0203
0000
0000
0000
,
0310
0000
0000
0010
0010
0000
0000
0000
,
0010
1000
0001
0010
,
0100
0000
0000
0100
0100
0000
0000
0000
,
0100
0010
0001
1000
,
0001
0000
0000
1000
0001
0000
0000
0000
,
1000
0010
0100
0001
,
0100
0000
0000
0010
0100
0000
0010
0000
,
1000
0000
0000
0100
1000
0000
0010
0000
,
0100
0000
0000
0001
0100
0000
0000
0000
,
1000
0100
0010
0001
,
1000
0000
0000
0010
1000
0000
0001
0000
,
0100
0000
0000
0001
0100
0000
0010
0000
,
0100
0001
0110
0000
,
0100
1000
0001
0100
,
0010
1000
1001
0000
,
0010
0100
1000
0100
,
0020
0000
0000
0000
,
0000
0000
0000
0000
,
0030
0000
0000
0000
;

//---------------dance-single - Chewi----------------
#NOTES:
     dance-single:
     Chewi:
     Hard:
     10:
     0.415,0.441,0.196,0.088,0.000:
0000
0000
0000
0000
,
0000
0000
0000
0000
,
0000
0000
0000
0000
,
0000
0000
0000
0000
,
0001
0100
0010
1000
0001
0100
0010
1000
,
0001
0010
0100
1000
0001
0010
0100
1000
,
0001
1000
0000
1000
0001
0000
0110
0000
,
0010
0100
0000
0100
0010
0000
0110
0000
,
1000
0010
0100
0001
1000
0010
0100
0001
,
1000
0100
0001
0100
1000
0100
0001
0100
,
1000
0100
0000
0100
1000
0001
0100
0000
,
0010
0100
0000
0100
0010
1000
0001
0000
,
1000
0100
0010
0100
1000
0010
0100
0010
,
0100
0001
0010
0001
0100
0010
0100
0010
,
1000
0010
0000
0010
1000
0100
0010
0011
,
0100
0001
0010
0000
0100
1000
0010
0000
,
0100
0000
0001
0000
0100
0001
0010
0000
,
0100
1001
0010
1001
,
1010
0110
0101
0110
,
0001
1000
0100
0000
1000
0001
0100
0000
,
1000
0000
0100
0000
0001
0100
0001
0000
,
0100
0110
1000
1001
,
0011
0110
1100
0110
,
2000
0100
3001
0000
0100
0010
0100
0000
,
0020
0100
1030
0000
1000
0100
1000
0000
,
0200
0010
0301
0000
0001
0010
0100
0000
,
0002
0100
1003
0000
1000
0100
1000
0000
,
0001
1000
0001
1000
0010
0100
0010
0100
,
0001
0100
0001
0100
0010
1000
0010
1000
,
0100
1000
0000
0010
0001
0100
1000
0000
,
0010
0001
0000
0010
1000
0100
0001
0010
,
0200
0000
0000
0000
,
0302
0000
0000
0000
,
2003
0000
0000
0000
,
3200
0000
0000
0000
,
0310
0000
0000
0001
0101
0000
0000
0000
,
0001
1000
0010
0100
0001
1000
0100
0000
,
0010
0000
0000
0100
1100
0000
0000
0000
,
0100
1000
0010
0100
0001
0010
0100
0010
,
0001
0000
0000
1000
1001
0000
0000
0000
,
0001
0100
0010
1000
0001
0010
0100
1000
,
0001
0000
0000
1000
1001
0000
0010
0100
,
0010
0001
0000
0100
1000
0010
0100
0000
,
1000
0000
0000
0100
1100
0000
0000
0000
,
1000
0001
0100
0010
1000
0001
0010
0100
,
0010
0001
0000
1000
0100
1000
0100
0000
,
0001
0100
0000
1000
0010
1000
0010
0000
,
0100
0010
1000
0100
0010
0001
1000
0100
,
0001
0100
1000
0010
0001
0010
1000
0010
,
0100
0001
0000
0010
0100
1000
0010
0000
,
1000
0100
0000
0010
1000
0100
0001
0010
,
0200
0000
0000
0000
,
0000
0000
0000
0000
,
0300
0000
0000
0000
;

//---------------dance-double - Chewi----------------
#NOTES:
     dance-double:
     Chewi:
     Easy:
     4:
     0.200,0.234,0.000,0.108,0.000: // measure 1
00000000
00000000
00000000
00000000
,  // measure 2
00000000
00000000
00000000
00000000
,  // measure 3
00000000
00000000
00000000
00000000
,  // measure 4
00000000
00000000
00000000
00000000
,  // measure 5
10000000
01000000
01000000
01000000
,  // measure 6
00020000
00000000
00000000
00030000
,  // measure 7
00010000
00001000
00000010
00001000
,  // measure 8
00000020
00000000
00000000
00000030
,  // measure 9
00001000
00000100
00000010
00000001
,  // measure 10
00001000
00000100
00001000
00000100
,  // measure 11
00000100
00001000
00010000
00100000
,  // measure 12
10000000
00100000
00010000
00100000
,  // measure 13
10000000
01000000
00100000
00010000
,  // measure 14
10000000
01000000
00100000
00010000
,  // measure 15
00001000
00010000
00001000
00000010
,  // measure 16
00000100
00000100
00000010
00000010
,  // measure 17
00001000
00000001
00001000
00000001
,  // measure 18
00001000
00001000
00010000
00010000
,  // measure 19
00001000
00010000
01000000
00010000
,  // measure 20
00100000
00100000
01000000
01000000
,  // measure 21
00100000
01000000
00100000
01000000
,  // measure 22
10000000
00000000
00010000
00000000
,  // measure 23
00100000
00000000
00001000
00000000
,  // measure 24
00010000
00001000
00000010
00001000
,  // measure 25
00000010
00000100
00000010
00000100
,  // measure 26
00000010
00000000
00001000
00000000
,  // measure 27
00000001
00000000
00000010
00000000
,  // measure 28
00000001
00000010
00000100
00001000
,  // measure 29
00000100
00001000
00000100
00010000
,  // measure 30
00001000
00000000
00010000
00000000
,  // measure 31
00100000
00000000
10000000
00000000
,  // measure 32
02000000
00000000
00000000
03000000
,  // measure 33
00200000
00000000
00000000
00300000
,  // measure 34
00020000
00000000
00000000
00030000
,  // measure 35
00002000
00000000
00000000
00003000
,  // measure 36
00001000
00010000
00001000
00000000
,  // measure 37
00000020
00000000
00000000
00000030
,  // measure 38
00000100
00000010
00000100
00000000
,  // measure 39
00001000
00000000
00000001
00000000
,  // measure 40
00000001
00001000
00000100
00000000
,  // measure 41
00002000
00000000
00000000
00003000
,  // measure 42
00010000
00001000
00010000
00000000
,  // measure 43
01000000
00000000
01000000
00000000
,  // measure 44
10000000
01000000
00100000
00000000
,  // measure 45
00020000
00000000
00000000
00030000
,  // measure 46
00100000
10000000
01000000
00000000
,  // measure 47
01000000
00000000
00010000
00000000
,  // measure 48
00100000
00010000
00001000
00000100
,  // measure 49
00000020
00000000
00000000
00000030
,  // measure 50
00000001
00000000
00001000
00000000
,  // measure 51
00000010
00000000
00000100
00000001
,  // measure 52
00000020
00000000
00000000
00000000
,  // measure 53
00000000
00000000
00000000
00000000
,  // measure 54
00000030
00000000
00000000
00000000
;

//---------------dance-double - Chewi----------------
#NOTES:
     dance-double:
     Chewi:
     Medium:
     7:
     0.263,0.285,0.010,0.049,0.000:
00000000
00000000
00000000
00000000
,
00000000
00000000
00000000
00000000
,
00000000
00000000
00000000
00000000
,
00000000
00000000
00000000
00000000
,
10000000
00000000
00100000
00000000
10000000
00100000
10000000
00000000
,
00010000
00000000
00100000
00000000
00010000
00100000
00010000
00000000
,
00010000
00000000
00001000
00000000
00001000
00010000
00001000
00000000
,
00010000
00001000
00000010
00000100
,
00000001
00000000
00000100
00000000
00001000
00000100
00000001
00000000
,
00000001
00000000
00000010
00000000
00001000
00000010
00000001
00000000
,
00001000
00000000
00010000
00000000
00010000
00001000
00010000
00000000
,
00011000
00010000
01000000
10000000
,
01000000
00000000
00100000
00000000
00010000
00100000
00010000
00000000
,
10000000
00000000
01000000
00000000
00100000
01000000
00100000
00000000
,
00010000
00000000
00001000
00000000
00010000
00001000
00010000
00001000
,
00000010
00000001
00000100
00001000
,
00000010
00001000
00000100
00010000
,
00100000
00010000
01000000
10000000
,
00100000
10000000
01000000
00100000
,
10000000
01000000
00100000
00010000
,
00001000
00010000
00001000
00000010
,
00001000
00000010
00000100
00000001
,
00000010
00001000
00000100
00000001
,
00000001
00000010
00000100
00001000
,
00010000
00001000
00010000
01000000
,
10000000
00100000
00010000
01000000
,
10000000
01000000
00010000
00100000
,
10000000
01000000
00100000
00010000
,
00001000
00000010
00000001
00000010
,
00001000
00001000
00000001
00000001
,
00001000
00000100
00001000
00000000
00000001
00000100
00000001
00000000
,
00000200
00000000
00000000
00000000
,
00000320
00000000
00000000
00000000
,
00002030
00000000
00000000
00000000
,
00023000
00000000
00000000
00000000
,
00031000
00000000
00000000
00001000
00001000
00000000
00000000
00000000
,
00001000
00010000
01000000
10000000
,
00100000
00000000
00000000
01000000
00100000
00000000
00000000
00000000
,
01000000
00000000
00000000
00100000
01000000
00000000
00000000
00000000
,
00010000
00000000
00000000
00010000
00010000
00000000
00000000
00000000
,
00010000
00001000
00000010
00000001
,
00000100
00000000
00000000
00000100
00000010
00000000
00000000
00000000
,
00000010
00000000
00000000
00000010
00000100
00000000
00000000
00000000
,
00000010
00001000
00000100
00000001
,
00000100
00001000
00010000
00100000
,
10000000
01000000
00010000
01000000
,
10000000
00100000
00010000
00001000
,
00000100
00001000
00000010
00001000
,
00000100
00000001
00000010
00000001
,
00000100
00000010
00001000
00000000
,
00001000
00010000
00000100
00001000
,
00020000
00000000
00000000
00000000
,
00000000
00000000
00000000
00000000
,
00030000
00000000
00000000
00000000
;

//---------------dance-double - Chewi----------------
#NOTES:
     dance-double:
     Chewi:
     Hard:
     10:
     0.420,0.441,0.137,0.049,0.000:
00000000
00000000
00000000
00000000
,
00000000
00000000
00000000
00000000
,
00000000
00000000
00000000
00000000
,
00000000
00000000
00000000
00000000
,
10000000
00100000
01000000
00010000
10000000
01000000
00100000
00010000
,
00001000
00000100
00000010
00000001
00001000
00000010
00000100
00000001
,
00000100
00000100
00000000
00000010
00000010
00000000
00001001
00000000
,
00001000
00001000
00000000
00000001
00000001
00000000
00000110
00000000
,
00000001
00000010
00000100
00001000
00000001
00000010
00000100
00001000
,
00010000
01000000
10000000
00100000
10000000
01000000
00010000
00100000
,
01000000
01000000
00000000
00100000
00100000
00000000
10010000
00000000
,
10000000
10000000
00000000
00010000
00010000
00000000
10010000
00000000
,
10000000
00100000
00010000
00100000
10000000
01000000
00010000
01000000
,
10000000
01000000
00100000
00010000
00001000
00000100
00000001
00000100
,
00000010
00000010
00000000
00000100
00000100
00000010
00000100
00000010
,
00001000
00000000
00001001
00000000
00000001
00000010
00000100
00000000
,
00001000
00001100
00000001
00000101
,
00000001
00000100
00001000
00000000
00001000
00010000
01000000
00000000
,
10000000
01000000
00010000
00000000
01000000
10000000
00100000
00000000
,
10000000
01000000
10000000
01000000
00100000
00010000
00100000
00010000
,
00100000
01000000
00100000
00010000
01000000
00010000
00100000
00001000
,
00010000
00000100
00000000
00000100
00010000
00001000
00000010
00000000
,
00001000
00000010
00000000
00001000
00000001
00000010
00000100
00001000
,
00000001
00000010
00000001
00000010
00000100
00001000
00000100
00001000
,
00000001
00001000
00000010
00000100
00000001
00001000
00000100
00010000
,
00001000
00010000
00000000
00001000
00010000
01000000
00100000
00000000
,
10000000
01000000
00000000
00100000
01000000
10000000
00100000
00000000
,
01000000
01000000
00100000
00100000
10000000
00010000
10000000
00010000
,
00100000
00100000
00010000
00010000
00100000
00010000
00001000
00000100
,
00000010
00000001
00000000
00000100
00001000
00000010
00000100
00000000
,
00000100
00000010
00000000
00000010
00001000
00000100
00000001
00000010
,
00000200
00000000
00000000
00000000
,
00002300
00000000
00000000
00000000
,
00023000
00000000
00000000
00000000
,
02030000
00000000
00000000
00000000
,
03100000
00000000
00000000
00100000
10010000
00000000
00000000
00000000
,
10000000
11000000
00110000
01010000
,
00010000
00000000
00000000
00001000
00011000
00000000
00010000
00000000
,
00000100
00000000
00000000
00001000
00001100
00000000
00000001
00000000
,
00000010
00000000
00000100
00000010
00000001
00000000
00000010
00000000
,
00000100
00000010
00000100
00000010
00001000
00000001
00001000
00000001
,
00001000
00000000
00000000
00000100
00010000
00001000
00000000
00001000
,
00010000
00001000
00000000
00001000
00010000
01000000
00100000
10000000
,
00010000
00000000
10000000
01000000
00100000
00000000
00010000
00000000
,
10000000
01000000
00100000
00010000
00001000
00000100
00000010
00000001
,
00001000
00000001
00000000
00000001
00001000
00000010
00000100
00000000
,
00000010
00000100
00000000
00000100
00000010
00001000
00000001
00000010
,
00000100
00001000
00000100
00001000
00000100
00010000
00000100
00010000
,
00001000
00010000
00001000
00010000
00001000
00100000
00001000
00100000
,
00001000
00100000
00000000
00010000
01000000
00000000
01100000
00000000
,
01000000
00010000
00000000
00100000
10000000
01000000
00010000
00100000
,
02000000
00000000
00000000
00000000
,
00000000
00000000
00000000
00000000
,
03000000
00000000
00000000
00000000
;
