#TITLE:Ready to be a lady;
#SUBTITLE:;
#ARTIST:GIRL NEXT DOOR;
#TITLETRANSLIT:;
#SUBTITLETRANSLIT:;
#ARTISTTRANSLIT:;
#GENRE:;
#CREDIT:chewi;
#BANNER:Ready to be a lady.png;
#BACKGROUND:Ready to be a lady-bg.png;
#LYRICSPATH:;
#CDTITLE:cdtitle.png;
#MUSIC:Ready to be a lady.mp3;
#OFFSET:-0.472000;
#SAMPLESTART:66.713997;
#SAMPLELENGTH:15.000000;
#SELECTABLE:YES;
#DISPLAYBPM:134.000000;
#BPMS:0.000000=134.000000
;
#STOPS:
;
#BGCHANGES:;
#KEYSOUNDS:;
#ATTACKS:;

//---------------dance-single - ----------------
#NOTES:
     dance-single:
     :
     Beginner:
     2:
     0.112759,0.134761,0.057755,0.038503,0.000000,72.000000,6.000000,4.000000,0.000000,0.000000,0.000000,0.112759,0.134761,0.057755,0.038503,0.000000,72.000000,6.000000,4.000000,0.000000,0.000000,0.000000:
// measure 0
0000
0000
0000
0000
,  // measure 1
0000
0000
0000
0000
,  // measure 2
0000
0000
0000
0000
,  // measure 3
0000
0000
0000
0000
,  // measure 4
1000
0000
0000
0000
,  // measure 5
0001
0000
0000
0000
,  // measure 6
0100
0000
0000
0000
,  // measure 7
0010
0000
0000
0000
,  // measure 8
2000
0000
0000
3000
,  // measure 9
1000
1000
1000
0000
,  // measure 10
0002
0000
0000
0003
,  // measure 11
0001
0001
0001
0000
,  // measure 12
1001
0000
0000
0000
,  // measure 13
0100
0000
0000
0000
,  // measure 14
0010
0000
0000
0000
,  // measure 15
0100
0000
0000
0000
,  // measure 16
0110
0000
0000
0000
,  // measure 17
1000
0000
0000
0000
,  // measure 18
0001
0000
0000
0000
,  // measure 19
1000
0000
0000
0000
,  // measure 20
1000
0000
0001
0000
,  // measure 21
0001
0000
0000
0000
,  // measure 22
0001
0000
1000
0000
,  // measure 23
1000
0000
0000
0000
,  // measure 24
0010
0000
0100
0000
,  // measure 25
0100
0000
0000
0000
,  // measure 26
0100
0000
0010
0000
,  // measure 27
0010
0000
0000
0000
,  // measure 28
0110
0000
0000
0000
,  // measure 29
0110
0000
0000
0000
,  // measure 30
1001
0000
0000
0000
,  // measure 31
1001
0000
0000
0000
,  // measure 32
1000
0000
1000
0000
,  // measure 33
0001
0000
0001
0000
,  // measure 34
1000
0000
0001
0000
,  // measure 35
1000
0000
0000
0000
,  // measure 36
0001
0000
0000
0000
,  // measure 37
0010
0000
0000
0000
,  // measure 38
0001
0000
0000
0000
,  // measure 39
0100
0000
0000
0000
,  // measure 40
1000
0000
0000
0000
,  // measure 41
0010
0000
0000
0000
,  // measure 42
0001
0000
0000
0000
,  // measure 43
0100
0000
0000
0000
,  // measure 44
1000
0000
0000
0000
,  // measure 45
0010
0000
0010
0000
,  // measure 46
0010
0000
0010
0000
,  // measure 47
0100
0000
0100
0000
,  // measure 48
0100
0000
0100
0000
,  // measure 49
0001
0000
0001
0000
,  // measure 50
0001
0000
0001
0000
,  // measure 51
1000
0000
1000
0000
,  // measure 52
1000
0000
1000
0000
,  // measure 53
2000
0000
0000
3000
,  // measure 54
1000
0000
0000
0000
,  // measure 55
0002
0000
0000
0003
,  // measure 56
0001
0000
0000
0000
;

//---------------dance-single - ----------------
#NOTES:
     dance-single:
     :
     Easy:
     5:
     0.228268,0.218505,0.028877,0.134761,0.000000,149.000000,3.000000,14.000000,0.000000,0.000000,0.000000,0.228268,0.218505,0.028877,0.134761,0.000000,149.000000,3.000000,14.000000,0.000000,0.000000,0.000000:
// measure 0
0000
0000
0000
0000
,  // measure 1
0000
0000
0000
0000
,  // measure 2
0000
0000
0000
0000
,  // measure 3
0000
0000
0000
0000
,  // measure 4
0010
0000
1000
0000
,  // measure 5
0100
0000
0001
0000
,  // measure 6
0010
0000
1000
0000
,  // measure 7
0001
0000
0010
0000
,  // measure 8
0001
0010
0001
0010
,  // measure 9
0020
0000
0000
0030
,  // measure 10
0100
1000
0100
1000
,  // measure 11
2000
0000
0000
3000
,  // measure 12
1002
0000
0000
0000
,  // measure 13
0203
0000
0000
0000
,  // measure 14
0320
0000
0000
0000
,  // measure 15
2030
0000
0000
3000
,  // measure 16
1002
0000
0000
0000
,  // measure 17
2003
0000
0000
0000
,  // measure 18
3200
0000
0000
0000
,  // measure 19
0320
0000
0000
0000
,  // measure 20
0031
0001
0001
0001
,  // measure 21
1000
1000
1000
0000
,  // measure 22
1000
1000
1000
1000
,  // measure 23
0010
0010
0010
0000
,  // measure 24
0010
0010
0010
0010
,  // measure 25
0100
0100
0100
0000
,  // measure 26
0100
0100
0100
0100
,  // measure 27
0001
0001
0001
0000
,  // measure 28
0001
0000
1000
0000
,  // measure 29
0100
0010
0001
0000
,  // measure 30
1000
0000
0001
0000
,  // measure 31
0100
0010
1000
0000
,  // measure 32
0010
0000
0100
0000
,  // measure 33
0001
1000
0100
0000
,  // measure 34
0010
0000
0100
0000
,  // measure 35
1000
0001
0100
0000
,  // measure 36
0220
0000
0000
0330
,  // measure 37
0010
0010
0010
0010
,  // measure 38
1000
1000
1000
1000
,  // measure 39
0100
0100
0100
0100
,  // measure 40
0001
0001
0001
0001
,  // measure 41
0010
0010
0010
0010
,  // measure 42
0001
0001
0001
0001
,  // measure 43
0100
0100
0100
0100
,  // measure 44
1000
1000
1000
1000
,  // measure 45
0010
0100
0010
0100
,  // measure 46
0010
0100
0010
0100
,  // measure 47
0001
1000
0100
1000
,  // measure 48
0001
1000
0100
1000
,  // measure 49
0001
1000
0001
1000
,  // measure 50
0001
1000
0001
1000
,  // measure 51
0001
0100
0001
1000
,  // measure 52
0001
0100
0001
1000
,  // measure 53
0001
0010
0001
0010
,  // measure 54
0020
0000
0000
0030
,  // measure 55
0100
1000
0100
1000
,  // measure 56
2000
0000
0000
3000
;

//---------------dance-single - ----------------
#NOTES:
     dance-single:
     :
     Medium:
     7:
     0.319025,0.327757,0.125135,0.211767,0.033690,197.000000,13.000000,22.000000,0.000000,0.000000,0.000000,0.319025,0.327757,0.125135,0.211767,0.033690,197.000000,13.000000,22.000000,0.000000,0.000000,0.000000:
// measure 0
0000
0000
0000
0000
,  // measure 1
0000
0000
0000
0000
,  // measure 2
0000
0000
0000
0000
,  // measure 3
0000
0000
0000
0000
,  // measure 4
2000
3100
0002
0103
,  // measure 5
2000
3100
0002
0103
,  // measure 6
2000
3010
0002
0013
,  // measure 7
2000
3010
0002
0013
,  // measure 8
0010
0100
1000
0001
,  // measure 9
1000
0000
0000
1000
0000
0000
1000
0000
0000
0000
0000
0000
0000
0000
0000
0000
,  // measure 10
1000
0001
0100
0010
,  // measure 11
0100
0000
0000
0100
0000
0000
0100
0000
0000
0000
0000
0000
0000
0000
0000
0000
,  // measure 12
0120
0000
0000
0000
,  // measure 13
2030
0000
0000
0000
,  // measure 14
3002
0000
0000
0000
,  // measure 15
0023
0100
1000
0130
,  // measure 16
0210
0000
0000
0000
,  // measure 17
2300
0000
0000
0000
,  // measure 18
3002
0000
0000
0000
,  // measure 19
0203
0010
0001
0310
,  // measure 20
0010
1000
0001
1000
,  // measure 21
0010
1000
0100
0110
,  // measure 22
0010
0001
1000
0100
,  // measure 23
0010
0100
1000
1001
,  // measure 24
1000
0010
0100
0001
,  // measure 25
0100
0010
0100
0101
,  // measure 26
1000
0100
0010
0001
,  // measure 27
1000
0100
1000
1001
,  // measure 28
1000
0000
0000
1000
0000
0000
1000
0000
0001
0000
0000
0000
0000
0000
0000
0000
,  // measure 29
0001
0000
0000
0001
0000
0000
0001
0000
1000
0000
0000
0000
0000
0000
0000
0000
,  // measure 30
0010
0010
1000
1000
,  // measure 31
0010
1000
0100
0000
0010
0001
0100
0000
,  // measure 32
0001
0000
0000
0001
0000
0000
0001
0000
1000
0000
0000
0000
0000
0000
0000
0000
,  // measure 33
1000
0000
0000
1000
0000
0000
1000
0000
0001
0000
0000
0000
0000
0000
0000
0000
,  // measure 34
0010
1000
0001
0100
,  // measure 35
0000
1000
1001
0110
,  // measure 36
0020
0230
0302
2003
,  // measure 37
3001
0010
0001
0010
,  // measure 38
0100
1000
0100
1000
,  // measure 39
0001
0001
0001
0000
1000
1000
1000
0000
,  // measure 40
0001
0100
0010
0110
,  // measure 41
0100
0010
1000
0010
,  // measure 42
0100
0010
0001
0010
,  // measure 43
0100
0100
0100
0000
0010
0010
0010
0000
,  // measure 44
1000
0001
0010
0110
,  // measure 45
1000
0100
0001
0100
,  // measure 46
1000
0001
0100
1000
,  // measure 47
0100
0100
0100
0000
0010
0010
0010
0000
,  // measure 48
1000
0001
0010
1100
,  // measure 49
1000
0010
0001
0010
,  // measure 50
1000
0010
0001
0010
,  // measure 51
1000
1000
1000
0000
0001
0001
0001
0000
,  // measure 52
1000
0100
0010
0011
,  // measure 53
1000
0001
0100
0010
,  // measure 54
0100
0000
0000
0100
0000
0000
0100
0000
0000
0000
0000
0000
0000
0000
0000
0000
,  // measure 55
0100
0010
0001
1000
,  // measure 56
2002
0000
0000
3003
;

//---------------dance-single - ----------------
#NOTES:
     dance-single:
     :
     Hard:
     10:
     0.430409,0.437009,0.375404,0.028877,0.091445,271.000000,39.000000,3.000000,0.000000,0.000000,0.000000,0.430409,0.437009,0.375404,0.028877,0.091445,271.000000,39.000000,3.000000,0.000000,0.000000,0.000000:
// measure 0
0000
0000
0000
0000
,  // measure 1
0000
0000
0000
0000
,  // measure 2
0000
0000
0000
0000
,  // measure 3
0000
0000
0000
0000
,  // measure 4
1000
0000
0100
0000
0010
0000
0001
0000
1000
0000
0000
1000
0000
0000
1000
0000
,  // measure 5
0000
0000
1000
0000
0001
0000
0100
0000
0010
0000
0000
0010
0000
0000
0010
0000
,  // measure 6
0000
1000
0010
0100
0001
0000
1000
0010
,  // measure 7
0000
0010
1000
0001
0010
0100
1000
0001
,  // measure 8
0010
0010
0100
0100
,  // measure 9
1000
0000
0000
0100
0000
0000
0010
0000
0011
0000
0000
0000
0000
0000
0000
0000
,  // measure 10
0001
0001
1000
1000
,  // measure 11
0010
0000
0000
1000
0000
0000
0100
0000
1100
0000
0000
0000
0000
0000
0000
0000
,  // measure 12
1001
0000
0000
0000
0000
0000
0000
0000
0000
0000
1000
0000
0000
0001
0000
0000
,  // measure 13
0010
0000
0000
0000
,  // measure 14
1100
0000
0000
0000
0000
0000
0000
0110
,  // measure 15
0000
0011
0000
1001
0000
0101
0100
0000
,  // measure 16
1001
0000
0000
0000
0000
0000
0000
0000
0000
0000
0001
0000
0000
1000
0000
0000
,  // measure 17
0010
0000
0000
0000
,  // measure 18
1001
0000
0000
0000
0000
0000
0000
0011
,  // measure 19
0000
0101
0000
1010
0000
1100
1000
0000
,  // measure 20
1000
0000
0001
0000
0100
0010
1000
0001
,  // measure 21
0010
0000
0100
0000
1000
0001
0010
0001
,  // measure 22
1000
0100
1000
0000
0001
0100
0001
0000
,  // measure 23
1000
0010
1000
0000
0001
0010
0001
0000
,  // measure 24
0010
0000
0100
0000
1000
0001
0100
0001
,  // measure 25
1000
0000
0010
0000
1000
0100
0010
0001
,  // measure 26
1000
0100
0010
0000
0001
0010
0001
0000
,  // measure 27
1000
0010
0100
0000
0001
0100
0001
0000
,  // measure 28
1000
0000
0000
1000
0000
0000
1000
0000
0100
0000
0000
0000
1100
0000
0000
0000
,  // measure 29
0001
0000
0000
0001
0000
0000
0001
0000
0010
0000
0000
0000
0011
0000
0000
0000
,  // measure 30
0010
0000
0100
0000
1000
0001
0010
0000
,  // measure 31
0100
0000
0010
0000
0001
1000
0010
0000
,  // measure 32
0100
0000
0000
0100
0000
0000
0100
0000
0010
0000
0000
0000
0110
0000
0000
0000
,  // measure 33
1000
0000
0000
1000
0000
0000
1000
0000
0001
0000
0000
0000
1001
0000
0000
0000
,  // measure 34
1000
0000
0001
0000
0010
0100
1000
0000
,  // measure 35
0000
1010
0101
1010
,  // measure 36
2000
0001
0010
3001
,  // measure 37
0010
0000
0100
0000
0010
0000
0001
0000
1000
0000
0000
1100
0000
0000
1001
0000
,  // measure 38
0000
0000
1000
0000
0100
0000
0010
0000
0001
0000
0000
1001
0000
0000
0101
0000
,  // measure 39
0000
0100
0010
1000
0001
0000
1000
0001
,  // measure 40
0000
0001
1000
0100
1000
0001
0100
0001
,  // measure 41
0100
0000
0010
0000
1000
0000
0001
0000
0100
0000
0000
0110
0000
0000
1001
0000
,  // measure 42
1000
0000
0001
0000
0010
0000
0100
0000
0010
0000
0000
0011
0000
0000
1100
0000
,  // measure 43
0000
0001
0010
0100
1000
0000
0001
1000
,  // measure 44
0000
1000
0100
0010
0001
0010
0001
0010
,  // measure 45
0100
0000
0010
0000
0100
0000
1000
0000
0001
0000
0000
0011
0000
0000
1001
0000
,  // measure 46
0000
0000
0001
0000
0010
0000
0100
0000
1000
0000
0000
1001
0000
0000
1010
0000
,  // measure 47
0000
0010
0100
0001
1000
0000
0001
1000
,  // measure 48
0000
1000
0001
0010
0001
1000
0010
1000
,  // measure 49
0010
0000
0100
0000
0001
0000
1000
0000
0010
0000
0000
0110
0000
0000
1001
0000
,  // measure 50
0001
0000
1000
0000
0100
0000
0010
0000
0100
0000
0000
1100
0000
0000
0011
0000
,  // measure 51
0000
1000
0100
0010
0001
0000
1000
0001
,  // measure 52
0000
0001
0010
0100
1000
0100
1000
0100
,  // measure 53
0010
0010
0100
0100
,  // measure 54
1000
0000
0000
0100
0000
0000
0010
0000
0011
0000
0000
0000
0000
0000
0000
0000
,  // measure 55
0001
0001
1000
1000
,  // measure 56
2002
0000
0000
3003
;
