#TITLE:Raise Your Glass;
#SUBTITLE:;
#ARTIST:Pink;
#TITLETRANSLIT:;
#SUBTITLETRANSLIT:;
#ARTISTTRANSLIT:;
#GENRE:;
#CREDIT:Chewi☆;
#MENUCOLOR:#FFFFFF;
#METERTYPE:DDR X;
#BANNER:Raise Your Glass.png;
#BACKGROUND:Raise Your Glass-bg.png;
#LYRICSPATH:;
#CDTITLE:./CDTITLES/DanceDanceRevolution skyMIX3 -breeze-.png;
#MUSIC:Raise Your Glass.mp3;
#OFFSET:-0.321;
#SAMPLESTART:38.914;
#SAMPLELENGTH:15.000;
#SELECTABLE:YES;
#LISTSORT:;
#DISPLAYBPM:61.000:122.000;
#BPMS:0.000=122.000,72.000=61.000,76.000=122.000;
#STOPS:;
#BGCHANGES:;
#ATTACKS:;

//---------------dance-single - Chewi----------------
#NOTES:
     dance-single:
     Chewi:
     Beginner:
     2:
     0.065,0.093,0.022,0.000,0.000: // measure 1
0000
0000
0000
0000
,  // measure 2
0000
0000
0000
0000
,  // measure 3
0000
0000
0000
0000
,  // measure 4
0000
0000
0000
0000
,  // measure 5
0010
0000
0000
0000
,  // measure 6
0010
0000
0000
0000
,  // measure 7
0001
0000
0000
0000
,  // measure 8
0001
0000
0000
0000
,  // measure 9
0100
0000
0000
0000
,  // measure 10
0100
0000
0000
0000
,  // measure 11
1000
0000
0000
0000
,  // measure 12
1001
0000
0000
0000
,  // measure 13
1000
0000
0000
0000
,  // measure 14
0001
0000
0000
0000
,  // measure 15
0010
0000
0000
0000
,  // measure 16
0100
0000
0000
0000
,  // measure 17
1000
0000
0000
0000
,  // measure 18
0001
0000
0000
0000
,  // measure 19
0010
0000
0000
0000
,  // measure 20
0001
0000
0000
0000
,  // measure 21
0010
0000
0000
0000
,  // measure 22
1000
0000
0000
0000
,  // measure 23
0100
0000
0000
0000
,  // measure 24
1000
0000
0000
0000
,  // measure 25
0100
0000
0000
0000
,  // measure 26
0001
0000
0000
0000
,  // measure 27
1000
0000
0000
0000
,  // measure 28
0010
0000
0000
0000
,  // measure 29
0010
0000
0000
0000
,  // measure 30
1000
0000
0000
0000
,  // measure 31
1000
0000
0000
0000
,  // measure 32
0100
0000
0000
0000
,  // measure 33
0010
0000
0000
0000
,  // measure 34
1000
0000
0000
0000
,  // measure 35
0100
0000
0000
0000
,  // measure 36
0010
0000
0000
0000
,  // measure 37
1001
0000
0000
0000
,  // measure 38
1000
0000
0000
0000
,  // measure 39
0001
0000
0000
0000
,  // measure 40
0010
0000
0000
0000
,  // measure 41
0100
0000
0000
0000
,  // measure 42
1000
0000
0000
0000
,  // measure 43
0001
0000
0000
0000
,  // measure 44
0100
0000
0000
0000
;

//---------------dance-single - Chewi----------------
#NOTES:
     dance-single:
     Chewi:
     Easy:
     4:
     0.210,0.209,0.086,0.065,0.000: // measure 1
0000
0000
0000
0000
,  // measure 2
0000
0000
0000
0000
,  // measure 3
0000
0000
0000
0000
,  // measure 4
0000
0000
0000
0000
,  // measure 5
0010
0010
0100
0100
,  // measure 6
0010
0100
0010
0100
,  // measure 7
0001
0001
1000
1000
,  // measure 8
0001
1000
0001
1000
,  // measure 9
0001
0010
0100
0010
,  // measure 10
0001
0010
0100
0010
,  // measure 11
0001
0100
1000
0010
,  // measure 12
0020
0000
0000
0030
,  // measure 13
1000
0000
1001
0000
,  // measure 14
0001
0000
0020
0230
,  // measure 15
0310
0000
0110
0000
,  // measure 16
0100
0000
2000
3002
,  // measure 17
1003
0000
0110
0000
,  // measure 18
0001
0000
0100
0110
,  // measure 19
0020
0000
0000
0000
,  // measure 20
0031
0001
1000
0100
,  // measure 21
0000
0010
0100
0010
,  // measure 22
1000
1000
0010
0001
,  // measure 23
0000
0100
0001
0100
,  // measure 24
1000
0010
0100
0001
,  // measure 25
0000
0100
0010
0100
,  // measure 26
0001
0010
0100
1000
,  // measure 27
0000
1000
0100
1000
,  // measure 28
0010
0001
0010
1000
,  // measure 29
0000
0010
0100
0001
,  // measure 30
1000
0100
0010
0100
,  // measure 31
0000
1000
0100
1000
,  // measure 32
0100
0001
0010
0100
,  // measure 33
0000
0010
0100
0010
,  // measure 34
1000
0001
0010
0100
,  // measure 35
0000
0010
0001
0001
,  // measure 36
0010
0000
0100
0000
,  // measure 37
1001
0000
1000
0001
,  // measure 38
1000
0000
0110
0000
,  // measure 39
0001
0000
0100
0001
,  // measure 40
0010
0000
1001
0000
,  // measure 41
0100
0000
0001
0010
,  // measure 42
1000
0000
0110
0000
,  // measure 43
0001
0000
0100
0100
,  // measure 44
0100
0000
0000
0000
;

//---------------dance-single - Chewi----------------
#NOTES:
     dance-single:
     Chewi:
     Medium:
     7:
     0.254,0.255,0.097,0.173,0.000: // measure 1
0000
0000
0000
0000
,  // measure 2
0000
0000
0000
0000
,  // measure 3
0000
0000
0000
0000
,  // measure 4
0000
0000
0000
0000
,  // measure 5
2000
3002
0103
0100
,  // measure 6
0010
0100
0001
1000
,  // measure 7
0100
0000
0000
0100
0000
0000
0110
0000
,  // measure 8
0000
0000
0000
0000
,  // measure 9
0020
0032
0013
0100
,  // measure 10
1000
0010
0001
0100
,  // measure 11
0010
0000
0000
0010
0000
0000
0110
0000
,  // measure 12
1000
0100
1000
0100
0000
1001
0000
0000
,  // measure 13
0100
0000
0000
0100
0000
0000
0010
0000
,  // measure 14
0000
0010
0000
0000
0100
0000
0010
0000
,  // measure 15
1000
0000
0000
0100
0000
0000
0010
0000
,  // measure 16
0000
0001
0000
0000
0001
0000
0010
0000
,  // measure 17
0001
0000
0000
1000
0000
0000
0010
0000
,  // measure 18
0000
0100
0000
0000
0010
0000
0010
0000
,  // measure 19
0010
0000
1000
0100
0001
0000
0000
0000
,  // measure 20
0010
1000
0010
0001
,  // measure 21
0100
0100
0100
0000
0010
0010
0010
0000
,  // measure 22
0001
0010
0001
0100
,  // measure 23
0001
0001
0001
0000
1000
1000
1000
0000
,  // measure 24
0100
0010
1000
0001
,  // measure 25
0010
0001
0010
0000
0100
1000
0100
0000
,  // measure 26
1000
0100
0001
0010
,  // measure 27
0100
0010
0001
0100
,  // measure 28
0010
1000
0100
0010
,  // measure 29
0001
1100
1000
0101
,  // measure 30
0100
0010
0001
0100
,  // measure 31
0010
0110
0100
0110
,  // measure 32
0001
0100
1000
0010
,  // measure 33
1000
0100
0001
0010
,  // measure 34
0100
0010
0001
0101
,  // measure 35
0100
0010
1000
1100
,  // measure 36
2000
0000
0000
3020
0000
0000
0230
0000
,  // measure 37
0000
0300
0001
0100
,  // measure 38
0002
0000
0000
2003
0000
0000
3020
0000
,  // measure 39
0000
0030
0100
0100
,  // measure 40
0020
0000
0000
2030
0000
0000
3002
0000
,  // measure 41
0000
0003
0010
0100
,  // measure 42
2000
0000
0000
3200
0000
0000
2300
0000
,  // measure 43
0000
3000
0010
0001
,  // measure 44
0100
0000
0000
0000
;

//---------------dance-single - Chewi----------------
#NOTES:
     dance-single:
     Chewi:
     Hard:
     10:
     0.316,0.325,0.270,0.000,0.119: // measure 1
0000
0000
0000
0000
,  // measure 2
0000
0000
0000
0000
,  // measure 3
0000
0000
0000
0000
,  // measure 4
0000
0000
0000
0000
,  // measure 5
1000
0000
1100
0000
0001
0100
0001
0000
,  // measure 6
0100
0010
1000
0001
,  // measure 7
1000
0000
0000
0100
0000
0000
0011
0000
,  // measure 8
0000
0000
0000
0000
,  // measure 9
0001
0000
0011
0000
0100
1000
0100
0000
,  // measure 10
1000
0000
0001
0000
0100
1000
0010
0000
,  // measure 11
0110
0000
0000
0010
0000
0000
1010
0000
,  // measure 12
1000
1000
0001
0001
0000
1001
0000
0000
,  // measure 13
0001
0000
0000
0011
0000
0000
0100
0000
,  // measure 14
0000
1100
0000
0000
1001
0000
1001
0000
,  // measure 15
1000
0000
0000
1010
0000
0000
0001
0000
,  // measure 16
0000
0101
0000
0000
0110
0000
1001
0000
,  // measure 17
1000
0000
0000
1100
0000
0000
0001
0000
,  // measure 18
0000
0011
0000
0000
0110
0000
1001
0000
,  // measure 19
0001
0000
0000
0000
0010
0100
1000
0100
0000
0000
0000
0000
0000
1000
0001
1000
,  // measure 20
0001
0000
0000
0010
0000
0000
1000
0000
0000
0001
0000
0000
0010
0000
0000
0000
,  // measure 21
0000
0001
0010
0100
1000
0000
0100
0000
,  // measure 22
1000
0000
0000
0100
0000
0000
0010
0000
0000
0001
0000
0000
1000
0000
0000
0000
,  // measure 23
0000
0000
0001
1000
0010
0100
0100
0010
,  // measure 24
1000
0000
0000
0100
0000
0000
0010
0000
0000
0001
0000
0000
0010
0000
0000
0000
,  // measure 25
0000
0001
0010
0100
1000
0010
0001
0000
,  // measure 26
0010
0000
0000
0100
0000
0000
0001
0000
0000
0010
0000
0000
0100
0000
0000
0000
,  // measure 27
0000
0000
0000
0000
0000
1000
0010
0100
,  // measure 28
0001
0000
0000
0100
0000
0000
0010
0000
0000
1000
0000
0000
0001
0000
0000
0000
,  // measure 29
1000
0100
1000
0001
1000
0010
1000
0000
,  // measure 30
0001
0000
0000
0100
0000
0000
0010
0000
0000
0100
0000
0000
0001
0000
0000
0000
,  // measure 31
0001
0100
0001
0010
0001
1000
0001
0100
,  // measure 32
0010
0000
0000
0100
0000
0000
0001
0000
0000
1000
0000
0000
0100
0000
0000
0000
,  // measure 33
0010
0001
1000
0100
0010
0001
1000
0010
,  // measure 34
0100
0000
0000
0001
0000
0000
0100
0000
0000
0010
0000
0000
1000
0000
0000
0000
,  // measure 35
0001
0000
1000
0000
0100
0000
0010
0000
0001
0010
0001
0000
0100
1000
0100
0000
,  // measure 36
1000
0000
0000
1001
0000
0000
0001
0000
,  // measure 37
0000
0000
0000
1000
0010
0100
0001
0100
,  // measure 38
0010
0000
0000
1001
0000
0000
0100
0000
,  // measure 39
0000
0000
1000
0100
0010
0001
0010
0100
,  // measure 40
1000
0000
0000
1010
0000
0000
1001
0000
,  // measure 41
0000
0000
0000
0010
0100
1000
0100
0010
,  // measure 42
0001
0000
0000
0011
0000
0000
1001
0000
,  // measure 43
0000
0000
0000
0000
0000
0100
0100
0000
,  // measure 44
0110
0000
0000
0000
;
