#TITLE:Rain Song;
#SUBTITLE:;
#ARTIST:Girls Dead Monster;
#TITLETRANSLIT:;
#SUBTITLETRANSLIT:;
#ARTISTTRANSLIT:;
#GENRE:;
#CREDIT:yamamoto_;
#MENUCOLOR:;
#METERTYPE:DDR X;
#BANNER:Rain Song.png;
#BACKGROUND:Rain Song-bg.png;
#LYRICSPATH:;
#CDTITLE:;
#MUSIC:Rain Song.mp3;
#OFFSET:-0.290;
#SAMPLESTART:49.450;
#SAMPLELENGTH:15.000;
#SELECTABLE:YES;
#LISTSORT:;
#DISPLAYBPM:161.000;
#BPMS:0.000=161.000;
#STOPS:;
#BGCHANGES:;
#ATTACKS:;

//---------------dance-single - yamamoto_----------------
#NOTES:
     dance-single:
     yamamoto_:
     Beginner:
     3:
     0.108,0.166,0.011,0.111,0.000: // measure 1
0000
0000
0000
0000
,  // measure 2
0000
0000
0000
0000
,  // measure 3
0000
0000
0000
0000
,  // measure 4
0000
0000
0000
0000
,  // measure 5
1000
0000
0000
0000
,  // measure 6
2000
0000
0000
3000
,  // measure 7
1000
0000
0000
0000
,  // measure 8
0002
0000
0000
0003
,  // measure 9
0001
0000
0001
0000
,  // measure 10
1001
0000
0000
0000
,  // measure 11
0010
0000
0000
0000
,  // measure 12
0100
0000
0000
0000
,  // measure 13
1000
0000
0000
0000
,  // measure 14
0010
0000
0000
0000
,  // measure 15
0001
0000
0000
0000
,  // measure 16
0010
0000
0010
0000
,  // measure 17
0010
0000
0000
0000
,  // measure 18
0100
0000
0000
0000
,  // measure 19
0001
0000
0000
0000
,  // measure 20
0010
0000
0000
0000
,  // measure 21
0100
0000
0000
0000
,  // measure 22
0100
0000
0000
0000
,  // measure 23
0001
0000
0000
0000
,  // measure 24
0001
0000
0000
0000
,  // measure 25
1000
0000
0000
0000
,  // measure 26
1000
0000
0000
0000
,  // measure 27
0001
0000
0000
0000
,  // measure 28
1000
0000
0000
0000
,  // measure 29
0001
0000
0000
0000
,  // measure 30
0010
0000
0000
0000
,  // measure 31
0010
0000
0000
0000
,  // measure 32
0010
0000
0000
0000
,  // measure 33
0100
0000
0000
0000
,  // measure 34
1000
0000
0000
0000
,  // measure 35
1000
0000
0000
0000
,  // measure 36
1000
0000
0000
0000
,  // measure 37
0100
0000
0000
0000
,  // measure 38
0100
0000
0000
0000
,  // measure 39
0100
0000
0000
0000
,  // measure 40
0001
0000
0000
0000
,  // measure 41
0001
0000
0000
0000
,  // measure 42
0001
0000
0000
0000
,  // measure 43
1000
0000
0000
0000
,  // measure 44
0001
0000
0000
0000
,  // measure 45
0001
0000
0000
0000
,  // measure 46
1000
0000
0000
0000
,  // measure 47
1000
0000
0000
0000
,  // measure 48
2000
0000
0000
3000
,  // measure 49
0002
0000
0000
0003
,  // measure 50
2000
0000
0000
3000
,  // measure 51
0002
0000
0000
0003
,  // measure 52
0100
0000
0000
0000
,  // measure 53
0200
0000
0000
0300
,  // measure 54
0100
0000
0000
0000
,  // measure 55
0020
0000
0000
0030
,  // measure 56
0010
0000
0000
0000
,  // measure 57
2000
0000
0000
3000
,  // measure 58
1000
0000
0000
0000
,  // measure 59
0002
0000
0000
0000
,  // measure 60
0000
0000
0000
0000
,  // measure 61
0003
0000
0000
0000
;

//---------------dance-single - yamamoto_----------------
#NOTES:
     dance-single:
     yamamoto_:
     Easy:
     5:
     0.220,0.266,0.033,0.188,0.000: // measure 1
0000
0000
0000
0000
,  // measure 2
0000
0000
0000
0000
,  // measure 3
0000
0000
0000
0000
,  // measure 4
0000
0000
0000
0000
,  // measure 5
1000
0000
0001
0000
,  // measure 6
2000
0000
0000
0000
,  // measure 7
3001
0000
1000
0000
,  // measure 8
0002
0000
0000
0000
,  // measure 9
0103
0100
0100
0100
,  // measure 10
0110
0000
0000
0000
,  // measure 11
0010
0000
0000
0000
,  // measure 12
1001
0000
0000
0000
,  // measure 13
1000
0000
0000
0000
,  // measure 14
1001
0000
0000
0000
,  // measure 15
0001
0000
0000
0000
,  // measure 16
0010
0100
0010
0100
,  // measure 17
0000
0000
0000
0000
,  // measure 18
0100
0000
0010
0000
,  // measure 19
0001
0010
0100
1000
,  // measure 20
0010
0000
1000
0000
,  // measure 21
0100
1000
0010
1000
,  // measure 22
0100
0000
0010
0000
,  // measure 23
0001
0010
0100
1000
,  // measure 24
0001
1000
0001
1000
,  // measure 25
0000
0000
0000
0000
,  // measure 26
1000
0000
0010
0000
,  // measure 27
0001
0010
1000
0000
,  // measure 28
1000
0000
0100
0000
,  // measure 29
0001
0100
1000
0000
,  // measure 30
0010
0000
0001
0000
,  // measure 31
0010
0100
1000
0000
,  // measure 32
0010
0100
0001
0100
,  // measure 33
0000
0000
0000
0000
,  // measure 34
1000
0001
0010
0100
,  // measure 35
2000
0000
3001
0000
,  // measure 36
0010
0100
0001
1000
,  // measure 37
0200
0000
0310
0000
,  // measure 38
0001
0010
0100
1000
,  // measure 39
0002
0000
1003
0000
,  // measure 40
1000
0010
0100
0001
,  // measure 41
0200
0000
0310
0000
,  // measure 42
1000
0100
0010
0100
,  // measure 43
2000
0000
3100
0000
,  // measure 44
0001
0100
0010
0100
,  // measure 45
0002
0000
0103
0000
,  // measure 46
0001
1000
0100
0010
,  // measure 47
0200
0000
0310
0000
,  // measure 48
0200
0000
0000
0300
,  // measure 49
0002
0000
0000
0003
,  // measure 50
0020
0000
0000
0030
,  // measure 51
2000
0000
0000
3000
,  // measure 52
0100
0000
0010
0000
,  // measure 53
0200
0000
0000
0000
,  // measure 54
0310
0000
0100
0000
,  // measure 55
0020
0000
0000
0000
,  // measure 56
1030
0000
0001
0000
,  // measure 57
2000
0000
0000
0000
,  // measure 58
3001
0000
1000
0000
,  // measure 59
0002
0000
0000
0000
,  // measure 60
0000
0000
0000
0000
,  // measure 61
0003
0000
0000
0000
;

//---------------dance-single - yamamoto_----------------
#NOTES:
     dance-single:
     yamamoto_:
     Medium:
     7:
     0.307,0.365,0.066,0.133,0.000: // measure 1
0000
0000
0000
0000
,  // measure 2
0000
0000
0000
0000
,  // measure 3
0000
0000
0000
0000
,  // measure 4
0000
0000
0000
0000
,  // measure 5
1000
0001
0000
1000
0001
0000
1000
0001
,  // measure 6
2000
0000
0000
0000
,  // measure 7
3001
1000
0000
0001
1000
0000
0001
1000
,  // measure 8
0002
0000
0000
0000
,  // measure 9
0013
0010
0100
0100
,  // measure 10
0010
0000
0000
0001
0000
0000
0010
0000
,  // measure 11
0000
0000
0000
0000
,  // measure 12
0100
0000
0000
1000
0000
0000
0100
0000
,  // measure 13
0000
0000
0000
0000
,  // measure 14
1000
0000
0000
0001
0000
0000
1000
0000
,  // measure 15
0000
0000
0000
0000
,  // measure 16
0010
0100
0001
1001
,  // measure 17
0000
0000
0000
0000
,  // measure 18
0001
0000
0000
0010
0000
0100
1000
0000
,  // measure 19
0000
0100
0010
0001
,  // measure 20
1000
0000
0000
0010
0000
0100
0001
0000
,  // measure 21
0100
0010
1000
0001
,  // measure 22
1000
0000
0000
0100
0000
1000
0100
0000
,  // measure 23
0000
0100
0010
0001
,  // measure 24
0001
0100
0010
1010
,  // measure 25
0000
0000
0000
0000
,  // measure 26
1000
0000
0001
1000
0000
1000
0001
0000
,  // measure 27
0000
0010
0100
1000
,  // measure 28
0010
0000
0100
0010
0000
0010
0100
0000
,  // measure 29
0100
0001
0010
0100
,  // measure 30
1000
0000
0010
1000
0000
1000
0100
0000
,  // measure 31
0000
0010
0100
0001
,  // measure 32
1100
0101
1100
0202
,  // measure 33
0000
0000
0000
0303
,  // measure 34
0100
0010
1000
0001
,  // measure 35
1000
0100
0010
0001
,  // measure 36
1000
0100
0001
0010
,  // measure 37
1000
0100
0010
0001
,  // measure 38
0100
0010
0100
0001
,  // measure 39
0100
0010
0001
0100
,  // measure 40
1000
0010
0100
0001
,  // measure 41
1000
0100
1000
0000
0001
0010
0001
0000
,  // measure 42
1000
0001
0010
0100
,  // measure 43
0010
1000
0001
0100
,  // measure 44
0010
1000
0100
0001
,  // measure 45
0010
1000
0001
0100
,  // measure 46
1000
0001
1000
0100
,  // measure 47
1000
0001
0100
1000
,  // measure 48
0020
0000
0000
0000
,  // measure 49
0230
0000
0000
0000
,  // measure 50
0302
0000
0000
0000
,  // measure 51
2003
0000
0000
0000
,  // measure 52
3001
1000
0000
0001
1000
0000
0001
1000
,  // measure 53
0002
0000
0000
0000
,  // measure 54
1003
0001
0000
1000
0001
0000
1000
0001
,  // measure 55
2000
0000
0000
0000
,  // measure 56
3010
0100
0000
0010
0100
0000
0010
0100
,  // measure 57
0020
0000
0000
0000
,  // measure 58
0130
0010
0000
0100
0010
0000
0100
0010
,  // measure 59
0200
0000
0000
0000
,  // measure 60
0000
0000
0000
0000
,  // measure 61
0300
0000
0000
0000
;

//---------------dance-single - yamamoto_----------------
#NOTES:
     dance-single:
     yamamoto_:
     Hard:
     11:
     0.486,0.498,0.365,0.133,0.000: // measure 1
0000
0000
0000
0000
,  // measure 2
0000
0000
0000
0000
,  // measure 3
0000
0000
0000
0000
,  // measure 4
0000
0000
0000
0000
,  // measure 5
1000
0001
0000
1000
0001
0010
0100
1000
,  // measure 6
0020
0000
0000
0030
,  // measure 7
1000
0010
0000
1000
0010
0100
0001
0010
,  // measure 8
0200
0000
0000
0300
,  // measure 9
0110
0110
0110
0110
,  // measure 10
0010
0000
0001
0010
0000
0010
0001
0000
,  // measure 11
0010
0000
0100
1000
0000
1000
0100
0000
,  // measure 12
1000
0000
0001
1000
0000
1000
0001
0000
,  // measure 13
0100
0000
0010
0100
0000
0100
0010
0000
,  // measure 14
1000
0000
0010
1000
0000
0100
1000
0000
,  // measure 15
0010
0000
0100
0001
0000
0010
0001
0000
,  // measure 16
0010
0000
0100
0000
1000
0001
1001
0000
,  // measure 17
1000
0100
1000
0100
0010
0001
0010
0001
,  // measure 18
0010
0100
1000
0010
0000
1000
0100
0000
,  // measure 19
0010
0011
1000
1100
,  // measure 20
0001
1000
0010
0100
0001
0100
0010
0000
,  // measure 21
0100
0101
1000
1100
,  // measure 22
0010
0100
1000
0001
0100
0010
0100
0000
,  // measure 23
0001
0101
1000
1100
,  // measure 24
0001
0010
0100
1000
0001
0010
0100
0000
,  // measure 25
1000
0001
0010
0000
1000
0001
0100
0000
,  // measure 26
1000
0001
0100
0010
0000
0100
0010
0000
,  // measure 27
1000
1010
0001
0011
,  // measure 28
0001
0010
0100
1000
0000
0100
1000
0000
,  // measure 29
0100
1001
0010
1001
,  // measure 30
1000
0010
0100
0001
0000
0100
0001
0000
,  // measure 31
0100
0101
0001
0101
,  // measure 32
0001
1000
0100
0010
0001
0010
0002
0000
,  // measure 33
0000
0000
0000
1003
,  // measure 34
1000
0001
0100
0010
1000
0001
0100
0010
,  // measure 35
0000
0010
0000
1010
0000
1100
0000
0000
,  // measure 36
1000
0100
0010
0001
1000
0100
0010
0001
,  // measure 37
0000
0001
0000
1001
0000
0101
0000
0000
,  // measure 38
0100
0010
1000
0010
0100
0001
1000
0001
,  // measure 39
0000
1000
0000
0011
0000
1100
0000
0000
,  // measure 40
1001
0000
0101
0000
0100
0010
1000
0001
,  // measure 41
1000
0000
0100
0010
0000
0110
0000
0000
,  // measure 42
0100
0010
0001
1000
0010
0100
0001
1000
,  // measure 43
0000
0010
0000
0101
0000
0011
0000
0000
,  // measure 44
1000
0100
0010
0001
1000
0100
0010
0001
,  // measure 45
0000
0010
0000
1100
0000
1001
0000
0000
,  // measure 46
0001
1000
0010
0100
0001
1000
0100
0010
,  // measure 47
0000
0100
0000
1100
0000
0101
0000
0000
,  // measure 48
2002
0000
0000
3000
,  // measure 49
0200
0000
0000
0003
,  // measure 50
0020
0000
0000
0300
,  // measure 51
2000
0000
0000
3030
,  // measure 52
1000
0010
0100
0001
1000
0010
0100
0001
,  // measure 53
2000
0000
0000
0000
,  // measure 54
3001
0010
0100
1000
0010
1000
0100
0010
,  // measure 55
0002
0000
0000
0000
,  // measure 56
0013
0100
1000
0001
0100
0010
0100
0010
,  // measure 57
0200
0000
0000
0000
,  // measure 58
0310
0100
0001
1000
0100
0010
0001
0010
,  // measure 59
0020
0000
0000
0000
,  // measure 60
0000
0000
0000
0000
,  // measure 61
0030
0000
0000
0000
;
