#TITLE:ROCK BEAT(Summer Contest Edit);
#SUBTITLE:;
#ARTIST:LOUD FORCE;
#TITLETRANSLIT:;
#SUBTITLETRANSLIT:;
#ARTISTTRANSLIT:;
#GENRE:;
#CREDIT:Chewphoria~;
#MENUCOLOR:;
#METERTYPE:DDR;
#BANNER:DDR Edit - ROCK BEAT.png;
#BACKGROUND:DDR Edit - ROCK BEAT-bg.png;
#LYRICSPATH:;
#CDTITLE:./CDTITLES/Summer Contest 2010.PNG;
#MUSIC:DDR Edit - ROCK BEAT.mp3;
#OFFSET:-0.160;
#SAMPLESTART:3.320;
#SAMPLELENGTH:12.000;
#SELECTABLE:YES;
#LISTSORT:;
#DISPLAYBPM:150.000;
#BPMS:0.000=150.000;
#STOPS:;
#BGCHANGES:;
#ATTACKS:;

//---------------dance-single - ----------------
#NOTES:
     dance-single:
     :
     Easy:
     4:
     0.275,0.305,0.255,0.100,0.000:
0000
0000
0000
0000
,
0000
0000
0000
0000
,
1000
0000
0001
0000
,
1000
0000
0001
0000
,
1000
0000
0001
0000
,
2002
0000
3003
0000
,
0100
0000
0010
0000
,
0100
0000
0010
0000
,
0100
0000
0010
0000
,
0220
0000
0000
0330
,
0000
1000
0100
0010
,
0001
1000
0100
0010
,
0001
1000
0100
0010
,
0001
1000
0100
0010
,
0001
0100
0010
1000
,
0001
0100
0010
1000
,
0001
0100
0010
1000
,
0001
0100
0010
1000
,
1001
0000
1001
0000
,
0100
0100
0100
0000
,
1001
0000
1001
0000
,
0010
0010
0010
0000
,
0110
0000
0110
0000
,
1000
1000
1000
0000
,
0110
0000
0110
0000
,
0001
0001
0001
0000
,
0200
0000
0000
0300
,
0010
0100
0010
0100
,
1001
0000
1000
0000
,
1000
0001
1000
0001
,
0100
0000
0010
0000
,
0010
0100
0010
0100
,
1001
0000
0101
0000
,
1001
0000
1100
0000
,
1000
1000
0001
0001
,
0020
0000
0000
0000
,
0030
0000
0000
0000
,
0100
0001
0100
0001
,
0100
0001
0100
0001
,
0100
1000
0100
1000
,
2000
0000
0000
3000
,
0010
1000
0010
1000
,
0010
1000
0010
1000
,
0010
0001
0010
0001
,
0020
0000
0000
0030
,
0100
0000
0010
0000
,
1001
1000
1001
0000
,
0010
0000
0100
0000
,
1001
0001
1001
0000
,
1000
0000
0001
0000
,
0110
0010
0110
0000
,
0001
0000
1000
0000
,
0110
0100
0110
0000
,
1000
0100
0001
0100
,
2000
0000
0000
0000
,
3000
0000
0000
0000
;

//---------------dance-single - ----------------
#NOTES:
     dance-single:
     :
     Medium:
     6:
     0.437,0.426,0.742,0.244,0.000:
0000
0000
0000
0000
,
0000
0000
0000
0000
,
2000
0001
0010
3001
,
0002
1000
0010
1003
,
2000
0001
0010
3001
,
0202
0000
0000
0303
,
0002
1000
0010
1003
,
2000
0001
0010
3001
,
0002
1000
0010
1003
,
2020
0000
0000
3030
,
1000
0000
0001
0000
1000
0001
1000
0000
,
0001
0000
1000
0000
0001
1000
0001
0000
,
0100
0000
0010
0000
0100
0010
0100
0000
,
0010
0000
0100
0000
0010
0100
0010
0000
,
0010
1000
0100
0000
0100
0000
1100
0000
,
0010
0001
0100
0000
0100
0000
0101
0000
,
1001
0100
1001
0100
,
1001
0010
1001
0010
,
1010
0000
0101
0000
,
0011
1010
0011
0000
,
1100
0000
0101
0000
,
0101
1100
0101
0000
,
1001
0000
0110
0000
,
1001
0110
1001
0000
,
0110
0000
1001
0000
,
0110
1001
0110
0000
,
2002
0000
0000
0000
,
0000
0000
0000
3003
,
1000
1100
0001
0101
,
0100
0100
0100
0000
0010
0010
0010
0000
,
1000
1100
0001
0101
,
0012
1000
0100
1003
,
1000
1100
0001
0101
,
0010
0010
0010
0000
0100
0100
0100
0000
,
0001
1001
1000
1001
,
2200
0000
0000
3300
,
0001
0000
0000
0000
,
0010
1000
0010
0000
1000
0000
1100
0000
,
0010
0001
0010
0000
0001
0000
0101
0000
,
1000
0001
1000
0000
0001
0000
1001
0000
,
0200
0010
0010
0310
,
0001
0100
0001
0000
1000
0000
1100
0000
,
1000
0100
1000
0000
0001
0000
0101
0000
,
1000
0010
1000
0000
0001
0000
1001
0000
,
0220
0000
0000
0330
,
0001
1100
1000
0101
,
1001
1001
1001
0000
,
1000
1010
0001
0011
,
1001
1001
1001
0000
,
0100
0110
0010
0110
,
1001
1001
1001
0000
,
1000
1100
0001
0101
,
1001
1001
1001
0000
,
0020
0130
0200
0310
,
2002
0000
0000
0000
,
3003
0000
0000
0000
;

//---------------dance-single - ----------------
#NOTES:
     dance-single:
     :
     Hard:
     8:
     0.558,0.548,0.399,0.421,0.000:
0000
0000
0000
0000
,
0000
0000
0000
0000
,
2000
0000
3001
1000
0000
1010
0000
0000
,
2000
0000
3001
0010
0000
0011
0000
0000
,
0200
0000
0310
0100
0000
0110
0000
0000
,
0010
1000
0100
0001
0100
1000
0010
0000
,
0200
0000
0301
0100
0000
1100
0000
0000
,
2000
0000
3100
1000
0000
0101
0000
0000
,
0020
0000
0130
0010
0000
1001
0000
0000
,
0100
0001
0010
1000
0100
0001
0010
0000
,
0001
0010
0100
1000
0001
0010
0100
1000
,
0001
0010
0100
1000
0001
0010
0100
1000
,
1000
0100
0010
0001
1000
0100
0010
0001
,
1000
0100
0010
0001
1000
0100
0010
0001
,
0001
0100
0010
1000
0001
0100
0010
1000
,
0001
0100
0010
1000
0001
0100
0010
1000
,
1000
0100
0010
0001
1000
0100
0010
0001
,
1000
0100
0010
0001
1000
0100
0010
0001
,
0022
0033
0202
0303
,
0010
1000
0010
2000
0000
3000
0000
0000
,
2020
3030
2200
3300
,
0010
0001
0010
0002
0000
0003
0000
0000
,
2200
3300
2020
3030
,
0100
0001
0100
0002
0000
0003
0000
0000
,
0202
0303
0022
0033
,
0100
1000
0100
2000
0000
3000
0000
0000
,
0001
1001
0100
0110
,
0010
0110
1000
1001
,
0001
0000
0000
0001
0100
0010
1000
0000
,
1001
0110
1001
0110
,
1000
0100
1000
0000
0001
0100
0001
0000
,
1020
0230
0302
0023
,
0031
0000
1100
0000
0001
0100
0001
0000
,
1000
0010
0001
0010
1000
0100
1001
0000
,
0001
0100
0001
0000
1000
0010
1000
0000
,
2002
0000
0000
0000
,
0000
0000
0000
3003
,
1000
0010
0100
0001
1000
0010
0100
0001
,
1000
0010
0100
0001
1000
0010
0100
0001
,
0001
0010
0100
1000
0001
0010
0100
1000
,
0001
0010
0100
1000
0001
0010
0100
1000
,
1000
0100
0010
0001
1000
0100
0010
0001
,
1000
0100
0010
0001
1000
0100
0010
0001
,
0001
0100
0010
1000
0001
0100
0010
1000
,
0001
0100
0010
1000
0001
0100
0010
1000
,
0001
0101
1000
1100
,
1000
0100
0001
0100
2000
0000
3000
0000
,
0001
0011
1000
1010
,
0001
0010
1000
0010
0002
0000
0003
0000
,
1000
0101
0001
1100
,
1000
0100
0001
0100
2000
0000
3000
0000
,
0001
1010
1000
0011
,
0001
0010
1000
0010
0002
0000
0003
0000
,
0001
0010
0100
1000
0010
0000
1010
0000
,
2002
0000
0000
0000
,
3003
0000
0000
0000
;

//---------------dance-single - ----------------
#NOTES:
     dance-single:
     :
     Beginner:
     2:
     0.153,0.209,0.100,0.166,0.000:
0000
0000
0000
0000
,
0000
0000
0000
0000
,
2000
0000
0000
3000
,
1000
0000
0000
0000
,
0002
0000
0000
0003
,
0001
0000
0000
0000
,
0200
0000
0000
0300
,
0100
0000
0000
0000
,
0020
0000
0000
0030
,
0010
0000
0000
0000
,
1001
0000
0000
0000
,
1000
0000
0000
0000
,
0001
0000
0000
0000
,
1000
0000
0000
0000
,
0110
0000
0000
0000
,
0100
0000
0000
0000
,
0010
0000
0000
0000
,
0100
0000
0000
0000
,
1001
0000
1000
0000
,
2000
0000
3000
0000
,
1001
0000
0001
0000
,
0002
0000
0003
0000
,
0110
0000
0010
0000
,
0020
0000
0030
0000
,
0110
0000
0100
0000
,
0200
0000
0300
0000
,
1000
0000
1000
0000
,
1000
0000
1000
0000
,
0002
0000
0000
0003
,
0002
0000
0000
0003
,
0002
0000
0000
0003
,
1001
0000
0000
0000
,
2000
0000
0000
3000
,
2000
0000
0000
3000
,
2000
0000
0000
3000
,
1001
0000
0000
0000
,
0000
0000
0000
0000
,
0100
0000
0100
0000
,
0010
0000
0010
0000
,
0100
0000
0100
0000
,
0010
0000
0010
0000
,
1000
0000
1000
0000
,
0001
0000
0001
0000
,
1000
0000
1000
0000
,
1001
0000
0000
0000
,
0010
0000
0100
0000
,
0100
0000
0100
0000
,
0100
0000
0010
0000
,
0010
0000
0010
0000
,
1000
0000
0001
0000
,
0001
0000
0001
0000
,
0001
0000
1000
0000
,
1000
0000
1000
0000
,
0200
0000
0000
0300
,
0100
0000
0000
0000
;
