#TITLE:REVOLT;
#SUBTITLE:;
#ARTIST:バルシェ;
#TITLETRANSLIT:;
#SUBTITLETRANSLIT:;
#ARTISTTRANSLIT:valshe;
#GENRE:;
#CREDIT:Chewi☆;
#MENUCOLOR:;
#METERTYPE:DDR X;
#BANNER:REVOLT.png;
#BACKGROUND:REVOLT-bg.png;
#LYRICSPATH:;
#CDTITLE:;
#MUSIC:REVOLT.mp3;
#OFFSET:-0.550;
#SAMPLESTART:56.735;
#SAMPLELENGTH:15.000;
#SELECTABLE:YES;
#LISTSORT:;
#BPMS:0.000=170.000;
#STOPS:;
#BGCHANGES:0.000=REVOLT.avi=1.000=1=0=1,
99999=-nosongbg-=1.000=0=0=0 // don't automatically add -songbackground-
;
#ATTACKS:;

//---------------dance-single - Chewi----------------
#NOTES:
     dance-single:
     Chewi:
     Hard:
     12:
     0.588,0.591,0.611,0.282,0.000: // measure 1
0000
0000
0000
0000
,  // measure 2
0000
0000
0000
0000
,  // measure 3
0000
0000
0000
0000
,  // measure 4
0000
0000
0000
0000
,  // measure 5
0000
1000
0100
0000
1000
0100
0000
1100
,  // measure 6
0000
0001
0100
0000
0001
0100
0000
0101
,  // measure 7
0000
0100
0010
0000
0100
0010
0000
0110
,  // measure 8
0000
1010
0000
0101
0000
0011
0000
1001
,  // measure 9
0000
0000
0002
0000
0013
0100
1000
0010
,  // measure 10
2000
0000
3100
0020
0000
0032
0000
2003
,  // measure 11
0000
3000
0010
0100
0001
0100
0010
1000
,  // measure 12
0002
0000
1003
0200
0000
0320
0000
0130
,  // measure 13
2000
0000
3000
0002
0000
0003
0220
0000
,  // measure 14
0000
0000
0330
0000
0000
0010
0100
0010
,  // measure 15
2000
0000
3010
0200
0000
0301
0010
0200
,  // measure 16
0000
1300
0010
1000
0000
2200
0000
0000
,  // measure 17
3300
0000
0020
0000
0130
1000
0010
0100
,  // measure 18
0002
0000
0103
0020
0000
2030
0000
3002
,  // measure 19
0000
0003
1000
0010
0100
0001
1000
0100
,  // measure 20
0020
0000
0031
0020
0000
0230
0000
1300
,  // measure 21
0020
0000
0030
2000
0000
3000
2002
0000
,  // measure 22
0000
0000
3003
0000
0000
0010
0100
1000
,  // measure 23
0002
0000
0103
0020
0000
0130
0001
1000
,  // measure 24
0100
0020
0000
0230
0000
1300
0001
1001
,  // measure 25
0000
1100
0101
1100
,  // measure 26
0101
1001
1001
0110
,  // measure 27
0110
0000
0000
0110
0000
0000
0000
0000
,  // measure 28
1001
0000
0000
1001
0000
0000
0000
0000
,  // measure 29
0000
0101
1010
1001
,  // measure 30
1100
0011
0110
1100
,  // measure 31
1010
0000
0000
0110
0000
0000
0100
0010
,  // measure 32
1000
0001
0010
0100
0000
1000
0010
1000
,  // measure 33
0000
1100
0101
0011
,  // measure 34
1010
1100
0110
1100
,  // measure 35
1001
0000
0000
0101
0000
0000
0100
0010
,  // measure 36
1010
0000
0000
0101
0000
0000
1000
0000
,  // measure 37
1000
0100
0010
0001
0000
0000
0011
0000
,  // measure 38
0001
0010
0100
1000
0000
0000
0001
1000
,  // measure 39
0010
0000
0100
0010
0000
1010
0000
0202
,  // measure 40
0000
0000
0000
0000
0303
0000
0000
1000
,  // measure 41
0100
0010
0100
1000
0010
1000
0100
0010
,  // measure 42
0100
1000
0010
0100
0001
0101
0000
0000
,  // measure 43
0001
0100
0010
0100
0001
0100
0010
0100
,  // measure 44
0001
0010
0100
1000
0010
1010
0000
0000
,  // measure 45
1000
0100
0010
0001
1000
0100
0010
0001
,  // measure 46
0000
0000
1000
0100
0000
1000
0001
0100
,  // measure 47
0010
0000
1000
0001
0000
0100
0100
0100
,  // measure 48
0010
0100
0010
1000
0000
1010
0000
0010
,  // measure 49
1000
0001
0010
0100
1000
0010
1000
0100
,  // measure 50
0010
0001
0100
0010
1000
1010
0000
0000
,  // measure 51
0010
0100
0010
1000
0010
0100
0001
0010
,  // measure 52
0100
1000
0100
1000
0010
1010
0000
0000
,  // measure 53
1000
0001
0100
0010
0000
1000
0100
0000
,  // measure 54
1000
0100
0010
0001
0000
0100
0001
0000
,  // measure 55
0101
0000
1000
1100
0000
1001
0000
0011
,  // measure 56
0000
0000
0101
0110
,  // measure 57
1010
0000
1000
0010
0100
0001
0010
0100
,  // measure 58
0000
1000
1010
0000
0000
0000
0000
0000
,  // measure 59
1001
0000
0101
0000
0100
0100
0100
0000
,  // measure 60
0010
1000
0001
0000
0001
0010
0100
0000
,  // measure 61
1000
0100
1000
0100
0001
0100
0001
0100
,  // measure 62
1000
0010
0100
0000
0001
0100
0010
0000
,  // measure 63
1010
0000
0101
0000
1000
0100
0010
0001
,  // measure 64
0011
0000
0101
0000
0001
0100
0010
1000
,  // measure 65
0001
1000
0001
0000
1000
0001
1000
0000
,  // measure 66
1000
0100
0001
0100
1000
0100
0001
0100
,  // measure 67
1100
0000
1010
0000
1000
0010
0100
0000
,  // measure 68
0101
0000
0011
0000
0001
0010
0100
0000
,  // measure 69
1000
0001
1000
0001
1000
0010
1000
0000
,  // measure 70
0010
0100
0001
0100
0010
0100
0001
0010
,  // measure 71
0011
0000
0100
1000
0010
1000
0100
0010
,  // measure 72
0011
0000
0010
0100
1000
0010
1000
0100
,  // measure 73
1100
0000
1000
1010
0000
0101
0000
1001
,  // measure 74
0000
0010
1000
0001
0010
0100
1000
0010
,  // measure 75
1000
0100
1000
0000
0001
0010
0001
0011
,  // measure 76
0000
1000
1100
0000
0000
0000
0000
0000
,  // measure 77
0000
1000
0100
0000
0010
0001
0100
0010
,  // measure 78
0000
0100
0010
0000
1000
0010
0100
0001
,  // measure 79
0000
1000
0100
0000
0010
0100
1000
0010
,  // measure 80
0000
1000
0100
0000
0010
0001
0100
0010
,  // measure 81
0000
0100
0001
0000
0100
0010
1000
0001
,  // measure 82
0000
0010
0100
0000
0010
0001
0010
0100
,  // measure 83
0000
1000
0010
0000
1000
0100
0010
0011
,  // measure 84
0000
1000
0100
1100
0000
0101
0000
0000
,  // measure 85
2002
0000
0000
0000
,  // measure 86
0000
0000
0000
0000
,  // measure 87
3003
0000
0000
0000
;

//---------------dance-single - Chewi----------------
#NOTES:
     dance-single:
     Chewi:
     Medium:
     8:
     0.366,0.394,0.336,0.015,0.000: // measure 1
0000
0000
0000
0000
,  // measure 2
0000
0000
0000
0000
,  // measure 3
0000
0000
0000
0000
,  // measure 4
0000
0000
0000
0000
,  // measure 5
0000
1000
0000
0000
1000
0100
0000
0000
,  // measure 6
0000
0000
0001
0000
0001
0100
0000
0000
,  // measure 7
0000
0100
0000
0000
0100
0010
0000
0010
,  // measure 8
0000
0010
1000
0010
0000
1001
0000
0000
,  // measure 9
0000
1000
0100
0010
,  // measure 10
0001
0000
0010
0001
0000
0010
0000
0001
,  // measure 11
0000
0001
0010
0100
,  // measure 12
1000
0000
0100
1000
0000
0100
0000
1000
,  // measure 13
0100
0000
0000
0001
0000
0000
0100
0000
,  // measure 14
0000
0000
0000
0010
,  // measure 15
1000
0000
0000
0010
0000
0000
0100
0000
,  // measure 16
0001
0000
0010
0100
0000
1000
0000
0000
,  // measure 17
0000
0010
1000
0100
,  // measure 18
0010
0000
0001
0010
0000
0100
0000
1000
,  // measure 19
0000
0001
1000
0010
,  // measure 20
0100
0000
0010
1000
0000
0010
0000
0000
,  // measure 21
0100
0000
0000
0001
0000
0000
1000
0000
,  // measure 22
0000
0000
0000
0000
0000
0001
0010
0000
,  // measure 23
0100
0000
0000
1000
0000
0000
0010
0000
,  // measure 24
1000
0000
0000
1100
0000
0000
0011
0000
,  // measure 25
0000
1001
1001
1001
,  // measure 26
1001
1000
0100
0010
,  // measure 27
0001
0000
0000
0001
0000
0000
0000
0000
,  // measure 28
1000
0000
0000
1000
0000
0000
0000
0000
,  // measure 29
0000
0110
0110
0110
,  // measure 30
0110
0010
0100
0010
,  // measure 31
1000
0000
0000
0001
0000
0000
1000
0000
,  // measure 32
0100
0010
0100
1000
0000
0000
0010
0000
,  // measure 33
0000
1010
1010
1010
,  // measure 34
1010
0100
0001
0100
,  // measure 35
0010
0000
0000
1000
0000
0000
0001
0000
,  // measure 36
0010
0000
0000
0100
0000
0000
0010
0000
,  // measure 37
0001
0000
0000
1000
0000
0000
0100
0000
,  // measure 38
0010
0000
0000
0100
0000
1000
0000
0000
,  // measure 39
0001
0000
0000
1100
0000
0101
0000
1100
,  // measure 40
0000
0000
0000
0000
,  // measure 41
1000
0010
0100
0001
,  // measure 42
1000
0100
1100
0000
,  // measure 43
1000
0100
0010
0001
,  // measure 44
0100
0001
0101
0000
,  // measure 45
0100
0000
0010
0000
1000
0000
0001
1000
,  // measure 46
0000
0001
0010
0100
,  // measure 47
1000
0010
1000
0100
,  // measure 48
0110
0000
0000
0110
0000
0110
0000
0000
,  // measure 49
0001
0010
0100
1000
,  // measure 50
0010
1000
1010
0000
,  // measure 51
1000
0010
0100
0001
,  // measure 52
0100
0010
0110
0000
,  // measure 53
1010
1000
0001
0000
,  // measure 54
1001
1000
0100
0000
,  // measure 55
0010
0000
0001
0010
0000
0100
0000
1000
,  // measure 56
0000
0000
1000
0001
,  // measure 57
1000
0000
0010
0000
0100
0000
0001
0100
,  // measure 58
0000
1010
0000
0000
,  // measure 59
1000
0100
0010
0011
,  // measure 60
0001
1000
0100
0000
1000
0000
0100
0000
,  // measure 61
1000
0001
0100
0101
,  // measure 62
0100
0010
0100
0000
0010
0000
1000
0000
,  // measure 63
0001
0010
1000
0100
,  // measure 64
0001
0010
0100
0110
,  // measure 65
0010
0001
0100
1000
,  // measure 66
0010
0100
0010
0110
,  // measure 67
0010
1000
0001
1100
,  // measure 68
0010
0000
0100
0000
1000
0100
1000
0000
,  // measure 69
0010
0100
0001
0101
,  // measure 70
0100
0000
0010
0000
1000
0010
1000
0000
,  // measure 71
0001
0000
1000
0100
0010
0000
0001
0000
,  // measure 72
1000
0000
0001
0100
0010
0000
1000
0000
,  // measure 73
1001
0000
0000
1001
0000
1001
0000
1001
,  // measure 74
0000
0000
0001
0010
,  // measure 75
0100
0000
1000
0000
0010
1000
0100
0000
,  // measure 76
0010
0000
0001
0000
0100
0010
0100
0000
,  // measure 77
0101
1000
1000
0100
,  // measure 78
0010
0100
1000
0010
,  // measure 79
1100
0010
0100
1000
,  // measure 80
0001
0100
0010
0100
,  // measure 81
0001
0101
1000
0100
,  // measure 82
0010
1100
1000
0001
,  // measure 83
0100
0000
0101
0000
0100
0000
0010
1000
,  // measure 84
0000
0100
1000
0010
0000
0010
0000
0000
,  // measure 85
0220
0000
0000
0000
,  // measure 86
0000
0000
0000
0000
,  // measure 87
0330
0000
0000
0000
;

//---------------dance-single - Chewi----------------
#NOTES:
     dance-single:
     Chewi:
     Beginner:
     1:
     0.087,0.095,0.000,0.000,0.000: // measure 1
0000
0000
0000
0000
,  // measure 2
0000
0000
0000
0000
,  // measure 3
0000
0000
0000
0000
,  // measure 4
0000
0000
0000
0000
,  // measure 5
1000
0000
0000
0000
,  // measure 6
0001
0000
0000
0000
,  // measure 7
0001
0000
0000
0000
,  // measure 8
1000
0000
0000
0000
,  // measure 9
1000
0000
0000
0000
,  // measure 10
0001
0000
0000
0000
,  // measure 11
1000
0000
0000
0000
,  // measure 12
1000
0000
0000
0000
,  // measure 13
0001
0000
0000
0000
,  // measure 14
0001
0000
0000
0000
,  // measure 15
1000
0000
0000
0000
,  // measure 16
1000
0000
0000
0000
,  // measure 17
0010
0000
0000
0000
,  // measure 18
0010
0000
0000
0000
,  // measure 19
0100
0000
0000
0000
,  // measure 20
0100
0000
0000
0000
,  // measure 21
1000
0000
0000
0000
,  // measure 22
0001
0000
0000
0000
,  // measure 23
1000
0000
0000
0000
,  // measure 24
0001
0000
0000
0000
,  // measure 25
1000
0000
0000
0000
,  // measure 26
0100
0000
0000
0000
,  // measure 27
0010
0000
0000
0000
,  // measure 28
0010
0000
0000
0000
,  // measure 29
1000
0000
0000
0000
,  // measure 30
0001
0000
0000
0000
,  // measure 31
0100
0000
0000
0000
,  // measure 32
0010
0000
0000
0000
,  // measure 33
0010
0000
0000
0000
,  // measure 34
1000
0000
0000
0000
,  // measure 35
0100
0000
0000
0000
,  // measure 36
1000
0000
0000
0000
,  // measure 37
0010
0000
0000
0000
,  // measure 38
1000
0000
0000
0000
,  // measure 39
0001
0000
0000
0000
,  // measure 40
0001
0000
0000
0000
,  // measure 41
1000
0000
0000
0000
,  // measure 42
1000
0000
0000
0000
,  // measure 43
0010
0000
0000
0000
,  // measure 44
0001
0000
0000
0000
,  // measure 45
1000
0000
0000
0000
,  // measure 46
0010
0000
0000
0000
,  // measure 47
0100
0000
0000
0000
,  // measure 48
0100
0000
0000
0000
,  // measure 49
1000
0000
0000
0000
,  // measure 50
0100
0000
0000
0000
,  // measure 51
1000
0000
0000
0000
,  // measure 52
1000
0000
0000
0000
,  // measure 53
0001
0000
0000
0000
,  // measure 54
0001
0000
0000
0000
,  // measure 55
1000
0000
0000
0000
,  // measure 56
1000
0000
0000
0000
,  // measure 57
0010
0000
0000
0000
,  // measure 58
0010
0000
0000
0000
,  // measure 59
0100
0000
0000
0000
,  // measure 60
0010
0000
0000
0000
,  // measure 61
0100
0000
0000
0000
,  // measure 62
1000
0000
0000
0000
,  // measure 63
0001
0000
0000
0000
,  // measure 64
0100
0000
0000
0000
,  // measure 65
0100
0000
0000
0000
,  // measure 66
0001
0000
0000
0000
,  // measure 67
0001
0000
0000
0000
,  // measure 68
0100
0000
0000
0000
,  // measure 69
0001
0000
0000
0000
,  // measure 70
0001
0000
0000
0000
,  // measure 71
0100
0000
0000
0000
,  // measure 72
0100
0000
0000
0000
,  // measure 73
0001
0000
0000
0000
,  // measure 74
0001
0000
0000
0000
,  // measure 75
1000
0000
0000
0000
,  // measure 76
1000
0000
0000
0000
,  // measure 77
0010
0000
0000
0000
,  // measure 78
0010
0000
0000
0000
,  // measure 79
0001
0000
0000
0000
,  // measure 80
0100
0000
0000
0000
,  // measure 81
0001
0000
0000
0000
,  // measure 82
0100
0000
0000
0000
,  // measure 83
0001
0000
0000
0000
,  // measure 84
0010
0000
0000
0000
;

//---------------dance-single - Chewi----------------
#NOTES:
     dance-single:
     Chewi:
     Easy:
     5:
     0.298,0.328,0.046,0.076,0.000: // measure 1
0000
0000
0000
0000
,  // measure 2
0000
0000
0000
0000
,  // measure 3
0000
0000
0000
0000
,  // measure 4
0000
0000
0000
0000
,  // measure 5
1000
0100
0010
0000
,  // measure 6
0001
0100
0010
0000
,  // measure 7
1000
0100
0010
0000
,  // measure 8
0001
0100
0010
0000
,  // measure 9
0020
0000
0000
0000
,  // measure 10
2030
0000
0000
0000
,  // measure 11
3200
0000
0000
0000
,  // measure 12
0302
0000
0000
0000
,  // measure 13
0023
0000
0000
0000
,  // measure 14
2030
0000
0000
0000
,  // measure 15
3200
0000
0000
0000
,  // measure 16
0302
0000
0000
0000
,  // measure 17
0013
1000
0010
0001
,  // measure 18
0010
1000
0010
0000
,  // measure 19
1000
0100
0001
0100
,  // measure 20
1000
0100
1000
0000
,  // measure 21
0100
0010
0001
0100
,  // measure 22
0001
0010
0100
0000
,  // measure 23
1000
0010
1000
0100
,  // measure 24
0010
0100
1000
0000
,  // measure 25
0000
1000
0001
1000
,  // measure 26
0100
1000
0001
1000
,  // measure 27
0100
0000
0100
0000
,  // measure 28
0010
0000
0010
0000
,  // measure 29
0000
0010
0001
0100
,  // measure 30
0001
0010
0001
0100
,  // measure 31
0010
0000
1000
0000
,  // measure 32
0010
0100
0010
1000
,  // measure 33
0000
1000
0100
0010
,  // measure 34
0001
1000
0100
0010
,  // measure 35
0001
1000
0000
0000
,  // measure 36
0100
0010
0001
0000
,  // measure 37
0100
0010
1000
0000
,  // measure 38
0010
0100
0001
0000
,  // measure 39
1000
0100
0010
0001
,  // measure 40
0010
0000
0000
0000
,  // measure 41
0001
0010
0100
0001
,  // measure 42
0010
1000
0100
0000
,  // measure 43
0010
1000
0100
0001
,  // measure 44
0010
0100
0001
0000
,  // measure 45
0010
0100
0001
0010
,  // measure 46
1000
0100
0010
1000
,  // measure 47
0100
0010
0001
0100
,  // measure 48
0010
1000
0001
0000
,  // measure 49
1000
0010
0100
1000
,  // measure 50
0010
0001
0010
0000
,  // measure 51
0010
0001
0100
0010
,  // measure 52
0001
0100
1000
0000
,  // measure 53
0010
1000
0100
0010
,  // measure 54
0001
0100
0010
1000
,  // measure 55
0001
1000
0100
0001
,  // measure 56
1000
0100
0001
0010
,  // measure 57
1000
0100
0010
0001
,  // measure 58
0100
0000
0000
0000
,  // measure 59
0010
0010
0010
0010
,  // measure 60
1000
1000
1000
1000
,  // measure 61
0001
0001
0001
0001
,  // measure 62
1000
0100
0010
0001
,  // measure 63
1000
0100
0010
0001
,  // measure 64
1000
0010
0100
0001
,  // measure 65
1000
0010
0100
0001
,  // measure 66
1000
0100
0001
0010
,  // measure 67
1000
1000
1000
1000
,  // measure 68
0100
0100
0100
0100
,  // measure 69
0010
0010
0010
0010
,  // measure 70
0100
1000
0010
1000
,  // measure 71
0100
0010
0001
0100
,  // measure 72
0010
0100
0001
0010
,  // measure 73
0100
1000
0001
0100
,  // measure 74
0010
1000
0001
0010
,  // measure 75
0100
0010
0100
0010
,  // measure 76
0110
0000
0000
0000
,  // measure 77
1001
1000
0100
1000
,  // measure 78
0010
1000
0100
0000
,  // measure 79
1001
0001
0100
0001
,  // measure 80
0010
0001
0100
0000
,  // measure 81
0110
0100
0010
1000
,  // measure 82
0010
0100
0010
0000
,  // measure 83
1010
1000
0100
0010
,  // measure 84
0100
1000
0010
0000
,  // measure 85
2002
0000
0000
0000
,  // measure 86
0000
0000
0000
0000
,  // measure 87
3003
0000
0000
0000
;
