#VERSION:0.83;
#TITLE:恋愛ハンター;
#SUBTITLE:;
#ARTIST:モーニング娘。;
#TITLETRANSLIT:REN'AI HUNTER;
#SUBTITLETRANSLIT:;
#ARTISTTRANSLIT:Morning Musume.;
#GENRE:;
#ORIGIN:;
#CREDIT:chewi;
#BANNER:REN'AI HUNTER.png;
#BACKGROUND:REN'AI HUNTER-bg.png;
#PREVIEWVID:;
#JACKET:REN'AI HUNTER-jacket.png;
#CDIMAGE:;
#DISCIMAGE:;
#LYRICSPATH:;
#CDTITLE:cdtitle.png;
#MUSIC:REN'AI HUNTER.ogg;
#OFFSET:0.001000;
#SAMPLESTART:75.428001;
#SAMPLELENGTH:12.000000;
#SELECTABLE:YES;
#BPMS:0.000=140.000;
#STOPS:;
#DELAYS:;
#WARPS:;
#TIMESIGNATURES:0.000=4=4;
#TICKCOUNTS:0.000=4;
#COMBOS:0.000=1;
#SPEEDS:0.000=1.000=0.000=0;
#SCROLLS:0.000=1.000;
#FAKES:;
#LABELS:0.000=Song Start;
#BGCHANGES:0.000=REN'AI HUNTER.avi=1.000=1=0=1===CrossFade==,
99999=-nosongbg-=1.000=0=0=0 // don't automatically add -songbackground-
;
#KEYSOUNDS:;
#ATTACKS:
;

//---------------dance-single - ----------------
#NOTEDATA:;
#CHARTNAME:;
#STEPSTYPE:dance-single;
#DESCRIPTION:;
#CHARTSTYLE:;
#DIFFICULTY:Easy;
#METER:5;
#RADARVALUES:0.216504,0.343766,0.184821,0.129374,0.000000,164.000000,144.000000,20.000000,14.000000,0.000000,0.000000,0.000000,0.000000,0.000000,0.216504,0.343766,0.184821,0.129374,0.000000,164.000000,144.000000,20.000000,14.000000,0.000000,0.000000,0.000000,0.000000,0.000000;
#CREDIT:chewi;
#NOTES:
0000
0000
0000
0000
,
0000
0000
0000
0000
,
0000
0000
0000
0000
,
0000
0000
0000
0000
,
0000
0000
0000
0000
,
1000
0100
0010
0100
,
2000
0100
0200
3300
,
0001
0100
0010
0100
,
0101
0101
1000
0013
,
1010
0000
0000
0000
,
1000
0000
0100
0000
,
0001
0000
0100
0000
,
1000
0100
0001
0100
,
1000
0010
0100
0000
,
0001
0000
0010
0000
,
1000
0000
0010
0000
,
0001
0010
1000
0010
,
0001
0100
0010
0000
,
1010
1010
0000
0000
,
0100
0001
0100
0000
,
0101
0101
0000
0000
,
0001
1000
0001
0000
,
1001
1001
0000
0000
,
0010
0100
0010
0000
,
0110
0110
0000
0000
,
0010
0100
1000
0001
,
2000
0000
3000
0000
,
0200
0000
0300
0000
,
0002
0000
0003
0000
,
0020
0000
0030
0000
,
0002
0000
0003
0000
,
0200
0000
0300
0000
,
2000
0000
3000
0000
,
0020
0000
0030
0000
,
0100
0000
0100
0000
,
0100
0001
0010
0000
,
0100
0000
0100
0000
,
0100
1000
0010
0000
,
1000
0000
1000
0000
,
0001
1000
0100
0000
,
0001
0000
0001
0000
,
0100
1000
0010
0100
,
0002
0000
2000
0000
,
3003
1000
0001
1000
,
1001
0000
0010
0000
,
0001
0001
0100
0000
,
1001
0000
0100
0000
,
1000
1000
0010
0000
,
1000
0010
1000
0010
,
0100
0001
0100
0001
,
0001
0001
0100
0000
,
1000
0000
3001
1001
,
0110
0000
1000
0000
,
0010
0010
0001
0000
,
0110
0000
0001
0000
,
0100
0100
1000
0000
,
0100
1000
0100
1000
,
0001
0010
0001
0010
,
0010
0010
0001
0000
,
0100
0000
0310
0110
,
1001
0000
1100
0000
,
0202
0000
0000
0000
,
0303
0000
0000
0000
;

//---------------dance-single - ----------------
#NOTEDATA:;
#CHARTNAME:;
#STEPSTYPE:dance-single;
#DESCRIPTION:;
#CHARTSTYLE:;
#DIFFICULTY:Beginner;
#METER:3;
#RADARVALUES:0.141256,0.229178,0.110892,0.194062,0.000000,107.000000,95.000000,12.000000,21.000000,0.000000,0.000000,0.000000,0.000000,0.000000,0.141256,0.229178,0.110892,0.194062,0.000000,107.000000,95.000000,12.000000,21.000000,0.000000,0.000000,0.000000,0.000000,0.000000;
#CREDIT:chewi;
#NOTES:
0000
0000
0000
0000
,
0000
0000
0000
0000
,
0000
0000
0000
0000
,
0000
0000
0000
0000
,
0000
0000
0000
0000
,
1000
0000
0010
0000
,
2000
0000
0000
3300
,
0001
0000
0010
0000
,
0002
0000
0000
0003
,
1001
0000
0000
0000
,
1000
0000
0100
0000
,
0001
0000
0100
0000
,
1000
0000
0001
0000
,
1000
0000
0100
0000
,
0001
0000
0010
0000
,
1000
0000
0010
0000
,
0001
0000
1000
0000
,
0001
0000
0010
0000
,
0220
0330
0000
0000
,
0100
0000
0100
0000
,
2002
3003
0000
0000
,
0001
0000
0001
0000
,
2002
3003
0000
0000
,
0010
0000
0010
0000
,
0220
0330
0330
0000
,
0010
0000
1000
0000
,
2000
0000
3000
0000
,
0200
0000
0300
0000
,
0002
0000
0003
0000
,
0020
0000
0030
0000
,
0002
0000
0003
0000
,
0200
0000
0300
0000
,
2000
0000
3000
0000
,
0020
0000
0030
0000
,
0100
0000
0100
0000
,
0100
0000
0010
0000
,
0100
0000
0100
0000
,
0100
0000
0010
0000
,
1000
0000
1000
0000
,
0001
0000
0100
0000
,
0001
0000
0001
0000
,
0100
0000
0010
0000
,
2000
0000
0000
0000
,
3003
0000
0000
0000
,
1001
0000
0010
0000
,
0001
0000
0100
0000
,
1001
0000
0100
0000
,
1000
0000
0010
0000
,
1000
0000
1000
0000
,
0100
0000
0100
0000
,
0001
0000
0100
0000
,
1000
0000
3001
0000
,
0110
0000
1000
0000
,
0010
0000
0001
0000
,
0110
0000
0001
0000
,
0100
0000
1000
0000
,
0100
0000
0100
0000
,
0001
0000
0001
0000
,
0010
0000
0001
0000
,
0100
0000
0310
0000
,
1001
0000
1001
0000
,
2002
0000
0000
0000
,
3303
0000
0000
0000
;

//---------------dance-single - ----------------
#NOTEDATA:;
#CHARTNAME:;
#STEPSTYPE:dance-single;
#DESCRIPTION:;
#CHARTSTYLE:;
#DIFFICULTY:Medium;
#METER:7;
#RADARVALUES:0.333997,0.429708,0.249508,0.157098,0.018482,253.000000,226.000000,27.000000,17.000000,0.000000,0.000000,0.000000,0.000000,0.000000,0.333997,0.429708,0.249508,0.157098,0.018482,253.000000,226.000000,27.000000,17.000000,0.000000,0.000000,0.000000,0.000000,0.000000;
#CREDIT:chewi;
#NOTES:
0000
0000
0000
0000
,
0000
0000
0000
0000
,
0000
0000
0000
0000
,
0000
0000
0000
0000
,
0000
0000
0000
0000
,
1000
0000
0001
0000
0202
0000
0303
0300
,
0100
0001
0100
0001
0200
0000
0300
0000
,
0010
1000
2002
3003
,
1001
0000
0000
0110
0000
0000
0100
0010
0100
0010
0100
0310
,
0200
0000
0000
0300
,
0001
0100
0010
1000
,
0001
1000
0000
1100
0000
0000
0000
0000
,
1000
0100
0010
0001
,
1000
0001
0000
1001
0000
0000
0100
0000
,
0010
1000
0010
0100
,
0001
0010
0000
0011
0000
0000
0010
0000
,
0100
1000
0001
1000
,
0001
0100
0000
0101
0000
0100
0000
0100
,
0010
1000
0001
0000
1000
0000
0100
0000
,
1000
0000
0010
0000
1000
0100
0000
0100
,
0010
0001
1000
0000
0010
0000
1000
0000
,
0100
0000
1000
0000
0010
0100
0000
0100
,
0010
1000
0001
0000
0010
0000
0001
0000
,
0100
0000
0010
0000
0100
0010
0000
0010
,
0100
0001
0010
0000
0001
0000
0010
0000
,
0100
1000
0010
0100
,
1001
1000
0100
0000
,
0010
0001
0100
1000
,
0010
0001
0100
0000
,
0100
0000
0001
0000
1000
0000
0010
0030
,
1000
0100
0001
0010
,
1030
0100
0001
0000
,
0100
1000
0001
0010
,
0001
1000
0010
0000
,
1000
1010
0001
0011
,
0100
0000
0100
0000
1000
0100
0001
0000
,
0200
0010
1000
1300
,
2000
0010
0001
3100
,
0001
0101
1000
1100
,
0010
0000
0010
0000
0001
0010
1000
0000
,
0020
0100
0001
0031
,
0002
0100
1000
0013
,
2000
0100
0001
3010
,
0000
1010
0101
1010
,
0001
0001
0000
0000
1000
1000
0000
0000
,
0001
0010
0100
1000
,
0100
0110
0001
1001
,
0001
0100
1000
0010
,
0010
0100
0002
0003
,
0010
0100
2000
3000
,
0001
0010
0001
1000
,
0001
0101
1010
0101
,
1000
1000
0000
0000
0001
0001
0000
0000
,
1000
0100
0010
0001
,
0010
0110
1000
1001
,
1000
0010
0001
0100
,
0100
0010
2000
3000
,
0100
0010
0002
0003
,
1000
0100
1000
0001
,
1000
1010
0101
1010
,
1000
0010
0000
1000
0010
1000
0000
0000
,
2002
0000
0000
0000
,
3303
0000
0000
0000
;

//---------------dance-single - ----------------
#NOTEDATA:;
#CHARTNAME:;
#STEPSTYPE:dance-single;
#DESCRIPTION:;
#CHARTSTYLE:;
#DIFFICULTY:Hard;
#METER:11;
#RADARVALUES:0.517498,0.544297,0.378882,0.064687,0.166339,392.000000,351.000000,41.000000,7.000000,0.000000,0.000000,0.000000,0.000000,0.000000,0.517498,0.544297,0.378882,0.064687,0.166339,392.000000,351.000000,41.000000,7.000000,0.000000,0.000000,0.000000,0.000000,0.000000;
#CREDIT:chewi;
#NOTES:
// measure 0
0000
0000
0000
0000
,  // measure 1
0000
0000
0000
0000
,  // measure 2
0000
0000
0000
0000
,  // measure 3
0000
0000
0000
0000
,  // measure 4
0000
0000
0000
0000
,  // measure 5
0001
0100
0101
1000
,  // measure 6
0100
0010
0100
0010
0100
0010
0001
1000
0001
1000
0001
1000
,  // measure 7
0001
1000
1010
1000
,  // measure 8
1001
0000
0000
1001
0000
0000
1000
0001
1000
0001
1000
0001
,  // measure 9
2000
0000
0000
0000
3000
0001
3100
0001
,  // measure 10
0100
0000
0000
0000
0010
0000
0000
0000
1000
0000
0000
1000
0001
0000
0010
0000
,  // measure 11
0100
0010
0000
0110
0000
0010
0100
1000
,  // measure 12
0001
0000
0000
0000
1000
0000
0000
0000
0001
0000
0000
0001
0100
0000
0010
0000
,  // measure 13
0100
0010
0000
0110
0000
0100
0001
1000
,  // measure 14
0010
0000
0000
0000
1000
0000
0000
0000
0001
0000
0000
0001
1000
0000
0001
0000
,  // measure 15
1000
0100
0000
0110
0000
0010
0100
1000
,  // measure 16
0100
0000
0000
0000
0010
0000
0000
0000
0001
0000
0000
0001
1000
0000
0010
0000
,  // measure 17
0100
0001
0000
0101
0000
1100
0000
1001
,  // measure 18
1000
0010
1000
0010
1000
0001
1000
0001
,  // measure 19
1000
0100
1000
0100
1000
0100
0000
0010
,  // measure 20
0001
0100
0001
0100
0001
1000
0001
1000
,  // measure 21
0001
0010
0001
0010
0001
0010
0000
1000
,  // measure 22
0010
1000
0010
1000
0010
0001
0010
0001
,  // measure 23
0010
0100
0010
0100
0010
0100
0000
0010
,  // measure 24
0100
1000
0100
1000
0100
0001
0100
0001
,  // measure 25
0100
0010
0100
0010
0100
1000
0100
0001
,  // measure 26
0100
0000
0000
0100
0000
0000
0100
0000
1000
0000
0000
0000
1010
0000
0000
0000
,  // measure 27
0100
0000
0000
0100
0000
0000
0100
0000
0001
0000
0000
0000
0101
0000
0000
0000
,  // measure 28
0001
0000
0000
0001
0000
0000
0001
0000
1000
0000
0000
0000
1100
0000
0000
0000
,  // measure 29
1000
0000
0000
1000
0000
0000
1000
0000
0001
0000
0000
0000
0011
0000
0000
0000
,  // measure 30
0010
0000
0000
0010
0000
0000
0010
0000
0001
0000
0000
0000
0101
0000
0000
0000
,  // measure 31
0010
0000
0000
0010
0000
0000
0010
0000
1000
0000
0000
0000
1010
0000
0000
0000
,  // measure 32
1000
0000
0000
1000
0000
0000
1000
0000
0001
0000
0000
0000
0011
0000
0000
0000
,  // measure 33
0001
0000
0000
0001
0000
0000
0001
0000
1000
0000
0000
0000
1100
0000
0000
0000
,  // measure 34
1000
0100
0001
0000
0100
0001
0010
0000
,  // measure 35
0001
0010
1000
0000
0010
1000
0100
0000
,  // measure 36
0010
0000
0000
0000
0000
0000
0001
0000
0000
0000
0000
0000
0100
0000
0000
0000
0000
0000
0001
0000
0000
0000
0000
0000
1000
0000
0000
0000
3000
0000
0000
0000
0000
1001
0000
0000
0000
0000
0000
0000
0000
0000
0010
0000
0000
0000
0000
0000
,  // measure 37
1000
0000
0100
0000
1000
0000
0000
1001
0000
0000
0000
0000
1003
0000
0000
0000
,  // measure 38
0001
0010
1000
0000
0010
1000
0100
0000
,  // measure 39
1000
0100
0001
0000
0100
0001
0010
0000
,  // measure 40
0100
0000
0000
0000
0000
0000
1000
0000
0000
0000
0000
0000
0010
0000
0000
0000
0000
0000
1000
0000
0000
0000
0000
0000
0001
0000
0000
0000
0003
0000
0000
0000
0000
1001
0000
0000
0000
0000
0000
0000
0000
0000
0100
0000
0000
0000
0000
0000
,  // measure 41
0001
0000
0010
0000
0001
0000
0000
1001
0000
0000
0000
0000
0100
0000
0000
0000
,  // measure 42
0110
1000
0001
0010
0100
1000
0001
0100
,  // measure 43
0000
0101
1010
0101
,  // measure 44
1000
0001
0000
1000
0100
0001
0000
0100
,  // measure 45
0010
0001
1000
0010
0100
0001
0100
0000
,  // measure 46
2010
0001
3001
0000
0012
1000
1003
0000
,  // measure 47
1000
0000
0001
1000
0001
1000
0000
0001
0000
0000
1000
0000
0001
0000
0000
0000
,  // measure 48
0001
0010
1000
0010
0001
1000
0100
0000
,  // measure 49
1000
0010
0001
0010
1000
0100
0001
0000
,  // measure 50
0100
0010
0100
0010
0001
1000
0001
1000
,  // measure 51
0001
1010
0101
1010
,  // measure 52
0001
1000
0000
0001
0010
1000
0000
0010
,  // measure 53
0100
1000
0001
0100
0010
1000
0010
0000
,  // measure 54
0102
1000
1003
0000
2100
0001
3001
0000
,  // measure 55
0001
0000
1000
0001
1000
0001
0000
1000
0000
0000
0001
0000
1000
0000
0000
0000
,  // measure 56
1000
0100
0001
0100
1000
0001
0010
0000
,  // measure 57
0001
0100
1000
0100
0001
0010
1000
0000
,  // measure 58
0010
0100
0010
0100
1000
0001
1000
0001
,  // measure 59
0100
0100
0000
0000
0110
0000
1001
0000
,  // measure 60
1100
1100
0000
0011
0011
0011
0000
0000
,  // measure 61
2002
0000
0000
0000
,  // measure 62
3003
0000
0000
0000
;
